Subcategories

Charles Aznavour - Grandes Exitos "En Castellano" (2004)

Posted By: popsakov
Charles Aznavour - Grandes Exitos "En Castellano" (2004)

Charles Aznavour - Grandes Exitos "En Castellano" (2004)
EAC Rip | FLAC (Img) + Cue + Log ~ 206 Mb | MP3 CBR320 ~ 98 Mb
Scans Included (JPG, 600 dpi) | RAR 5% Recovery
Chanson | GLD Distribuidora S.A. #GK 14120

Charles Aznavour is a French, later naturalised Armenian, singer, songwriter, actor, public activist and diplomat. Aznavour is known for his unique tenor voice: clear and ringing in its upper reaches, with gravelly and profound low notes. He has written over 800 songs and recorded over 1,200, sung in eight languages and sold more than 180 million records. He is one of France's most popular and enduring singers. He has been dubbed France's Frank Sinatra, while music critic Stephen Holden has described Aznavour as "French pop deity." He is also arguably the most famous Armenian of his time. In 1998, Aznavour was named Entertainer of the Century by CNN and users of Time Online from around the globe. He was recognized as the century's outstanding performer, with nearly 18% of the total vote, edging out Elvis Presley and Bob Dylan.

He has sung for presidents, popes and royalty, as well as at humanitarian events. In response to the 1988 Armenian earthquake, he founded the charitable organization Aznavour for Armenia along with his long-time friend impresario Levon Sayan. In 2009, he was appointed ambassador of Armenia to Switzerland, as well as Armenia's permanent delegate to the United Nations at Geneva. Aznavour is the longest standing “A list” star, still filling major venues all over the world. He started his most recent tour in 2014.
~ Wiki

***************

Charles Aznavour - Grandes Exitos "En Castellano" (2004)

Charles Aznavour - Grandes Exitos "En Castellano" (2004)

Track List:

01. La Bohemia [0:04:04.10]
02. Junto A Ti [0:02:45.35]
03. Los Dias Felices [0:04:01.51]
04. Camarada [0:03:16.36]
05. Y Yo En Mi Rincon [0:03:33.61]
06. Juventud [0:03:29.05]
07. Vivir Junto A Ti [0:03:08.46]
08. Esto Es Formidable [0:02:58.11]
09. Mi Ultima Hora [0:02:53.07]
10. Apaga La Luz [0:02:50.70]

Exact Audio Copy V1.0 beta 3 from 29. August 2011

EAC extraction logfile from 6. December 2014, 10:13

Charles Aznavour / Grandes Exitos En Castellano

Used drive : ATAPI iHAS124 D Adapter: 0 ID: 2

Read mode : Secure
Utilize accurate stream : Yes
Defeat audio cache : Yes
Make use of C2 pointers : No

Read offset correction : 6
Overread into Lead-In and Lead-Out : No
Fill up missing offset samples with silence : Yes
Delete leading and trailing silent blocks : No
Null samples used in CRC calculations : Yes
Used interface : Installed external ASPI interface

Used output format : User Defined Encoder
Selected bitrate : 1024 kBit/s
Quality : High
Add ID3 tag : No
Command line compressor : C:\Program Files (x86)\Exact Audio Copy\Flac\flac.exe
Additional command line options : -6 -V -T "ARTIST=%artist%" -T "TITLE=%title%" -T "ALBUM=%albumtitle%" -T "DATE=%year%" -T "TRACKNUMBER=%tracknr%" -T "GENRE=%genre%" -T "COMMENT=%comment%" -T "BAND=%albuminterpret%" -T "COMPOSER=%composer%" %haslyrics%–tag-from-file=LYRICS="%lyricsfile%"%haslyrics% -T "DISCNUMBER=%cdnumber%" -T "TOTALDISCS=%totalcds%" -T "TOTALTRACKS=%numtracks%" %hascover%–picture="%coverfile%"%hascover% %source% -o %dest%


TOC of the extracted CD

Track | Start | Length | Start sector | End sector
––––––––––––––––––––––––––––-
1 | 0:00.00 | 4:04.10 | 0 | 18309
2 | 4:04.10 | 2:45.35 | 18310 | 30719
3 | 6:49.45 | 4:01.51 | 30720 | 48845
4 | 10:51.21 | 3:16.36 | 48846 | 63581
5 | 14:07.57 | 3:33.61 | 63582 | 79617
6 | 17:41.43 | 3:29.05 | 79618 | 95297
7 | 21:10.48 | 3:08.46 | 95298 | 109443
8 | 24:19.19 | 2:58.11 | 109444 | 122804
9 | 27:17.30 | 2:53.07 | 122805 | 135786
10 | 30:10.37 | 2:50.70 | 135787 | 148606


Range status and errors

Selected range

Filename C:\mm\Charles Aznavour\2004 - Gandes Exitos ''En Castellano'' [GK 14120]\Charles Aznavour - Grandes Exitos En Castellano.wav

Peak level 100.0 %
Extraction speed 7.3 X
Range quality 99.9 %
Test CRC 27DBC101
Copy CRC 27DBC101
Copy OK

No errors occurred


AccurateRip summary

Track 1 not present in database
Track 2 not present in database
Track 3 not present in database
Track 4 not present in database
Track 5 not present in database
Track 6 not present in database
Track 7 not present in database
Track 8 not present in database
Track 9 not present in database
Track 10 not present in database

None of the tracks are present in the AccurateRip database

End of status report

foobar2000 1.2.6 / Dynamic Range Meter 1.1.1
log date: 2017-08-22 19:38:35

––––––––––––––––––––––––––––––––––––––––
Analyzed: Charles Aznavour / Grandes Exitos En Castellano
––––––––––––––––––––––––––––––––––––––––

DR Peak RMS Duration Track
––––––––––––––––––––––––––––––––––––––––
DR11 -0.76 dB -14.30 dB 4:04 01-La Bohemia
DR12 -0.10 dB -17.35 dB 2:45 02-Junto A Ti
DR13 -0.01 dB -15.83 dB 4:02 03-Los Dias Felices
DR14 -0.10 dB -18.31 dB 3:16 04-Camarada
DR13 -0.10 dB -15.82 dB 3:34 05-Y Yo En Mi Rincon
DR14 -0.10 dB -17.35 dB 3:29 06-Juventud
DR14 -0.10 dB -17.24 dB 3:09 07-Vivir Junto A Ti
DR11 -0.10 dB -16.02 dB 2:58 08-Esto Es Formidable
DR10 -0.01 dB -14.20 dB 2:53 09-Mi Ultima Hora
DR10 0.00 dB -13.60 dB 2:51 10-Apaga La Luz
––––––––––––––––––––––––––––––––––––––––

Number of tracks: 10
Official DR value: DR12

Samplerate: 44100 Hz
Channels: 2
Bits per sample: 16
Bitrate: 760 kbps
Codec: FLAC
================================================================================

[CUETools log; Date: 22.08.2017 19:39:46; Version: 2.1.5]
[CTDB TOCID: hpKuxaS39IsqiPk2lrzjU58SJIY-] disk not present in database.
[AccurateRip ID: 000d0419-00672715-7807bd0a] found.
Track [ CRC | V2 ] Status
01 [2434172e|05ba422c] (0+1/1) Accurately ripped
02 [cd995568|7b498efd] (0+1/1) Accurately ripped
03 [4d7bd775|b497970e] (0+1/1) Accurately ripped
04 [43d21b2f|375f3c67] (0+1/1) Accurately ripped
05 [47f95cb7|989f0f3b] (0+1/1) Accurately ripped
06 [991d1726|e28bb6ef] (0+1/1) Accurately ripped
07 [c3d8b767|02eb0197] (0+1/1) Accurately ripped
08 [7e126724|a6530aea] (0+1/1) Accurately ripped
09 [58709a1e|634f0a85] (0+1/1) Accurately ripped
10 [e9a7a837|9c85d8be] (0+1/1) Accurately ripped

Track Peak [ CRC32 ] [W/O NULL] [ LOG ]
– 100,0 [27DBC101] [BB533F4B] CRC32
01 91,5 [B9C611E3] [4C859D84]
02 98,8 [60A18473] [94C5DE56]
03 99,8 [B7A0E54A] [361DADB3]
04 98,8 [FABF2CB8] [5F05032E]
05 98,8 [F6B32660] [0E477A67]
06 98,8 [1E1E010A] [520A733B]
07 98,8 [E7E3D6BC] [72785387]
08 98,8 [20D7C31D] [6CC61BBE]
09 99,8 [2BD80249] [AEE15FCA]
10 100,0 [483633D5] [ACA19FA8]

Charles Aznavour - Grandes Exitos "En Castellano" (2004)

All thanks go to sergych

>>> Charles Aznavour in my Blog <<<

Download from icerbox.com: