Subcategories

Charles Aznavour - Jazznavour (1998) Repost/New Rip

Posted By: popsakov
Charles Aznavour - Jazznavour (1998) Repost/New Rip

Charles Aznavour - Jazznavour (1998)
EAC Rip | FLAC (Img) + Cue + Log ~ 330 Mb | MP3 CBR320 ~ 119 Mb
Scans (JPG, 600 dpi) ~ 85 Mb | RAR 5% Recovery
Jazz, Smooth Jazz, Swing, Vocal Pop | EMI #7243 4 96903 2

Formidable album with the best french jazzman: Michel Petrucciani, Richard Galliano, Jacky terrasson,Eddy Louis, Pierre Drevet and the collaboration of Diane Reeves. The program aims to revisit Aznavour's song book in jazz form. So here are in great versions "Yesterday, When i was Young", " Mes Emmerdes", "Ce sacré piano", "J'aime París au mois de mai", "Me Voilà Seul", "She" and last but not least "Au creux de mon épaule". This CD combines the softness of the classic French style and the addicting jazz flare to create a very nice CD for any kind of music lover.

***************

Charles Aznavour - Jazznavour (1998) Repost/New Rip

Track List:

01. J'Aime Paris Au Mois De Mai (En Duo Avec Dianne Reeves) [0:05:01.69]
02. Ce Sacre Piano [0:03:49.28]
03. De T'Avoir Aimee [0:03:58.63]
04. Tu T'Laisses Aller [0:04:38.42]
05. Mes Emmerdes [0:03:56.58]
06. Yesterday When I Was Young (Hier Encore) (En Duo Avec Dianne Reeves) [0:03:32.37]
07. Les Plaisirs Demodes [0:02:44.43]
08. Me Voila Seul [0:04:32.07]
09. A T'Regarder [0:02:59.28]
10. Lucie [0:02:54.27]
11. She (Tous Les Visages De L'Amour) [0:02:40.70]
12. Dormir Avec Vous Madame [0:02:26.03]
13. Au Creux De Mon Epaule [0:03:47.35]
14. For Me Formidable [0:02:21.60]

Exact Audio Copy V1.0 beta 3 from 29. August 2011

EAC extraction logfile from 24. October 2015, 19:40

Charles Aznavour / Jazznavour

Used drive : ATAPI iHAS124 D Adapter: 0 ID: 2

Read mode : Secure
Utilize accurate stream : Yes
Defeat audio cache : Yes
Make use of C2 pointers : No

Read offset correction : 6
Overread into Lead-In and Lead-Out : No
Fill up missing offset samples with silence : Yes
Delete leading and trailing silent blocks : No
Null samples used in CRC calculations : Yes
Used interface : Installed external ASPI interface

Used output format : User Defined Encoder
Selected bitrate : 1024 kBit/s
Quality : High
Add ID3 tag : No
Command line compressor : C:\Program Files (x86)\Exact Audio Copy\Flac\flac.exe
Additional command line options : -6 -V -T "ARTIST=%artist%" -T "TITLE=%title%" -T "ALBUM=%albumtitle%" -T "DATE=%year%" -T "TRACKNUMBER=%tracknr%" -T "GENRE=%genre%" -T "COMMENT=%comment%" -T "BAND=%albuminterpret%" -T "COMPOSER=%composer%" %haslyrics%–tag-from-file=LYRICS="%lyricsfile%"%haslyrics% -T "DISCNUMBER=%cdnumber%" -T "TOTALDISCS=%totalcds%" -T "TOTALTRACKS=%numtracks%" %hascover%–picture="%coverfile%"%hascover% %source% -o %dest%


TOC of the extracted CD

Track | Start | Length | Start sector | End sector
––––––––––––––––––––––––––––-
1 | 0:00.00 | 5:01.69 | 0 | 22643
2 | 5:01.69 | 3:49.28 | 22644 | 39846
3 | 8:51.22 | 3:58.63 | 39847 | 57759
4 | 12:50.10 | 4:38.42 | 57760 | 78651
5 | 17:28.52 | 3:56.58 | 78652 | 96409
6 | 21:25.35 | 3:32.37 | 96410 | 112346
7 | 24:57.72 | 2:44.43 | 112347 | 124689
8 | 27:42.40 | 4:32.07 | 124690 | 145096
9 | 32:14.47 | 2:59.28 | 145097 | 158549
10 | 35:14.00 | 2:54.27 | 158550 | 171626
11 | 38:08.27 | 2:40.70 | 171627 | 183696
12 | 40:49.22 | 2:26.03 | 183697 | 194649
13 | 43:15.25 | 3:47.35 | 194650 | 211709
14 | 47:02.60 | 2:21.60 | 211710 | 222344


Range status and errors

Selected range

Filename C:\mm\Charles Aznavour\1998 - Jazznavour [7243 4 96903 2]\Charles Aznavour - Jazznavour.wav

Peak level 98.0 %
Extraction speed 8.6 X
Range quality 100.0 %
Test CRC DBE8C04C
Copy CRC DBE8C04C
Copy OK

No errors occurred


AccurateRip summary

Track 1 accurately ripped (confidence 32) [6C8B504E] (AR v2)
Track 2 accurately ripped (confidence 32) [E4B1B902] (AR v2)
Track 3 accurately ripped (confidence 33) [2A95938B] (AR v2)
Track 4 accurately ripped (confidence 32) [8D92F252] (AR v2)
Track 5 accurately ripped (confidence 33) [ED991911] (AR v2)
Track 6 accurately ripped (confidence 32) [16C0621F] (AR v2)
Track 7 accurately ripped (confidence 32) [22751C8F] (AR v2)
Track 8 accurately ripped (confidence 32) [DC608FD3] (AR v2)
Track 9 accurately ripped (confidence 30) [6A77236A] (AR v2)
Track 10 accurately ripped (confidence 32) [E4CF36A5] (AR v2)
Track 11 accurately ripped (confidence 33) [6A9AAAF3] (AR v2)
Track 12 accurately ripped (confidence 33) [DDC9E916] (AR v2)
Track 13 accurately ripped (confidence 32) [C15C9F5C] (AR v2)
Track 14 accurately ripped (confidence 32) [DB3A05F3] (AR v2)

All tracks accurately ripped

End of status report

foobar2000 1.2.6 / Dynamic Range Meter 1.1.1
log date: 2016-04-23 14:07:18

––––––––––––––––––––––––––––––––––––––––
Analyzed: Charles Aznavour / Jazznavour
––––––––––––––––––––––––––––––––––––––––

DR Peak RMS Duration Track
––––––––––––––––––––––––––––––––––––––––
DR10 -0.18 dB -12.11 dB 5:02 01-J'Aime Paris Au Mois De Mai (En Duo Avec Dianne Reeves)
DR10 -0.18 dB -12.37 dB 3:49 02-Ce Sacre Piano
DR10 -0.18 dB -12.68 dB 3:59 03-De T'Avoir Aimee
DR11 -0.18 dB -13.73 dB 4:39 04-Tu T'Laisses Aller
DR9 -0.18 dB -11.51 dB 3:57 05-Mes Emmerdes
DR12 -0.18 dB -13.91 dB 3:32 06-Yesterday When I Was Young (Hier Encore) (En Duo Avec Dianne Reeves)
DR11 -0.18 dB -13.38 dB 2:45 07-Les Plaisirs Demodes
DR12 -0.18 dB -14.95 dB 4:32 08-Me Voila Seul
DR11 -0.18 dB -13.56 dB 2:59 09-A T'Regarder
DR11 -0.18 dB -13.68 dB 2:54 10-Lucie
DR10 -0.18 dB -12.15 dB 2:41 11-She (Tous Les Visages De L'Amour)
DR11 -0.18 dB -12.34 dB 2:26 12-Dormir Avec Vous Madame
DR10 -0.18 dB -13.43 dB 3:47 13-Au Creux De Mon Epaule
DR9 -0.18 dB -11.29 dB 2:22 14-For Me Formidable
––––––––––––––––––––––––––––––––––––––––

Number of tracks: 14
Official DR value: DR10

Samplerate: 44100 Hz
Channels: 2
Bits per sample: 16
Bitrate: 890 kbps
Codec: FLAC
================================================================================

[CUETools log; Date: 23.04.2016 14:07:15; Version: 2.1.5]
[CTDB TOCID: 3aFuCxhclJsfvDGLIpdlacoDCOU-] found.
Track | CTDB Status
1 | (46/46) Accurately ripped
2 | (46/46) Accurately ripped
3 | (46/46) Accurately ripped
4 | (46/46) Accurately ripped
5 | (46/46) Accurately ripped
6 | (46/46) Accurately ripped
7 | (46/46) Accurately ripped
8 | (46/46) Accurately ripped
9 | (45/46) Accurately ripped
10 | (46/46) Accurately ripped
11 | (46/46) Accurately ripped
12 | (46/46) Accurately ripped
13 | (46/46) Accurately ripped
14 | (46/46) Accurately ripped
[AccurateRip ID: 001bc57a-01216102-c00b940e] found.
Track [ CRC | V2 ] Status
01 [9cef050a|6c8b504e] (22+33/59) Accurately ripped
02 [ab650e0c|e4b1b902] (23+33/60) Accurately ripped
03 [ef494083|2a95938b] (23+34/61) Accurately ripped
04 [b8c4671f|8d92f252] (23+33/60) Accurately ripped
05 [23ea6918|ed991911] (23+34/61) Accurately ripped
06 [416541d4|16c0621f] (23+33/60) Accurately ripped
07 [88ef109e|22751c8f] (23+33/60) Accurately ripped
08 [40821d1a|dc608fd3] (22+33/59) Accurately ripped
09 [40ec1851|6a77236a] (23+31/58) Accurately ripped
10 [66eb8b77|e4cf36a5] (22+33/59) Accurately ripped
11 [8907ad71|6a9aaaf3] (22+34/60) Accurately ripped
12 [bb46b9ee|ddc9e916] (23+34/59) Accurately ripped
13 [4bf69b32|c15c9f5c] (22+33/57) Accurately ripped
14 [1878a457|db3a05f3] (23+33/60) Accurately ripped
Offsetted by -676:
01 [12412fc6] (02/59) Accurately ripped
02 [e439a200] (02/60) Accurately ripped
03 [c0e7a6fb] (02/61) Accurately ripped
04 [107c77b3] (02/60) Accurately ripped
05 [b4c1f460] (02/61) Accurately ripped
06 [afff27a4] (02/60) Accurately ripped
07 [5cb0a7ba] (02/60) Accurately ripped
08 [e99a11d2] (02/59) Accurately ripped
09 [876bd3c5] (02/58) Accurately ripped
10 [42ed3b77] (02/59) Accurately ripped
11 [977f2481] (02/60) Accurately ripped
12 [3a2f1ee6] (00/59) No match (V2 was not tested)
13 [d649980e] (00/57) No match (V2 was not tested)
14 [7a7ab1eb] (00/60) No match (V2 was not tested)
Offsetted by -566:
01 [145efce4] (00/59) No match (V2 was not tested)
02 [954c0f3a] (00/60) No match (V2 was not tested)
03 [197e59b7] (00/61) No match (V2 was not tested)
04 [56488d3d] (00/60) No match (V2 was not tested)
05 [1eb41684] (00/61) No match (V2 was not tested)
06 [3944078c] (00/60) No match (V2 was not tested)
07 [e321d108] (00/60) No match (V2 was not tested)
08 [b517afae] (00/59) No match (V2 was not tested)
09 [bdd7ccbf] (00/58) No match (V2 was not tested)
10 [28f91377] (00/59) No match (V2 was not tested)
11 [7b642109] (00/60) No match (V2 was not tested)
12 [4b6738e2] (00/59) No match (V2 was not tested)
13 [9b6c903c] (00/57) No match (V2 was not tested)
14 [02c495f5] (02/60) Accurately ripped

Track Peak [ CRC32 ] [W/O NULL] [ LOG ]
– 98,0 [DBE8C04C] [CE0F115E] CRC32
01 98,0 [136A2203] [3FD8F8F0]
02 97,9 [EE282C7E] [E852CE46]
03 97,9 [7C810269] [862B3D25]
04 97,9 [7AD96E49] [6E7DB944]
05 97,9 [11B8D558] [685C6FA2]
06 97,9 [8D8A8FFE] [ADFE514D]
07 97,9 [03950100] [70B72797]
08 97,9 [73EF16ED] [90DD6C6C]
09 97,9 [68499EE5] [3046619A]
10 97,9 [B6D2AD1E] [5D374F56]
11 97,9 [382541B9] [D58C0F4E]
12 97,9 [C93C583E] [DC365EF4]
13 97,9 [53DC0484] [7F1B992E]
14 97,9 [D04E5E92] [9D3FF13E]

Charles Aznavour - Jazznavour (1998) Repost/New Rip

Charles Aznavour - Jazznavour (1998) Repost/New Rip

All thanks go to the original ripper(s) …

Visit my blog!

Download: