Subcategories

Charles Aznavour - Colore ma vie (2007)

Posted By: Designol
Charles Aznavour - Colore ma vie (2007)

Charles Aznavour - Colore ma vie (2007) [feat. Chucho Valdés]
EAC | FLAC | Image (Cue&Log) ~ 352 Mb (incl 5%) | Mp3 (CBR320) ~ 134 Mb (incl 5%) | Scans included
Genre: Chanson, Vocal Pop, Afro-Cuban Jazz | Label: EMI/Gala Records | # 0946 3894532 1 | Time: 00:48:06

2007 album from the French vocalist, actor and songwriter, quite possibly the best known French entertainer in the world. Sounding like a mixture of Frank Sinatra and Maurice Chavalier, Aznavour's distinctive voice has entertained audiences for over four decades.

Excellent master performance by the great Cuban pianist, "Chucho" Valdez, who gives it a totally different tone, atmosphere, and genre to the still strong and vibrant voice of the great Charles Aznavour (in his eighty's.) It infuses and adds magnificent Afro-Cuban rhythms and tones to Aznavour's own creative poetry and lyrics, and it frequently dares and displays the special talents of this great piano concert-master Chucho Valdez, who comes from a whole family lineage of great concert pianists.

The CD was completely recorded in Havana, Cuba, mastered in Paris, France, and I believe that the Havana environment and spirit of the Island has been made felt throughout the CD.

A worthwhile CD to ad to your collection, whether an Aznavour fan, or a Chucho Valdez-Afro-Cuban connaisseur-fan. Enjoy!

Review by I. Jakubowicz, Amazon.com
Charles Aznavour - Colore ma vie (2007)



Tracklist:

01. La terre meurt (04:16)
02. Colore ma vie (03:46)
03. Il y a des femmes (03:40)
04. J'abdiquerai (04:04)
05. Tendre, Armenie (04:45)
06. Avant, pedant, apres (03:36)
07. T'en souvrient-il? (04:11)
08. Sans importance (03:23)
09. Moi, je vis en banlieue (04:25)
10. Oui (03:35)
11. Fado (04:38)
12. La fete est finie (03:43)


Exact Audio Copy V0.99 prebeta 4 from 23. January 2008

EAC extraction logfile from 22. March 2009, 23:07

Charles Aznavour / Colore ma vie

Used drive : HL-DT-STDVD-RAM GH22NP20 Adapter: 0 ID: 0

Read mode : Secure
Utilize accurate stream : Yes
Defeat audio cache : Yes
Make use of C2 pointers : No

Read offset correction : 102
Overread into Lead-In and Lead-Out : No
Fill up missing offset samples with silence : Yes
Delete leading and trailing silent blocks : No
Null samples used in CRC calculations : Yes
Used interface : Native Win32 interface for Win NT & 2000

Used output format : User Defined Encoder
Selected bitrate : 1024 kBit/s
Quality : High
Add ID3 tag : No
Command line compressor : C:\Program Files (x86)\Exact Audio Copy\Flac\flac.exe
Additional command line options : -V -8 -T "artist=%a" -T "title=%t" -T "album=%g" -T "date=%y" -T "tracknumber=%n" -T "genre=%m" %s
Use compression offset : 0


TOC of the extracted CD

Track | Start | Length | Start sector | End sector
––––––––––––––––––––––––––––-
1 | 0:00.00 | 4:16.74 | 0 | 19273
2 | 4:16.74 | 3:46.73 | 19274 | 36296
3 | 8:03.72 | 3:40.19 | 36297 | 52815
4 | 11:44.16 | 4:04.27 | 52816 | 71142
5 | 15:48.43 | 4:45.09 | 71143 | 92526
6 | 20:33.52 | 3:36.24 | 92527 | 108750
7 | 24:10.01 | 4:11.38 | 108751 | 127613
8 | 28:21.39 | 3:23.27 | 127614 | 142865
9 | 31:44.66 | 4:25.18 | 142866 | 162758
10 | 36:10.09 | 3:35.04 | 162759 | 178887
11 | 39:45.13 | 4:38.26 | 178888 | 199763
12 | 44:23.39 | 3:42.70 | 199764 | 216483


Range status and errors

Selected range

Filename D:\Rips\Charles Aznavour - Colore ma vie.wav

Peak level 100.0 %
Range quality 100.0 %
Test CRC 48DB36ED
Copy CRC 48DB36ED
Copy OK

No errors occurred


AccurateRip summary

Track 1 cannot be verified as accurate (confidence 1) [CDDC180C], AccurateRip returned [5B412893]
Track 2 cannot be verified as accurate (confidence 1) [5E9AF8B0], AccurateRip returned [4A4B1338]
Track 3 cannot be verified as accurate (confidence 1) [F95DB181], AccurateRip returned [F59BE989]
Track 4 cannot be verified as accurate (confidence 1) [6C8C126F], AccurateRip returned [70E39E17]
Track 5 cannot be verified as accurate (confidence 1) [29107907], AccurateRip returned [94F0C7A7]
Track 6 cannot be verified as accurate (confidence 1) [E493A973], AccurateRip returned [A831AEDB]
Track 7 cannot be verified as accurate (confidence 1) [35BC6C2D], AccurateRip returned [3F3251DD]
Track 8 cannot be verified as accurate (confidence 1) [4DDCACDA], AccurateRip returned [D7773F4A]
Track 9 cannot be verified as accurate (confidence 1) [30C8E48B], AccurateRip returned [237ECF23]
Track 10 cannot be verified as accurate (confidence 1) [AAC13AB7], AccurateRip returned [E68417E7]
Track 11 cannot be verified as accurate (confidence 1) [A6C85AB2], AccurateRip returned [81DE3652]
Track 12 cannot be verified as accurate (confidence 1) [17235DB7], AccurateRip returned [B0960D64]

No tracks could be verified as accurate
You may have a different pressing from the one(s) in the database

End of status report

[CUETools log; Date: 11.03.2015 18:14:55; Version: 2.1.4]
Truncated 4608 extra samples in some input files.
[CTDB TOCID: IFhsoZ3_xnoCQvY2TQTpAs_Ifjc-] found.
Track | CTDB Status
1 | (9/9) Accurately ripped
2 | (9/9) Accurately ripped
3 | (9/9) Accurately ripped
4 | (9/9) Accurately ripped
5 | (9/9) Accurately ripped
6 | (9/9) Accurately ripped
7 | (9/9) Accurately ripped
8 | (9/9) Accurately ripped
9 | (9/9) Accurately ripped
10 | (9/9) Accurately ripped
11 | (9/9) Accurately ripped
12 | (9/9) Accurately ripped
[AccurateRip ID: 0015809f-00c8912a-a20b460c] found.
Track [ CRC | V2 ] Status
01 [cddc180c|5383afa5] (02+00/15) Accurately ripped
02 [5e9af8b0|b489df4c] (02+00/16) Accurately ripped
03 [f95db181|7b5eba7f] (02+00/16) Accurately ripped
04 [6c8c126f|c09360fc] (02+00/16) Accurately ripped
05 [29107907|bb03ee88] (02+00/16) Accurately ripped
06 [e493a973|d07ba6da] (02+00/16) Accurately ripped
07 [35bc6c2d|a0f0d26c] (02+00/16) Accurately ripped
08 [4ddcacda|efdf8002] (02+00/16) Accurately ripped
09 [30c8e48b|e4cb948c] (02+00/16) Accurately ripped
10 [aac13ab7|73efd78b] (02+00/16) Accurately ripped
11 [a6c85ab2|92feac9b] (02+00/16) Accurately ripped
12 [17235db7|c95be9df] (02+00/16) Accurately ripped
Offsetted by 664:
01 [c91aefd3] (06/15) Accurately ripped
02 [4a4b1338] (07/16) Accurately ripped
03 [f59be989] (07/16) Accurately ripped
04 [70e39e17] (07/16) Accurately ripped
05 [94f0c7a7] (07/16) Accurately ripped
06 [a831aedb] (07/16) Accurately ripped
07 [3f3251dd] (07/16) Accurately ripped
08 [d7773f4a] (07/16) Accurately ripped
09 [237ecf23] (07/16) Accurately ripped
10 [e68417e7] (07/16) Accurately ripped
11 [81de3652] (07/16) Accurately ripped
12 [b0960d64] (07/16) Accurately ripped

Track Peak [ CRC32 ] [W/O NULL] [ LOG ]
– 100,0 [48DB36ED] [47500872] CRC32
01 100,0 [DCB071AA] [11D808C8]
02 100,0 [6C1221D8] [410F0759]
03 100,0 [FB3F22A6] [15470573]
04 100,0 [38C8F916] [1571A5D8]
05 94,4 [CA3F060C] [ACD78C8F]
06 100,0 [BD3CC29F] [CD9C9499]
07 100,0 [30E41993] [4EE5C3DF]
08 100,0 [C077A68C] [5C2C0136]
09 100,0 [AB8660D0] [A540981D]
10 100,0 [BA6ADD4C] [A19E89BB]
11 100,0 [84175209] [97F15CEB]
12 100,0 [DC1AF0F9] [381B1B77]

foobar2000 1.2 / Dynamic Range Meter 1.1.1
log date: 2015-03-11 17:16:35

––––––––––––––––––––––––––––––––––––––––
Analyzed: Charles Aznavour / Colore ma vie
––––––––––––––––––––––––––––––––––––––––

DR Peak RMS Duration Track
––––––––––––––––––––––––––––––––––––––––
DR8 0.00 dB -9.00 dB 4:17 01-La terre meurt
DR8 0.00 dB -9.99 dB 3:47 02-Colore ma vie
DR8 0.00 dB -9.11 dB 3:40 03-Il y a des femmes
DR8 0.00 dB -9.32 dB 4:04 04-J'abdiquerai
DR9 -0.50 dB -11.50 dB 4:45 05-Tendre, Armenie
DR8 0.00 dB -9.67 dB 3:36 06-Avant, pedant, apres
DR9 0.00 dB -10.49 dB 4:12 07-T'en souvrient-il?
DR9 0.00 dB -10.22 dB 3:23 08-Sans importance
DR8 0.00 dB -10.02 dB 4:25 09-Moi, je vis en banlieue
DR8 0.00 dB -9.32 dB 3:35 10-Oui
DR8 0.00 dB -9.60 dB 4:38 11-Fado
DR8 0.00 dB -9.99 dB 3:43 12-La fete est finie
––––––––––––––––––––––––––––––––––––––––

Number of tracks: 12
Official DR value: DR8

Samplerate: 44100 Hz
Channels: 2
Bits per sample: 16
Bitrate: 923 kbps
Codec: FLAC
================================================================================

Charles Aznavour - Colore ma vie (2007)

Charles Aznavour - Colore ma vie (2007)

All thanks to original releaser - Yarila

More interesting music in My Blog