Subcategories

Charlie Daniels - Uneasy Rider (1973) Reissue 2008

Posted By: Designol
Charlie Daniels - Uneasy Rider (1973) Reissue 2008

Charlie Daniels - Uneasy Rider (1973) Reissue 2008
EAC | FLAC | Tracks (Cue&Log) ~ 359 Mb (incl 5%) | Mp3 (CBR320) ~ 151 Mb (incl 5%) | Scans included
Genre: Country Rock, Southern Rock | Label: Wounded Bird | # Wou 4369 | Time: 00:46:57

Originally titled HONEY IN THE ROCK and later renamed for its hit song (Daniels's first chart entry), UNEASY RIDER is the third Charlie Daniels album, but the first to put his name on the map. In addition to his previous southern-rock-meets-Western-swing sound, the album includes a significant R&B influence, making for an intriguing country-funk style. The title track's talking blues is particularly significant for espousing a hippie/counterculture perspective on the part of a man who'd later become known for championing more conservative values.

Review by Jim Allen, Allmusic.com

Charlie Daniels at Allmusic
Charlie Daniels Website
Charlie Daniels at Wiki

Tracklist:

01. Funky Junky (03:14)
02. Big Man (06:16)
03. Why Can't People (05:47)
04. Revelations (07:34)
05. Uneasy Rider (05:18)
06. Midnight Lady (04:39)
07. Somebody Love You (03:44)
08. No Place To Go (10:08)


Exact Audio Copy V1.0 beta 3 from 29. August 2011

EAC extraction logfile from 24. May 2012, 19:02

Charlie Daniels / Uneasy Rider

Used drive : PIONEER DVD-RW DVR-115D Adapter: 1 ID: 0

Read mode : Secure
Utilize accurate stream : Yes
Defeat audio cache : Yes
Make use of C2 pointers : No

Read offset correction : 48
Overread into Lead-In and Lead-Out : No
Fill up missing offset samples with silence : Yes
Delete leading and trailing silent blocks : No
Null samples used in CRC calculations : Yes
Used interface : Installed external ASPI interface
Gap handling : Appended to previous track

Used output format : User Defined Encoder
Selected bitrate : 320 kBit/s
Quality : High
Add ID3 tag : No
Command line compressor : C:\Program Files\Exact Audio Copy 1.0\Flac\flac.exe
Additional command line options : -V -8 -T "Genre=%genre%" -T "Artist=%artist%" -T "Title=%title%" -T "Album=%albumtitle%" -T "Date=%year%" -T "Tracknumber=%tracknr%" -T "Comment=%comment%" %source%


TOC of the extracted CD

Track | Start | Length | Start sector | End sector
––––––––––––––––––––––––––––-
1 | 0:00.00 | 3:16.10 | 0 | 14709
2 | 3:16.10 | 6:18.27 | 14710 | 43086
3 | 9:34.37 | 5:49.60 | 43087 | 69321
4 | 15:24.22 | 7:36.46 | 69322 | 103567
5 | 23:00.68 | 5:20.15 | 103568 | 127582
6 | 28:21.08 | 4:41.21 | 127583 | 148678
7 | 33:02.29 | 3:46.69 | 148679 | 165697
8 | 36:49.23 | 10:08.41 | 165698 | 211338


Track 1

Filename K:\Lossless Temp\Charlie Daniels\Charlie Daniels - Uneasy Rider - 1973\01 - Charlie Daniels - Funky Junky.wav

Pre-gap length 0:00:02.00

Peak level 96.2 %
Extraction speed 4.2 X
Track quality 100.0 %
Test CRC 69AA8611
Copy CRC 69AA8611
Accurately ripped (confidence 2) [1AD42732] (AR v1)
Copy OK

Track 2

Filename K:\Lossless Temp\Charlie Daniels\Charlie Daniels - Uneasy Rider - 1973\02 - Charlie Daniels - Big Man.wav

Pre-gap length 0:00:02.00

Peak level 96.2 %
Extraction speed 5.2 X
Track quality 100.0 %
Test CRC 1A359C5D
Copy CRC 1A359C5D
Accurately ripped (confidence 2) [D9F4867E] (AR v1)
Copy OK

Track 3

Filename K:\Lossless Temp\Charlie Daniels\Charlie Daniels - Uneasy Rider - 1973\03 - Charlie Daniels - Why Can't People.wav

Pre-gap length 0:00:02.00

Peak level 96.2 %
Extraction speed 5.8 X
Track quality 100.0 %
Test CRC 151580A2
Copy CRC 151580A2
Accurately ripped (confidence 2) [40142710] (AR v1)
Copy OK

Track 4

Filename K:\Lossless Temp\Charlie Daniels\Charlie Daniels - Uneasy Rider - 1973\04 - Charlie Daniels - Revelations.wav

Pre-gap length 0:00:02.00

Peak level 96.2 %
Extraction speed 6.5 X
Track quality 100.0 %
Test CRC CEC25239
Copy CRC CEC25239
Accurately ripped (confidence 2) [86099F18] (AR v1)
Copy OK

Track 5

Filename K:\Lossless Temp\Charlie Daniels\Charlie Daniels - Uneasy Rider - 1973\05 - Charlie Daniels - Uneasy Rider.wav

Pre-gap length 0:00:02.00

Peak level 96.2 %
Extraction speed 6.8 X
Track quality 100.0 %
Test CRC FD558D20
Copy CRC FD558D20
Accurately ripped (confidence 2) [B25E4A8E] (AR v1)
Copy OK

Track 6

Filename K:\Lossless Temp\Charlie Daniels\Charlie Daniels - Uneasy Rider - 1973\06 - Charlie Daniels - Midnight Lady.wav

Pre-gap length 0:00:02.00

Peak level 96.2 %
Extraction speed 7.1 X
Track quality 100.0 %
Test CRC EEE9D59F
Copy CRC EEE9D59F
Accurately ripped (confidence 2) [8153EA38] (AR v1)
Copy OK

Track 7

Filename K:\Lossless Temp\Charlie Daniels\Charlie Daniels - Uneasy Rider - 1973\07 - Charlie Daniels - Somebody Love You.wav

Pre-gap length 0:00:02.00

Peak level 96.2 %
Extraction speed 7.2 X
Track quality 100.0 %
Test CRC 1C46584B
Copy CRC 1C46584B
Accurately ripped (confidence 2) [AF6E294A] (AR v1)
Copy OK

Track 8

Filename K:\Lossless Temp\Charlie Daniels\Charlie Daniels - Uneasy Rider - 1973\08 - Charlie Daniels - No Place To Go.wav

Pre-gap length 0:00:02.00

Peak level 96.2 %
Extraction speed 7.9 X
Track quality 99.9 %
Test CRC EBD6152E
Copy CRC EBD6152E
Accurately ripped (confidence 2) [9F7E91FE] (AR v1)
Copy OK


All tracks accurately ripped

No errors occurred

End of status report

==== Log checksum 07269CFCE234AE0B75E339E1743D8BA859B41B04143E3D9D70A66DEE8EFDD2B9 ====

foobar2000 1.2 / Dynamic Range Meter 1.1.1
log date: 2016-05-12 18:39:33

––––––––––––––––––––––––––––––––––––––––
Analyzed: Charlie Daniels / Uneasy Rider
––––––––––––––––––––––––––––––––––––––––

DR Peak RMS Duration Track
––––––––––––––––––––––––––––––––––––––––
DR7 -0.33 dB -8.56 dB 3:16 01-Funky Junky
DR6 -0.33 dB -8.15 dB 6:18 02-Big Man
DR5 -0.33 dB -8.14 dB 5:50 03-Why Can't People
DR7 -0.33 dB -9.17 dB 7:37 04-Revelations
DR7 -0.33 dB -8.68 dB 5:20 05-Uneasy Rider
DR5 -0.33 dB -6.63 dB 4:41 06-Midnight Lady
DR7 -0.33 dB -8.19 dB 3:47 07-Somebody Love You
DR6 -0.33 dB -7.56 dB 10:09 08-No Place To Go
––––––––––––––––––––––––––––––––––––––––

Number of tracks: 8
Official DR value: DR6

Samplerate: 44100 Hz
Channels: 2
Bits per sample: 16
Bitrate: 938 kbps
Codec: FLAC
================================================================================

Charlie Daniels - Uneasy Rider (1973) Reissue 2008

Charlie Daniels - Uneasy Rider (1973) Reissue 2008

All thanks to original releaser - Swamp Fox

More interesting music in My Blog