Subcategories

Charlie Parker - Complete Savoy Sessions (1999) {4CD Box Set}

Posted By: popsakov
Charlie Parker - Complete Savoy Sessions (1999) {4CD Box Set}

Charlie Parker - Complete Savoy Sessions (1999) {4CD Box Set}
EAC Rip | FLAC (Img) + Cue + Log ~ 873 Mb | MP3 CBR320 ~ 558 Mb
Scans (JPG, 300 dpi) ~ 18 Mb | RAR 5% Recovery
Jazz / Big Band / Bop / Swing / Saxophone Jazz
Definitive Records #DRCD11148

This four-CD box set contains all of the recordings Charlie Parker made for the Savoy label and it is overflowing with gems and an almost countless number of alternate takes. Bird was one of the most important jazzmen of all time and nearly every note he recorded (in the studios if not live) is well worth hearing. This box starts off with his sideman date with Tiny Grimes in 1944, contains Parker's famous "Ko Ko" session of 1945 (with a young Miles Davis on trumpet and highlighted by "Now's the Time" and "Billie's Bounce"), and continues through his 1947-1948 quintet sessions with a more mature Miles Davis; either Bud Powell, John Lewis, or Duke Jordan on piano; bassists Tommy Potter, Curly Russell, or Nelson Boyd; and drummer Max Roach. Together they recorded such classics as "Donna Lee," "Chasin' the Bird," "Milestones," and "Parker's Mood." Every scrap that the great altoist cut for Savoy is in this box.
~ Scott Yanow, All Music
Charlie Parker - Complete Savoy Sessions (1999) {4CD Box Set}


***************

Charlie Parker - Complete Savoy Sessions (1999) {4CD Box Set}

Track List CD1:

01. Tiny's Tempo [3:04]
02. Tiny's Tempo (2) [3:03]
03. Tiny's Tempo (3, released) [2:57]
04. I'll always love you just the same [3:00]
05. I'll always love you just the same (2, released) [3:03]
06. Romance without finance [3:09]
07. Romance without finance (2) [1:05]
08. Romance without finance (3) [3:09]
09. Romance without finance (4) [0:47]
10. Romance without finance (5, released) [3:06]
11. Red cross [3:19]
12. Red cross (2, released) [3:11]
13. Warming up a riff [2:37]
14. Billie's Bounce [2:44]
15. Billie's Bounce (2) [1:46]
16. Billie's Bounce (3) [3:09]
17. Billie's Bounce (4) [1:42]
18. Billie's Bounce (5, released) [3:12]
19. Now's the time [0:24]
20. Now's the time (2) [0:41]
21. Now's the time (3) [3:11]
22. Now's the time (4, released) [3:17]

EAC extraction logfile from 9. October 2006, 10:07 for CD
Charlie Parker / The complete Savoy sessions - CD1

Used drive : LITE-ON CD-ROM LTN-527T Adapter: 1 ID: 1
Read mode : Secure with NO C2, accurate stream, disable cache
Read offset correction : 12
Overread into Lead-In and Lead-Out : Yes

Used output format : C:\Program Files\Monkey's Audio\MAC.exe (Monkey's Audio Lossless Encoder)
High Lossless Compression

Other options :
Fill up missing offset samples with silence : Yes
Delete leading and trailing silent blocks : No
Installed external ASPI interface


Range status and errors
Selected range
Filename F:\Downloads\Charlie Parker - Complete Savoy Sessions (1944-1947)[Ape Full Scans]\1\Charlie Parker - The complete Savoy sessions - CD1.wav.wav

Peak level 99.3 %
Range quality 99.9 %
CRC 2E9C97A1
Copy OK

No errors occured

End of status report

foobar2000 1.3.16 / Dynamic Range Meter 1.1.1
log date: 2018-01-21 04:13:36

––––––––––––––––––––––––––––––––––––––––
Analyzed: Charlie Parker / The complete Savoy sessions - CD1
––––––––––––––––––––––––––––––––––––––––

DR Peak RMS Duration Track
––––––––––––––––––––––––––––––––––––––––
DR11 -0.21 dB -13.29 dB 3:04 01-Tiny's Tempo
DR11 -0.21 dB -13.26 dB 3:03 02-Tiny's Tempo (2)
DR12 -0.21 dB -14.04 dB 2:57 03-Tiny's Tempo (3, released)
DR12 -0.41 dB -14.92 dB 3:00 04-I'll always love you just the same
DR11 -0.74 dB -15.12 dB 3:03 05-I'll always love you just the same (2, released)
DR11 -0.62 dB -14.19 dB 3:09 06-Romance without finance
DR12 -0.38 dB -14.36 dB 1:05 07-Romance without finance (2)
DR12 -0.58 dB -15.30 dB 3:09 08-Romance without finance (3)
DR11 -0.10 dB -13.86 dB 0:47 09-Romance without finance (4)
DR12 -0.29 dB -13.93 dB 3:06 10-Romance without finance (5, released)
DR12 -0.06 dB -14.51 dB 3:19 11-Red cross
DR12 -0.05 dB -13.91 dB 3:11 12-Red cross (2, released)
DR10 -0.34 dB -12.85 dB 2:37 13-Warming up a riff
DR12 -0.78 dB -15.86 dB 2:44 14-Billie's Bounce
DR11 -0.98 dB -14.40 dB 1:46 15-Billie's Bounce (2)
DR12 -0.76 dB -15.00 dB 3:09 16-Billie's Bounce (3)
DR11 -0.18 dB -13.21 dB 1:42 17-Billie's Bounce (4)
DR11 -0.52 dB -14.69 dB 3:12 18-Billie's Bounce (5, released)
DR9 -0.15 dB -14.09 dB 0:24 19-Now's the time
DR11 -0.45 dB -13.81 dB 0:41 20-Now's the time (2)
DR11 -0.14 dB -14.75 dB 3:11 21-Now's the time (3)
DR9 -0.86 dB -12.80 dB 3:17 22-Now's the time (4, released)
––––––––––––––––––––––––––––––––––––––––

Number of tracks: 22
Official DR value: DR11

Samplerate: 44100 Hz
Channels: 2
Bits per sample: 16
Bitrate: 445 kbps
Codec: FLAC
================================================================================

[CUETools log; Date: 21.01.2018 4:13:36; Version: 2.1.5]
[CTDB TOCID: 9Lwcj8FQgKQUww5aYaiOJx_0CZA-] found.
Track | CTDB Status
1 | (7/7) Accurately ripped
2 | (7/7) Accurately ripped
3 | (7/7) Accurately ripped
4 | (7/7) Accurately ripped
5 | (7/7) Accurately ripped
6 | (7/7) Accurately ripped
7 | (7/7) Accurately ripped
8 | (7/7) Accurately ripped
9 | (7/7) Accurately ripped
10 | (7/7) Accurately ripped
11 | (7/7) Accurately ripped
12 | (7/7) Accurately ripped
13 | (7/7) Accurately ripped
14 | (7/7) Accurately ripped
15 | (7/7) Accurately ripped
16 | (7/7) Accurately ripped
17 | (7/7) Accurately ripped
18 | (7/7) Accurately ripped
19 | (7/7) Accurately ripped
20 | (7/7) Accurately ripped
21 | (7/7) Accurately ripped
22 | (7/7) Accurately ripped
[AccurateRip ID: 002e39dc-02d7e8e4-590d0816] found.
Track [ CRC | V2 ] Status
01 [b9bf2795|231785d6] (03+08/11) Accurately ripped
02 [6ae5b1a9|1181f822] (03+08/11) Accurately ripped
03 [89618cd5|dd6b7f8f] (03+08/11) Accurately ripped
04 [93db353d|1f8356a3] (03+08/11) Accurately ripped
05 [441eabc0|4fdc3a45] (03+08/11) Accurately ripped
06 [5dea9aca|ba853504] (03+08/11) Accurately ripped
07 [817ecf50|a1c54d71] (03+08/11) Accurately ripped
08 [cefb31c5|0e397fd9] (03+08/11) Accurately ripped
09 [4da9cf2c|ed4fe93b] (03+08/11) Accurately ripped
10 [128589fd|7f2cfa1c] (03+08/11) Accurately ripped
11 [ffaf5496|8a2c7726] (03+08/11) Accurately ripped
12 [1907cf76|908aaacb] (03+08/11) Accurately ripped
13 [4488ef14|c9d1c6d6] (03+08/11) Accurately ripped
14 [d2daf661|d0926397] (03+08/11) Accurately ripped
15 [7a42e786|982d7792] (03+08/11) Accurately ripped
16 [7dc0114b|5851661a] (03+08/11) Accurately ripped
17 [a9138e58|f51f4732] (03+08/11) Accurately ripped
18 [63f402f8|8f60c7f6] (03+08/11) Accurately ripped
19 [9327e196|5497d878] (03+08/11) Accurately ripped
20 [c4691470|9fde1042] (03+08/11) Accurately ripped
21 [273e420f|f90726f0] (03+08/11) Accurately ripped
22 [5cd7856c|ded7224d] (03+09/12) Accurately ripped

Track Peak [ CRC32 ] [W/O NULL] [ LOG ]
– 99,3 [2E9C97A1] [E55E2F8C] CRC32
01 97,6 [28B98CFC] [18DCC639]
02 97,6 [08E60986] [8E9CA788]
03 97,6 [0D181883] [9671279C]
04 95,4 [A269667E] [C4B87D49]
05 91,8 [CAD6C08A] [5DCE50FE]
06 93,1 [AA5DE622] [7E339895]
07 95,6 [4355B40D] [9F58EEAE]
08 93,5 [40503150] [4965C4A7]
09 98,8 [1C2E3A72] [DA77527C]
10 96,7 [A8029535] [99DB7707]
11 99,2 [94772869] [F0F728A0]
12 99,3 [D5EDF807] [FE5196E2]
13 96,1 [A09F0B9A] [0CC7CEDF]
14 91,4 [64702D5F] [1065D378]
15 89,3 [62D8EB3F] [7B0B623F]
16 91,6 [09883B6C] [C2896934]
17 97,9 [B4D0F81C] [B9C92A39]
18 94,1 [5FD14F60] [DBF718B8]
19 98,3 [05622D0B] [78EC372E]
20 94,9 [A1BCD194] [110AD946]
21 98,4 [4DF27D1C] [56BD28C6]
22 90,5 [0F3F3D9D] [88E7DD19]

Track List CD2:

01. Thriving on a riff [3:00]
02. Thriving on a riff (2) [0:25]
03. Thriving on a riff (3, released) [2:55]
04. Meandering [3:18]
05. Ko-ko [0:40]
06. Ko-ko (2, released) [2:55]
07. Donna Lee [0:14]
08. Donna Lee (2) [3:00]
09. Donna Lee (3) [2:31]
10. Donna Lee (4) [2:36]
11. Donna Lee (5, released) [2:33]
12. Chasin' the bird [2:56]
13. Chasin' the bird (2) [0:21]
14. Chasin' the bird (3) [2:59]
15. Chasin' the bird (4, released) [2:44]
16. Cheryl [0:06]
17. Cheryl (2, released) [2:57]
18. Buzzy [2:58]
19. Buzzy (2) [0:36]
20. Buzzy (3) [2:37]
21. Buzzy (4) [0:22]
22. Buzzy (5, released) [2:28]
23. Milestones [0:10]
24. Milestones (2, released) [2:35]
25. Milestones (3) [2:45]
26. Little Willie leaps [0:48]
27. Little Willie leaps (2) [3:08]
28. Little Willie leaps (3, released) [2:48]

EAC extraction logfile from 9. October 2006, 10:23 for CD
Charlie Parker / The complete Savoy sessions - CD2

Used drive : LITE-ON CD-ROM LTN-527T Adapter: 1 ID: 1
Read mode : Secure with NO C2, accurate stream, disable cache
Read offset correction : 12
Overread into Lead-In and Lead-Out : Yes

Used output format : C:\Program Files\Monkey's Audio\MAC.exe (Monkey's Audio Lossless Encoder)
High Lossless Compression

Other options :
Fill up missing offset samples with silence : Yes
Delete leading and trailing silent blocks : No
Installed external ASPI interface


Range status and errors
Selected range
Filename F:\Downloads\Charlie Parker - Complete Savoy Sessions (1944-1947)[Ape Full Scans]\2\Charlie Parker - The complete Savoy sessions - CD2.wav.wav

Peak level 94.6 %
Range quality 100.0 %
CRC DDA1E270
Copy OK

No errors occured

End of status report

foobar2000 1.3.16 / Dynamic Range Meter 1.1.1
log date: 2018-01-21 04:14:15

––––––––––––––––––––––––––––––––––––––––
Analyzed: Charlie Parker / The complete Savoy sessions - CD2
––––––––––––––––––––––––––––––––––––––––

DR Peak RMS Duration Track
––––––––––––––––––––––––––––––––––––––––
DR11 -2.75 dB -16.64 dB 3:00 01-Thriving on a riff
DR9 -4.87 dB -18.03 dB 0:25 02-Thriving on a riff (2)
DR12 -1.19 dB -16.38 dB 2:55 03-Thriving on a riff (3, released)
DR12 -3.06 dB -18.84 dB 3:18 04-Meandering
DR12 -1.32 dB -15.95 dB 0:40 05-Ko-ko
DR10 -1.19 dB -13.29 dB 2:55 06-Ko-ko (2, released)
DR9 -4.97 dB -19.43 dB 0:14 07-Donna Lee
DR13 -1.02 dB -15.59 dB 3:00 08-Donna Lee (2)
DR14 -0.76 dB -16.21 dB 2:31 09-Donna Lee (3)
DR13 -2.43 dB -17.66 dB 2:36 10-Donna Lee (4)
DR12 -1.60 dB -16.26 dB 2:33 11-Donna Lee (5, released)
DR14 -1.95 dB -18.30 dB 2:56 12-Chasin' the bird
DR11 -3.91 dB -16.63 dB 0:21 13-Chasin' the bird (2)
DR13 -3.00 dB -17.91 dB 2:59 14-Chasin' the bird (3)
DR13 -2.62 dB -16.92 dB 2:44 15-Chasin' the bird (4, released)
DR20 -4.55 dB -24.65 dB 0:06 16-Cheryl
DR15 -0.48 dB -17.38 dB 2:57 17-Cheryl (2, released)
DR15 -0.48 dB -17.54 dB 2:58 18-Buzzy
DR13 -2.20 dB -19.25 dB 0:36 19-Buzzy (2)
DR14 -0.81 dB -17.88 dB 2:37 20-Buzzy (3)
DR13 -3.80 dB -19.84 dB 0:22 21-Buzzy (4)
DR15 -0.48 dB -17.22 dB 2:28 22-Buzzy (5, released)
DR13 -3.49 dB -18.15 dB 0:10 23-Milestones
DR12 -2.83 dB -15.51 dB 2:35 24-Milestones (2, released)
DR11 -3.25 dB -15.82 dB 2:45 25-Milestones (3)
DR11 -3.88 dB -18.67 dB 0:48 26-Little Willie leaps
DR11 -2.36 dB -15.61 dB 3:08 27-Little Willie leaps (2)
DR12 -2.87 dB -15.76 dB 2:48 28-Little Willie leaps (3, released)
––––––––––––––––––––––––––––––––––––––––

Number of tracks: 28
Official DR value: DR13

Samplerate: 44100 Hz
Channels: 2
Bits per sample: 16
Bitrate: 513 kbps
Codec: FLAC
================================================================================

[CUETools log; Date: 21.01.2018 4:14:20; Version: 2.1.5]
[CTDB TOCID: oUBDs41kyaSF4mcUVpxHN8OElbA-] found.
Track | CTDB Status
1 | (7/7) Accurately ripped
2 | (7/7) Accurately ripped
3 | (7/7) Accurately ripped
4 | (7/7) Accurately ripped
5 | (7/7) Accurately ripped
6 | (7/7) Accurately ripped
7 | (7/7) Accurately ripped
8 | (7/7) Accurately ripped
9 | (7/7) Accurately ripped
10 | (7/7) Accurately ripped
11 | (7/7) Accurately ripped
12 | (7/7) Accurately ripped
13 | (7/7) Accurately ripped
14 | (7/7) Accurately ripped
15 | (7/7) Accurately ripped
16 | (7/7) Accurately ripped
17 | (7/7) Accurately ripped
18 | (7/7) Accurately ripped
19 | (7/7) Accurately ripped
20 | (7/7) Accurately ripped
21 | (7/7) Accurately ripped
22 | (7/7) Accurately ripped
23 | (7/7) Accurately ripped
24 | (7/7) Accurately ripped
25 | (7/7) Accurately ripped
26 | (7/7) Accurately ripped
27 | (7/7) Accurately ripped
28 | (7/7) Accurately ripped
[AccurateRip ID: 0039f3bd-047d6dd0-b60d731c] found.
Track [ CRC | V2 ] Status
01 [ad8c8714|5e9197ba] (02+09/11) Accurately ripped
02 [842f0702|6b3feaed] (02+09/11) Accurately ripped
03 [8db221ed|5ada4025] (02+09/11) Accurately ripped
04 [f0bf91e3|f0acc7fa] (02+09/11) Accurately ripped
05 [1e837e11|4492318e] (02+09/11) Accurately ripped
06 [bc8f985a|29244086] (02+09/11) Accurately ripped
07 [51bd1722|ff92c5c0] (02+09/11) Accurately ripped
08 [38a22abe|18f0cec5] (02+09/11) Accurately ripped
09 [31c33fb9|90cf7ea0] (02+09/11) Accurately ripped
10 [9905dde6|17e323fc] (02+09/11) Accurately ripped
11 [072da0c1|7dbb5532] (02+09/11) Accurately ripped
12 [278791f8|c8f7703f] (02+09/11) Accurately ripped
13 [996c0e8d|642a1673] (02+09/11) Accurately ripped
14 [cc168fe5|ae45242f] (02+09/11) Accurately ripped
15 [2a2c6b41|94054f13] (02+09/11) Accurately ripped
16 [5d594c51|fd37fc23] (00+04/04) Accurately ripped
17 [43b7f6f5|f90ad356] (02+09/11) Accurately ripped
18 [511dfd5a|97b8c75b] (02+09/11) Accurately ripped
19 [0c6b026d|90cf0e50] (02+09/11) Accurately ripped
20 [d44773b3|949be835] (02+09/11) Accurately ripped
21 [094de6ac|6588919c] (02+09/11) Accurately ripped
22 [e5b6036c|ae58d15c] (02+09/11) Accurately ripped
23 [3c751f21|ad38b005] (02+09/11) Accurately ripped
24 [b3c2f840|34f1b47d] (02+09/11) Accurately ripped
25 [c798b37f|cce1bd46] (02+09/11) Accurately ripped
26 [03f68a46|4fdeb3dc] (02+09/11) Accurately ripped
27 [d27ff5f6|ec2072f0] (02+09/11) Accurately ripped
28 [e0bf9125|bbf8dc73] (02+09/11) Accurately ripped

Track Peak [ CRC32 ] [W/O NULL] [ LOG ]
– 94,6 [DDA1E270] [FF1D2B89] CRC32
01 72,8 [7D06C17C] [9CA0891B]
02 57,0 [2CC634F2] [6D3B8015]
03 87,1 [563D7D0D] [78A99206]
04 70,2 [FD65E863] [0A31B263]
05 85,9 [99EEC9AA] [9B5D0DB4]
06 87,1 [8E5AC198] [678C70E3]
07 56,4 [D48BE7C9] [E45035A2]
08 88,9 [2AB8C6E2] [BEBDBC46]
09 91,5 [2F1E12FE] [88899908]
10 75,6 [659CA1C7] [36BB281A]
11 83,1 [473EBE78] [AD8EE5F6]
12 79,8 [0393AFF6] [A801046B]
13 63,7 [39E8921C] [BD5E6CD2]
14 70,8 [AD52C301] [B7F93528]
15 73,9 [AB791B3F] [746E585A]
16 59,2 [2A6F018D] [49878944]
17 94,6 [55B68599] [94116772]
18 94,6 [51FD164C] [5B9B83E9]
19 77,6 [E460653B] [B053AEEE]
20 91,0 [94DE4287] [E55071DF]
21 64,5 [F6FAF803] [B45D959A]
22 94,6 [E20CF8B7] [FEF48A2D]
23 66,9 [FCDD5E51] [A6D2FF03]
24 72,2 [3AE98BCD] [AA6E671B]
25 68,8 [7C75F5E2] [1EF78B16]
26 63,9 [D3F61084] [C912CB0A]
27 76,2 [ACF2F059] [05776A65]
28 71,9 [C8D68935] [2584F6D2]

Track List CD3:

01. Half Nelson [2:50]
02. Half Nelson (2, released) [2:43]
03. Sippin' at Bells [0:54]
04. Sippin' at Bells (2, released) [2:21]
05. Sippin' at Bells (3) [0:07]
06. Sippin' at Bells (4) [2:27]
07. Another hair-do [0:16]
08. Another hair-do (2) [0:45]
09. Another hair-do (3) [1:06]
10. Another hair-do (4, released) [2:37]
11. Blue Bird [2:53]
12. Blue Bird (2) [0:05]
13. Blue Bird (3, released) [2:50]
14. Klaunstance [2:45]
15. Bird gets the worm [3:00]
16. Bird gets the worm (2) [0:11]
17. Bird gets the worm (3, released) [2:35]
18. Barbados [2:38]
19. Barbados (2) [0:47]
20. Barbados (3) [2:35]
21. Barbados (4, released) [2:29]
22. Ah-leu-cha [0:39]
23. Ah-leu-cha (2, released) [2:54]
24. Constellation [0:24]
25. Constellation (2) [2:32]
26. Constellation (3) [2:07]
27. Constellation (4) [0:23]
28. Constellation (5, released) [2:27]
29. Parker's mood [0:08]
30. Parker's mood (2) [3:27]
31. Parker's mood (3) [0:14]
32. Parker's mood (4) [2:12]

EAC extraction logfile from 9. October 2006, 10:35 for CD
Charlie Parker / The complete Sacoy sessions - CD3

Used drive : LITE-ON CD-ROM LTN-527T Adapter: 1 ID: 1
Read mode : Secure with NO C2, accurate stream, disable cache
Read offset correction : 12
Overread into Lead-In and Lead-Out : Yes

Used output format : C:\Program Files\Monkey's Audio\MAC.exe (Monkey's Audio Lossless Encoder)
High Lossless Compression

Other options :
Fill up missing offset samples with silence : Yes
Delete leading and trailing silent blocks : No
Installed external ASPI interface


Range status and errors
Selected range
Filename F:\Downloads\Charlie Parker - Complete Savoy Sessions (1944-1947)[Ape Full Scans]\3\Charlie Parker - The complete Sacoy sessions - CD3.wav.wav

Peak level 94.6 %
Range quality 100.0 %
CRC 6DD28611
Copy OK

No errors occured

End of status report

foobar2000 1.3.16 / Dynamic Range Meter 1.1.1
log date: 2018-01-21 04:14:55

––––––––––––––––––––––––––––––––––––––––
Analyzed: Charlie Parker / The complete Sacoy sessions - CD3
––––––––––––––––––––––––––––––––––––––––

DR Peak RMS Duration Track
––––––––––––––––––––––––––––––––––––––––
DR13 -1.84 dB -16.08 dB 2:50 01-Half Nelson
DR12 -0.53 dB -15.59 dB 2:43 02-Half Nelson (2, released)
DR11 -1.83 dB -15.66 dB 0:54 03-Sippin' at Bells
DR12 -2.94 dB -15.85 dB 2:21 04-Sippin' at Bells (2, released)
DR9 -5.43 dB -21.64 dB 0:07 05-Sippin' at Bells (3)
DR12 -3.28 dB -17.56 dB 2:27 06-Sippin' at Bells (4)
DR12 -3.11 dB -20.98 dB 0:16 07-Another hair-do
DR12 -1.97 dB -17.05 dB 0:45 08-Another hair-do (2)
DR12 -0.90 dB -16.28 dB 1:06 09-Another hair-do (3)
DR12 -1.97 dB -16.01 dB 2:37 10-Another hair-do (4, released)
DR13 -1.85 dB -16.95 dB 2:53 11-Blue Bird
DR20 -18.14 dB -38.57 dB 0:05 12-Blue Bird (2)
DR12 -2.49 dB -16.85 dB 2:50 13-Blue Bird (3, released)
DR11 -3.69 dB -16.09 dB 2:45 14-Klaunstance
DR13 -0.48 dB -16.79 dB 3:00 15-Bird gets the worm
DR13 -5.95 dB -19.69 dB 0:11 16-Bird gets the worm (2)
DR11 -1.28 dB -16.74 dB 2:35 17-Bird gets the worm (3, released)
DR12 -1.37 dB -15.38 dB 2:38 18-Barbados
DR12 -2.44 dB -15.83 dB 0:47 19-Barbados (2)
DR11 -2.09 dB -15.27 dB 2:35 20-Barbados (3)
DR11 -1.64 dB -15.16 dB 2:29 21-Barbados (4, released)
DR11 -3.13 dB -15.92 dB 0:39 22-Ah-leu-cha
DR11 -1.87 dB -15.22 dB 2:54 23-Ah-leu-cha (2, released)
DR10 -3.55 dB -19.82 dB 0:24 24-Constellation
DR12 -1.52 dB -15.73 dB 2:32 25-Constellation (2)
DR11 -2.18 dB -16.07 dB 2:07 26-Constellation (3)
DR12 -2.76 dB -18.53 dB 0:23 27-Constellation (4)
DR12 -1.13 dB -16.17 dB 2:27 28-Constellation (5, released)
DR19 -4.72 dB -25.91 dB 0:08 29-Parker's mood
DR11 -3.69 dB -17.48 dB 3:27 30-Parker's mood (2)
DR8 -7.33 dB -20.39 dB 0:14 31-Parker's mood (3)
DR12 -2.66 dB -17.21 dB 2:12 32-Parker's mood (4)
––––––––––––––––––––––––––––––––––––––––

Number of tracks: 32
Official DR value: DR12

Samplerate: 44100 Hz
Channels: 2
Bits per sample: 16
Bitrate: 527 kbps
Codec: FLAC
================================================================================

[CUETools log; Date: 21.01.2018 4:15:00; Version: 2.1.5]
[CTDB TOCID: 4gI540FT8ipLoQflglUjbejWJmI-] found.
Track | CTDB Status
1 | (6/6) Accurately ripped
2 | (6/6) Accurately ripped
3 | (6/6) Accurately ripped
4 | (6/6) Accurately ripped
5 | (6/6) Accurately ripped
6 | (6/6) Accurately ripped
7 | (6/6) Accurately ripped
8 | (6/6) Accurately ripped
9 | (6/6) Accurately ripped
10 | (6/6) Accurately ripped
11 | (6/6) Accurately ripped
12 | (6/6) Accurately ripped
13 | (6/6) Accurately ripped
14 | (6/6) Accurately ripped
15 | (6/6) Accurately ripped
16 | (6/6) Accurately ripped
17 | (6/6) Accurately ripped
18 | (6/6) Accurately ripped
19 | (6/6) Accurately ripped
20 | (6/6) Accurately ripped
21 | (6/6) Accurately ripped
22 | (6/6) Accurately ripped
23 | (6/6) Accurately ripped
24 | (6/6) Accurately ripped
25 | (6/6) Accurately ripped
26 | (6/6) Accurately ripped
27 | (6/6) Accurately ripped
28 | (6/6) Accurately ripped
29 | (6/6) Accurately ripped
30 | (6/6) Accurately ripped
31 | (6/6) Accurately ripped
32 | (6/6) Accurately ripped
[AccurateRip ID: 00409463-05b76f39-d70d3320] found.
Track [ CRC | V2 ] Status
01 [35f8963c|8ad889ed] (03+05/12) Accurately ripped
02 [6256b231|8550f528] (03+05/12) Accurately ripped
03 [bdde94c8|8f902aba] (03+05/12) Accurately ripped
04 [18c4ae60|d0a4f6be] (03+05/12) Accurately ripped
05 [8fcb317e|0f4a6734] (00+03/03) Accurately ripped
06 [18934885|cc12eed5] (03+05/12) Accurately ripped
07 [5dff7422|e033dff6] (03+05/12) Accurately ripped
08 [f6e83ac0|5b5d7833] (03+05/12) Accurately ripped
09 [004a842f|a2cba8af] (03+05/12) Accurately ripped
10 [82edd4a0|4429f083] (03+05/12) Accurately ripped
11 [be2a4cf7|52ac0e38] (03+05/12) Accurately ripped
12 [c09c38ac|bfdb5e7b] (00+03/03) Accurately ripped
13 [03e58dbd|f5ae21f0] (03+05/12) Accurately ripped
14 [dc5d40a5|c82966d0] (03+05/12) Accurately ripped
15 [f7642fcb|0988fc88] (03+05/12) Accurately ripped
16 [3685125d|979c3e8f] (03+05/12) Accurately ripped
17 [133705d7|d61c7bba] (03+05/12) Accurately ripped
18 [c6817eba|7b0edf10] (03+05/12) Accurately ripped
19 [a7f6061c|bf967ea0] (03+05/12) Accurately ripped
20 [88be5065|cb11aa6b] (03+05/12) Accurately ripped
21 [edcbf82e|a87742c5] (03+05/12) Accurately ripped
22 [afbd8f31|cf0e8fb0] (03+05/12) Accurately ripped
23 [4f874e69|fd9871d9] (03+05/12) Accurately ripped
24 [ecfa5739|a298e1ae] (03+05/12) Accurately ripped
25 [6ca6fac2|afae2d72] (03+05/12) Accurately ripped
26 [012d0f7e|420ff3e7] (03+05/12) Accurately ripped
27 [e6505e58|fa7e68e1] (03+05/12) Accurately ripped
28 [fa0d11c8|41a6668a] (03+05/12) Accurately ripped
29 [6c338807|07b1f371] (03+06/13) Accurately ripped
30 [43ffb262|55796dca] (03+06/13) Accurately ripped
31 [8c69b23f|3a5bb3cb] (03+05/12) Accurately ripped
32 [6c8deb33|59f656c7] (03+06/13) Accurately ripped
Offsetted by 664:
01 [405197ac] (00/12) No match (V2 was not tested)
02 [598bcf01] (00/12) No match (V2 was not tested)
03 [2654c650] (00/12) No match (V2 was not tested)
04 [f2b84460] (00/12) No match (V2 was not tested)
05 [e5423a16] (00/03) No match
06 [8d34fc25] (00/12) No match (V2 was not tested)
07 [7d010eda] (00/12) No match (V2 was not tested)
08 [7bf8f7b8] (00/12) No match (V2 was not tested)
09 [7cc49667] (00/12) No match (V2 was not tested)
10 [f34b4c70] (00/12) No match (V2 was not tested)
11 [5881ca1f] (00/12) No match (V2 was not tested)
12 [19cd3afc] (00/03) No match
13 [4bb24edd] (00/12) No match (V2 was not tested)
14 [5c07650d] (00/12) No match (V2 was not tested)
15 [58897693] (00/12) No match (V2 was not tested)
16 [365f5385] (00/12) No match (V2 was not tested)
17 [7f22370f] (00/12) No match (V2 was not tested)
18 [479f7dca] (00/12) No match (V2 was not tested)
19 [52bde7f4] (00/12) No match (V2 was not tested)
20 [ff1a2fb5] (00/12) No match (V2 was not tested)
21 [0dd9146e] (00/12) No match (V2 was not tested)
22 [6a25b551] (00/12) No match (V2 was not tested)
23 [a74a4a29] (00/12) No match (V2 was not tested)
24 [0b3a2f19] (00/12) No match (V2 was not tested)
25 [b4c9216a] (00/12) No match (V2 was not tested)
26 [d8c7c9be] (00/12) No match (V2 was not tested)
27 [79eb7c70] (00/12) No match (V2 was not tested)
28 [df339158] (00/12) No match (V2 was not tested)
29 [8b6df81f] (00/13) No match (V2 was not tested)
30 [29abf662] (00/13) No match (V2 was not tested)
31 [cb60da3f] (00/12) No match (V2 was not tested)
32 [cf47496b] (00/13) No match (V2 was not tested)

Track Peak [ CRC32 ] [W/O NULL] [ LOG ]
– 94,6 [6DD28611] [702368B5] CRC32
01 80,9 [E9AC9841] [69D4CEE2]
02 94,0 [FCB8B1BE] [C42433B7]
03 81,0 [EFD0243F] [40B79220]
04 71,2 [F75AE671] [008029DD]
05 53,5 [6C6758CD] [E24D4A3F]
06 68,5 [E0764EA8] [776FFAB4]
07 69,9 [614BFEFB] [9F2C0714]
08 79,7 [EAA5075C] [F8A765FC]
09 90,1 [738DC660] [CC4F6FCC]
10 79,7 [37712E6A] [1FE4DC5C]
11 80,8 [671371B9] [AD472EFA]
12 12,3 [89C4D813] [46B65012]
13 75,0 [6BF2A6D5] [811A7EE4]
14 65,3 [3F875171] [0B94645E]
15 94,6 [0670B776] [DD871F24]
16 58,1 [4BCDBEF9] [CFB1911F]
17 86,2 [BE5994B6] [E6576283]
18 85,3 [23A32217] [AD47A060]
19 75,5 [64C0B0EE] [98468287]
20 78,6 [6E16177F] [B7F647DB]
21 82,8 [3F86C16C] [031EE7E5]
22 69,7 [67F64CB6] [0B677918]
23 80,6 [E2E261B9] [3989DB02]
24 66,4 [0EDE2F52] [DC8F91B4]
25 83,9 [740FA9E4] [43C16C0F]
26 77,8 [4CD7F10D] [A71CDC12]
27 72,8 [53A0BDD9] [A1DCE01D]
28 87,8 [4660E347] [F4F484B7]
29 58,0 [7BC447F8] [B8958BF6]
30 65,3 [D71C3EA9] [F47F037E]
31 42,9 [83922D66] [FDFA1D70]
32 73,6 [D9E5CDBE] [81034E2A]

Track List CD4:

01. Parker's mood (5, released) [3:04]
02. Perhaps (1) [2:06]
03. Perhaps (2) [0:29]
04. Perhaps (3) [2:11]
05. Perhaps (4) [0:22]
06. Perhaps (5) [0:48]
07. Perhaps (6) [2:20]
08. Perhaps (7, released) [2:35]
09. Marmaduke (01) [0:07]
10. Marmaduke (02) [1:17]
11. Marmaduke (03) [0:55]
12. Marmaduke (04) [0:07]
13. Marmaduke (05) [2:55]
14. Marmaduke (06) [0:11]
15. Marmaduke (07) [1:02]
16. Marmaduke (08) [0:09]
17. Marmaduke (09) [3:03]
18. Marmaduke (10) [0:37]
19. Marmaduke (11) [0:50]
20. Marmaduke (12, released) [2:47]
21. Steeplechase (1) [0:11]
22. Steeplechase (2, released) [3:06]
23. Merry-go-round (1) [2:21]
24. Merry-go-round (2, released) [2:27]
25. Groovin' high [2:44]
26. All the things you are [2:51]
27. Dizzy atmosphere [2:50]
28. Dizzy's boogie [3:11]
29. Dizzy's boogie [alt.] [3:18]
30. Flat foot boogie [2:34]
31. Flat foot boogie [alt.] [2:48]
32. Poppity pop [3:00]
33. Slim's jam [3:16]

EAC extraction logfile from 9. October 2006, 10:48 for CD
Charlie Parker / The complete Savoy sessions - CD4

Used drive : LITE-ON CD-ROM LTN-527T Adapter: 1 ID: 1
Read mode : Secure with NO C2, accurate stream, disable cache
Read offset correction : 12
Overread into Lead-In and Lead-Out : Yes

Used output format : C:\Program Files\Monkey's Audio\MAC.exe (Monkey's Audio Lossless Encoder)
High Lossless Compression

Other options :
Fill up missing offset samples with silence : Yes
Delete leading and trailing silent blocks : No
Installed external ASPI interface


Range status and errors
Selected range
Filename F:\Downloads\Charlie Parker - Complete Savoy Sessions (1944-1947)[Ape Full Scans]\4\Charlie Parker - The complete Savoy sessions - CD4.wav.wav

Peak level 99.8 %
Range quality 99.9 %
CRC 169FEBDE
Copy OK

No errors occured

End of status report

foobar2000 1.3.16 / Dynamic Range Meter 1.1.1
log date: 2018-01-21 04:12:44

––––––––––––––––––––––––––––––––––––––––
Analyzed: Charlie Parker / The complete Savoy sessions - CD4
––––––––––––––––––––––––––––––––––––––––

DR Peak RMS Duration Track
––––––––––––––––––––––––––––––––––––––––
DR11 -0.19 dB -13.54 dB 3:04 01-Parker's mood (5, released)
DR10 -0.08 dB -12.42 dB 2:06 02-Perhaps (1)
DR10 -0.01 dB -14.77 dB 0:29 03-Perhaps (2)
DR10 -0.23 dB -13.07 dB 2:11 04-Perhaps (3)
DR9 -0.94 dB -14.46 dB 0:22 05-Perhaps (4)
DR9 -0.35 dB -12.95 dB 0:48 06-Perhaps (5)
DR10 -0.28 dB -11.38 dB 2:20 07-Perhaps (6)
DR10 -0.54 dB -13.10 dB 2:35 08-Perhaps (7, released)
DR10 -5.40 dB -19.35 dB 0:07 09-Marmaduke (01)
DR10 -0.49 dB -12.55 dB 1:17 10-Marmaduke (02)
DR9 -1.02 dB -12.06 dB 0:55 11-Marmaduke (03)
DR12 -0.55 dB -12.84 dB 0:07 12-Marmaduke (04)
DR10 -0.76 dB -12.62 dB 2:55 13-Marmaduke (05)
DR10 -0.23 dB -12.84 dB 0:11 14-Marmaduke (06)
DR10 -0.47 dB -12.72 dB 1:02 15-Marmaduke (07)
DR4 -0.65 dB -14.04 dB 0:09 16-Marmaduke (08)
DR13 -0.20 dB -14.32 dB 3:03 17-Marmaduke (09)
DR9 -0.03 dB -12.61 dB 0:37 18-Marmaduke (10)
DR9 -0.65 dB -11.77 dB 0:50 19-Marmaduke (11)
DR11 -0.02 dB -13.55 dB 2:47 20-Marmaduke (12, released)
DR13 -0.53 dB -13.72 dB 0:11 21-Steeplechase (1)
DR12 -0.62 dB -14.05 dB 3:06 22-Steeplechase (2, released)
DR11 -0.53 dB -13.76 dB 2:21 23-Merry-go-round (1)
DR12 -0.11 dB -13.84 dB 2:27 24-Merry-go-round (2, released)
DR10 -0.79 dB -14.15 dB 2:44 25-Groovin' high
DR9 -0.12 dB -12.98 dB 2:51 26-All the things you are
DR11 -0.14 dB -13.65 dB 2:50 27-Dizzy atmosphere
DR12 -0.74 dB -16.24 dB 3:11 28-Dizzy's boogie
DR11 -0.35 dB -14.10 dB 3:18 29-Dizzy's boogie [alt.]
DR13 -0.44 dB -16.46 dB 2:34 30-Flat foot boogie
DR11 -0.75 dB -14.20 dB 2:48 31-Flat foot boogie [alt.]
DR14 -0.48 dB -17.01 dB 3:00 32-Poppity pop
DR12 -0.02 dB -16.78 dB 3:16 33-Slim's jam
––––––––––––––––––––––––––––––––––––––––

Number of tracks: 33
Official DR value: DR11

Samplerate: 44100 Hz
Channels: 2
Bits per sample: 16
Bitrate: 516 kbps
Codec: FLAC
================================================================================

[CUETools log; Date: 21.01.2018 4:12:04; Version: 2.1.5]
[CTDB TOCID: 22fsWqp2Ju8rkg7Qkr3pu_3_Si0-] found.
Track | CTDB Status
1 | (5/5) Accurately ripped
2 | (5/5) Accurately ripped
3 | (5/5) Accurately ripped
4 | (5/5) Accurately ripped
5 | (5/5) Accurately ripped
6 | (5/5) Accurately ripped
7 | (5/5) Accurately ripped
8 | (5/5) Accurately ripped
9 | (5/5) Accurately ripped
10 | (5/5) Accurately ripped
11 | (5/5) Accurately ripped
12 | (5/5) Accurately ripped
13 | (5/5) Accurately ripped
14 | (5/5) Accurately ripped
15 | (5/5) Accurately ripped
16 | (5/5) Accurately ripped
17 | (5/5) Accurately ripped
18 | (5/5) Accurately ripped
19 | (5/5) Accurately ripped
20 | (5/5) Accurately ripped
21 | (5/5) Accurately ripped
22 | (5/5) Accurately ripped
23 | (5/5) Accurately ripped
24 | (5/5) Accurately ripped
25 | (5/5) Accurately ripped
26 | (5/5) Accurately ripped
27 | (5/5) Accurately ripped
28 | (5/5) Accurately ripped
29 | (5/5) Accurately ripped
30 | (5/5) Accurately ripped
31 | (5/5) Accurately ripped
32 | (5/5) Accurately ripped
33 | (5/5) Accurately ripped
[AccurateRip ID: 003d3250-05b11899-ea0ea821] found.
Track [ CRC | V2 ] Status
01 [59739bd9|361d21f9] (03+07/12) Accurately ripped
02 [b333e1c5|5e4bd6ef] (03+07/12) Accurately ripped
03 [c239e479|3175b3cd] (03+08/13) Accurately ripped
04 [331dcb50|0c5210d3] (03+08/13) Accurately ripped
05 [2b0e8529|fe369b90] (03+08/13) Accurately ripped
06 [ed613dd0|bb85bcae] (03+08/13) Accurately ripped
07 [50b6bc36|5e845dcf] (03+08/13) Accurately ripped
08 [daf6029e|5632e5eb] (03+08/13) Accurately ripped
09 [7e45e0f0|35def92c] (00+03/03) Accurately ripped
10 [45b6b3dd|c6b933f4] (03+08/13) Accurately ripped
11 [3833d854|e831c4e2] (03+08/13) Accurately ripped
12 [0e3c90df|aede1d3d] (00+03/03) Accurately ripped
13 [6ede9e7b|5aea305c] (03+08/13) Accurately ripped
14 [f0c94f78|1e40f137] (03+07/12) Accurately ripped
15 [075ecd64|1644fda2] (03+08/13) Accurately ripped
16 [b488ede6|e06540e7] (03+08/13) Accurately ripped
17 [f4ac9a17|532c65ef] (03+07/12) Accurately ripped
18 [27f640f8|5e467005] (03+07/12) Accurately ripped
19 [487ef5b2|910f068c] (03+07/12) Accurately ripped
20 [f4778fce|7614e23d] (03+07/12) Accurately ripped
21 [a7e534e3|b41be2e9] (03+07/12) Accurately ripped
22 [c46eaf01|76402854] (03+07/12) Accurately ripped
23 [3ef850f1|3204fd8f] (03+08/13) Accurately ripped
24 [f5ad1ed3|19cb6ad1] (03+07/12) Accurately ripped
25 [532e52e5|9f9e7255] (03+07/12) Accurately ripped
26 [cd173c74|6c65d90d] (03+07/12) Accurately ripped
27 [8f3df269|23db74cc] (03+07/12) Accurately ripped
28 [6f2e695f|31cdb873] (03+07/12) Accurately ripped
29 [1aaa0419|d05e841c] (03+07/12) Accurately ripped
30 [f0c9638d|e6eeb0f5] (03+07/12) Accurately ripped
31 [78bea923|9c83b8c2] (03+07/12) Accurately ripped
32 [5b6fece2|78d97b06] (03+07/12) Accurately ripped
33 [adc21df5|cf047fbf] (03+07/12) Accurately ripped
Offsetted by 583:
01 [579f41cf] (00/12) No match (V2 was not tested)
02 [04fcabe5] (00/12) No match (V2 was not tested)
03 [3dd490c9] (00/13) No match (V2 was not tested)
04 [1a1e6826] (00/13) No match (V2 was not tested)
05 [5c090bc2] (00/13) No match (V2 was not tested)
06 [4b562f0e] (00/13) No match (V2 was not tested)
07 [0995dcde] (00/13) No match (V2 was not tested)
08 [437b61fc] (00/13) No match (V2 was not tested)
09 [8c16ec1d] (00/03) No match
10 [ffa6d60c] (00/13) No match (V2 was not tested)
11 [dabcae24] (00/13) No match (V2 was not tested)
12 [da2fdcf8] (00/03) No match
13 [af4e8efa] (00/13) No match (V2 was not tested)
14 [f87c879f] (00/12) No match (V2 was not tested)
15 [c68217c9] (00/13) No match (V2 was not tested)
16 [3aca0a4d] (00/13) No match (V2 was not tested)
17 [09227f64] (00/12) No match (V2 was not tested)
18 [5106c485] (00/12) No match (V2 was not tested)
19 [92ae0428] (00/12) No match (V2 was not tested)
20 [a3fdf721] (00/12) No match (V2 was not tested)
21 [1ae3ee0f] (00/12) No match (V2 was not tested)
22 [7a683e42] (00/12) No match (V2 was not tested)
23 [0a6ae2d2] (00/13) No match (V2 was not tested)
24 [30d8d22b] (00/12) No match (V2 was not tested)
25 [825603da] (00/12) No match (V2 was not tested)
26 [4758557f] (00/12) No match (V2 was not tested)
27 [567ada7e] (00/12) No match (V2 was not tested)
28 [a2194951] (00/12) No match (V2 was not tested)
29 [6118765e] (00/12) No match (V2 was not tested)
30 [3a186320] (00/12) No match (V2 was not tested)
31 [c627dd81] (00/12) No match (V2 was not tested)
32 [8e54652f] (00/12) No match (V2 was not tested)
33 [afe920c5] (00/12) No match (V2 was not tested)

Track Peak [ CRC32 ] [W/O NULL] [ LOG ]
– 99,8 [169FEBDE] [2CE9C8AE] CRC32
01 97,8 [8724B3DA] [86B6B88C]
02 99,0 [66216CF7] [760F3D98]
03 99,8 [7DB3E18A] [B129E332]
04 97,3 [17BD5FE8] [9EFE5223]
05 89,7 [7F466F5E] [036B051C]
06 96,0 [D09F47BC] [62D62559]
07 96,8 [E52DB2FC] [EBC68D98]
08 94,0 [AEC9DA05] [AB06F211]
09 53,6 [161590B1] [85262971]
10 94,5 [A3DD4697] [C8D16035]
11 88,9 [6842CBFB] [6F2D4267]
12 93,8 [F38F6340] [E541672C]
13 91,6 [C671BD33] [628717AA]
14 97,3 [C7EE845C] [0B0B8E90]
15 94,7 [714E1FB5] [FD15840D]
16 92,7 [263047C0] [6563621A]
17 97,7 [2B3075D0] [B45A6BAE]
18 99,6 [B3518A7E] [EEF9F203]
19 92,7 [46105981] [D0CE3304]
20 99,7 [28CC7714] [BC1539E3]
21 94,0 [718F3A7D] [611AD438]
22 93,1 [44CA66E8] [ED5F6887]
23 94,1 [945F887E] [DD5D1FB2]
24 98,7 [80F7BF17] [B15D58DD]
25 91,3 [525A1804] [4B726B90]
26 98,6 [2D75E53E] [65F38998]
27 98,3 [0ABFF60F] [32FF8E83]
28 91,8 [833AFA8C] [438DD834]
29 96,1 [5D4FFE07] [0DF7DCE1]
30 95,0 [7A670F11] [DFBCE44A]
31 91,7 [7309A8ED] [132F0E31]
32 94,6 [D139ADEE] [CC93DD9A]
33 99,8 [96F91AF1] [38268A9C]

Charlie Parker - Complete Savoy Sessions (1999) {4CD Box Set}

All thanks go to the original ripper(s) …

>>> My Blog <<<

Download from icerbox.com: