Subcategories

Charlie Mariano - Boston All Stars [Recorded 1951-53] (1990)

Posted By: gribovar
Charlie Mariano - Boston All Stars [Recorded 1951-53] (1990)

Charlie Mariano - Boston All Stars [Recorded 1951-53] (1990)
EAC Rip | FLAC (image+.cue+log) - 132 MB | MP3 CBR 320 kbps (LAME 3.93) - 121 MB | Covers (7 MB) included
Genre: Jazz | RAR 3% Rec. | Label: Original Jazz Classics/Prestuge (OJCCD 1745-2, PRLP-130/153)

Altoist Charlie Mariano plays very much in a Charlie Parker style on these early recordings from Boston (eight from 1951 and six from 1953), but his arrangements for the octet (six of the pieces from the former session) are quite original and unpredictable; only trumpeter Joe Gordon among the otherwise obscure personnel ever gained much recognition. The later six selections match Mariano with trumpeter Herb Pomeroy and the brilliant pianist Dick Twardzik in a quintet; Twardzik, with his odd mixture of Bud Powell and Lennie Tristano, consistently steals the show. A historical and generally enjoyable set, it's recommended for bop fans.
Tracklist:
01. Boston Uncommon (Master A)
02. Boston Uncommon (Master B)
03. The Wizard (Master A)
04. The Wizard (Master B)
05. Mariners
06. Aviary
07. Tzoris
08. Autumn in New York
09. Bye, Bye Blues
10. I'm Old Fashioned
11. Erosong
12. Bess, You Is My Woman Now
13. Barsac
14. Stella by Starlight

Total time: 48:09

Exact Audio Copy V0.99 prebeta 4 from 23. January 2008

EAC extraction logfile from 26. June 2008, 18:56

Charlie Mariano / Boston All Stars

Used drive : ATAPI DVD A DH20A3H Adapter: 1 ID: 1

Read mode : Secure
Utilize accurate stream : Yes
Defeat audio cache : Yes
Make use of C2 pointers : No

Read offset correction : 6
Overread into Lead-In and Lead-Out : No
Fill up missing offset samples with silence : Yes
Delete leading and trailing silent blocks : No
Null samples used in CRC calculations : Yes
Used interface : Installed external ASPI interface

Used output format : User Defined Encoder
Selected bitrate : 768 kBit/s
Quality : High
Add ID3 tag : No
Command line compressor : C:\Program Files\Exact Audio Copy\flac.exe
Additional command line options : -V -8 -T "artist=%a" -T "title=%t" -T "album=%g" -T "date=%y" -T "tracknumber=%n" -T "genre=%m" %s


TOC of the extracted CD

Track | Start | Length | Start sector | End sector
––––––––––––––––––––––––––––-
1 | 0:00.00 | 2:10.35 | 0 | 9784
2 | 2:10.35 | 2:09.07 | 9785 | 19466
3 | 4:19.42 | 2:34.63 | 19467 | 31079
4 | 6:54.30 | 2:31.67 | 31080 | 42471
5 | 9:26.22 | 3:38.28 | 42472 | 58849
6 | 13:04.50 | 4:14.70 | 58850 | 77969
7 | 17:19.45 | 3:31.70 | 77970 | 93864
8 | 20:51.40 | 3:48.52 | 93865 | 111016
9 | 24:40.17 | 4:45.25 | 111017 | 132416
10 | 29:25.42 | 3:03.35 | 132417 | 146176
11 | 32:29.02 | 3:45.58 | 146177 | 163109
12 | 36:14.60 | 3:51.52 | 163110 | 180486
13 | 40:06.37 | 4:21.13 | 180487 | 200074
14 | 44:27.50 | 3:41.40 | 200075 | 216689


Range status and errors

Selected range

Filename D:\WinRar\Charlie Mariano - Boston All Stars (1951-53 OJC)[FLAC Full Scans]\Charlie Mariano - Boston All Stars.wav

Peak level 96.4 %
Range quality 100.0 %
Test CRC F70ACAAB
Copy CRC F70ACAAB
Copy OK

No errors occurred


AccurateRip summary

Track 1 not present in database
Track 2 not present in database
Track 3 not present in database
Track 4 not present in database
Track 5 not present in database
Track 6 not present in database
Track 7 not present in database
Track 8 not present in database
Track 9 not present in database
Track 10 not present in database
Track 11 not present in database
Track 12 not present in database
Track 13 not present in database
Track 14 not present in database

None of the tracks are present in the AccurateRip database

End of status report

[CUETools log; Date: 21.04.2018 21:50:04; Version: 2.1.4]
[CTDB TOCID: IltgGSmY9wmL1jps4EuV8Aig7nU-] found.
Track | CTDB Status
1 | (4/4) Accurately ripped
2 | (4/4) Accurately ripped
3 | (4/4) Accurately ripped
4 | (4/4) Accurately ripped
5 | (4/4) Accurately ripped
6 | (4/4) Accurately ripped
7 | (4/4) Accurately ripped
8 | (4/4) Accurately ripped
9 | (4/4) Accurately ripped
10 | (4/4) Accurately ripped
11 | (4/4) Accurately ripped
12 | (4/4) Accurately ripped
13 | (4/4) Accurately ripped
14 | (4/4) Accurately ripped
[AccurateRip ID: 0016a2c6-00f97e3f-be0b490e] found.
Track [ CRC | V2 ] Status
01 [7ccb2c26|1533b2b2] (0+3/3) Accurately ripped
02 [29ba9829|614dd82e] (0+3/3) Accurately ripped
03 [ece6e1be|f92db72e] (0+3/3) Accurately ripped
04 [4cab6269|178df758] (0+3/3) Accurately ripped
05 [611132f4|3555821b] (0+3/3) Accurately ripped
06 [d97e0e00|349f6fa5] (0+3/3) Accurately ripped
07 [508cae4f|626008c8] (0+3/3) Accurately ripped
08 [6660d93d|87356148] (0+3/3) Accurately ripped
09 [48f351b8|25beb65f] (0+3/3) Accurately ripped
10 [faccdc48|4fa7e07c] (0+3/3) Accurately ripped
11 [5232b076|cc28d3c3] (0+3/3) Accurately ripped
12 [a169cd97|5c013f05] (0+3/3) Accurately ripped
13 [627f769b|025831a8] (0+3/3) Accurately ripped
14 [13814024|4a42c10d] (0+3/3) Accurately ripped

Track Peak [ CRC32 ] [W/O NULL] [ LOG ]
– 96,4 [F70ACAAB] [33FC1353] CRC32
01 81,0 [F099EC1B] [84C2D7F8]
02 71,8 [25E4682C] [6D5BCB84]
03 74,5 [41469E3B] [D1BD0D5E]
04 77,3 [C576FD88] [298A7E70]
05 71,8 [CF7BF04A] [F7DCB50A]
06 73,7 [0D33B8AB] [BB9C419E]
07 96,4 [92A245F6] [5FF53139]
08 90,1 [C78B5CCB] [CC9A3CC0]
09 71,4 [266E46B9] [31D2F7EB]
10 78,8 [69E4DD62] [E5251027]
11 69,0 [3B3EDF72] [B1D6EF4F]
12 73,2 [1CDF97DA] [3BDB5004]
13 66,2 [B27E303A] [F948ECA6]
14 69,6 [214146F2] [5AD49F7E]

Thanks to Mazeppa