Subcategories

Cheap Trick - The Doctor (1986) {2017, Japan Blu-Spec CD2, Expanded & Remastered}

Posted By: popsakov
Cheap Trick - The Doctor (1986) {2017, Japan Blu-Spec CD2, Expanded & Remastered}

Cheap Trick - The Doctor (1986) {2017, Japan Blu-Spec CD2, Expanded & Remastered}
EAC Rip | FLAC (Img) + Cue + Log ~ 423 Mb | MP3 CBR320 ~ 140 Mb
Full Scans (JPG, 600 dpi) ~ 64 Mb | RAR 5% Recovery
Classic Rock, Power Pop | Epic / Sony Music #SICP 31071

The Doctor is the ninth studio album by Cheap Trick, released in 1986. Since the beginning of the 1980s, Cheap Trick saw increasing pressure from their label, Epic Records, to produce material that was more commercial. In 1985, the band successfully gained a commercial comeback with the Top 40 album Standing on the Edge. For that album, the band had planned on returning to the rough sound of their 1977 debut, but producer Jack Douglas backed out of mixing process due to the legal issues he was having with Yoko Ono. Mixer Tony Platt was called in, and as a result, the album's production featured keyboards and electronic drums more prominently than the band and Douglas had intended. For the follow-up album, Platt was hired as producer and he opted for the dominant use of commercial-sounding synthesizers. The Doctor was released in November 1986, but did not live up to commercial expectations. It initially sold 88,000 copies and peaked at No. 115 on the U.S. Billboard 200, remaining in the charts for nine weeks. The Doctor has gained much criticism for Platt's production.
~ Wiki

***************

Cheap Trick - The Doctor (1986) {2017, Japan Blu-Spec CD2, Expanded & Remastered}

Track List:

01. It's Up To You [3:51]
02. Rearview Mirror Romance [4:32]
03. The Doctor [4:03]
04. Are You Lonely Tonight [3:47]
05. Name Of The Game [4:18]
06. Kiss Me Red [3:37]
07. Take Me To The Top [4:02]
08. Good Girls Go To Heaven (Bad Girls Go Everywhere) [3:22]
09. Man-u-lip-u-lator [3:47]
10. It's Only Love [4:50]
11. In This Country / Robin Zander (From 'Over The Top' original soundtrack) (Bonus track) [4:26]
12. It's Only Love (Single version) (Bonus track) [3:35]
13. Funk #9 (Original demo of 'The Doctor') (Bonus track) [3:37]
14. Money Is The Route Of All Fun ('The Doctor' outtake) (Bonus track) [2:50]
15. Fortune Cookie (Demo) (Bonus track) [3:40]

Personnel:
Robin Zander - lead vocals
Rick Nielsen - guitar, backing vocals
Jon Brant - bass guitar, backing vocals
Bun E. Carlos - drums

Additional musicians:
Dee Lewis, Coral Gordon - backing vocals (tracks 5-6, 9-10)

Exact Audio Copy V1.3 from 2. September 2016

EAC extraction logfile from 28. February 2018, 19:02

Cheap Trick / The Doctor (SICP 31071)

Used drive : HL-DT-STBD-RE BH16NS40 Adapter: 1 ID: 2

Read mode : Secure
Utilize accurate stream : Yes
Defeat audio cache : Yes
Make use of C2 pointers : No

Read offset correction : 6
Overread into Lead-In and Lead-Out : No
Fill up missing offset samples with silence : Yes
Delete leading and trailing silent blocks : No
Null samples used in CRC calculations : Yes
Used interface : Native Win32 interface for Win NT & 2000

Used output format : User Defined Encoder
Selected bitrate : 1024 kBit/s
Quality : High
Add ID3 tag : No
Command line compressor : C:\Program Files (x86)\Exact Audio Copy\Flac\flac.exe
Additional command line options : -V -8 -T "Genre=%genre%" -T "Artist=%artist%" -T "Title=%title%" -T "Album=%albumtitle%" -T "Date=%year%" -T "Tracknumber=%tracknr%" -T "Comment=%comment%" %source%


TOC of the extracted CD

Track | Start | Length | Start sector | End sector
––––––––––––––––––––––––––––-
1 | 0:00.00 | 3:50.38 | 0 | 17287
2 | 3:50.38 | 4:32.22 | 17288 | 37709
3 | 8:22.60 | 4:03.23 | 37710 | 55957
4 | 12:26.08 | 3:47.20 | 55958 | 73002
5 | 16:13.28 | 4:17.45 | 73003 | 92322
6 | 20:30.73 | 3:37.31 | 92323 | 108628
7 | 24:08.29 | 4:01.49 | 108629 | 126752
8 | 28:10.03 | 3:22.27 | 126753 | 141929
9 | 31:32.30 | 3:47.30 | 141930 | 158984
10 | 35:19.60 | 4:49.49 | 158985 | 180708
11 | 40:09.34 | 4:25.38 | 180709 | 200621
12 | 44:34.72 | 3:35.03 | 200622 | 216749
13 | 48:10.00 | 3:37.10 | 216750 | 233034
14 | 51:47.10 | 2:50.12 | 233035 | 245796
15 | 54:37.22 | 3:40.04 | 245797 | 262300


Range status and errors

Selected range

Filename E:\Torrent\Ginger Devil\Cheap Trick\Remasters 2017\1986 - The Doctor (SICP 31071)\Cheap Trick - The Doctor (SICP 31071).wav

Peak level 100.0 %
Extraction speed 7.0 X
Range quality 100.0 %
Test CRC 05FF8F24
Copy CRC 05FF8F24
Copy OK

No errors occurred


AccurateRip summary

Track 1 accurately ripped (confidence 2) [0AF29716] (AR v2)
Track 2 accurately ripped (confidence 2) [99FD843D] (AR v2)
Track 3 accurately ripped (confidence 2) [D1BF927F] (AR v2)
Track 4 accurately ripped (confidence 2) [E60A22D8] (AR v2)
Track 5 accurately ripped (confidence 2) [8DD31B92] (AR v2)
Track 6 accurately ripped (confidence 2) [6E6BC4A9] (AR v2)
Track 7 accurately ripped (confidence 2) [0C3D96BE] (AR v2)
Track 8 accurately ripped (confidence 2) [AECE0E74] (AR v2)
Track 9 accurately ripped (confidence 2) [BB7B566E] (AR v2)
Track 10 accurately ripped (confidence 2) [EC3D7CD2] (AR v2)
Track 11 accurately ripped (confidence 2) [204D2359] (AR v2)
Track 12 accurately ripped (confidence 2) [0E28F3BC] (AR v2)
Track 13 accurately ripped (confidence 2) [5C92A0D4] (AR v2)
Track 14 accurately ripped (confidence 2) [83077F3A] (AR v2)
Track 15 accurately ripped (confidence 2) [626C1C31] (AR v2)

All tracks accurately ripped

End of status report

–– CUETools DB Plugin V2.1.6

[CTDB TOCID: n.GIhZIrd3WaZ_ARe9jW42TFXis-] found
Submit result: n.GIhZIrd3WaZ_ARe9jW42TFXis- has been confirmed
Track | CTDB Status
1 | (3/3) Accurately ripped
2 | (3/3) Accurately ripped
3 | (3/3) Accurately ripped
4 | (3/3) Accurately ripped
5 | (3/3) Accurately ripped
6 | (3/3) Accurately ripped
7 | (3/3) Accurately ripped
8 | (3/3) Accurately ripped
9 | (3/3) Accurately ripped
10 | (3/3) Accurately ripped
11 | (3/3) Accurately ripped
12 | (3/3) Accurately ripped
13 | (3/3) Accurately ripped
14 | (3/3) Accurately ripped
15 | (3/3) Accurately ripped


==== Log checksum 77354CEA570ADC26664600D86A02E5907BE5BC2E2EEC51AB22C2D2E140D327AF ====

foobar2000 1.3.16 / Dynamic Range Meter 1.1.1
log date: 2018-03-18 13:05:01

––––––––––––––––––––––––––––––––––––––––
Analyzed: Cheap Trick / The Doctor (SICP 31071)
––––––––––––––––––––––––––––––––––––––––

DR Peak RMS Duration Track
––––––––––––––––––––––––––––––––––––––––
DR8 -0.22 dB -9.29 dB 3:51 01-It's Up To You
DR8 -0.22 dB -9.57 dB 4:32 02-Rearview Mirror Romance
DR8 -0.17 dB -9.74 dB 4:03 03-The Doctor
DR8 -0.07 dB -9.26 dB 3:47 04-Are You Lonely Tonight
DR9 -0.27 dB -10.08 dB 4:18 05-Name Of The Game
DR9 -0.23 dB -10.24 dB 3:37 06-Kiss Me Red
DR8 -0.56 dB -11.30 dB 4:02 07-Take Me To The Top
DR9 -0.64 dB -10.20 dB 3:22 08-Good Girls Go To Heaven (Bad Girls Go Everywhere)
DR8 -0.26 dB -10.00 dB 3:47 09-Man-u-lip-u-lator
DR10 0.00 dB -11.60 dB 4:50 10-It's Only Love
DR10 -0.62 dB -12.15 dB 4:26 11-In This Country / Robin Zander (From 'Over The Top' original soundtrack) (Bonus track)
DR10 -0.58 dB -12.07 dB 3:35 12-It's Only Love (Single version) (Bonus track)
DR8 -0.49 dB -9.48 dB 3:37 13-Funk #9 (Original demo of 'The Doctor') (Bonus track)
DR7 -0.46 dB -9.57 dB 2:50 14-Money Is The Route Of All Fun ('The Doctor' outtake) (Bonus track)
DR8 -0.76 dB -10.47 dB 3:40 15-Fortune Cookie (Demo) (Bonus track)
––––––––––––––––––––––––––––––––––––––––

Number of tracks: 15
Official DR value: DR9

Samplerate: 44100 Hz
Channels: 2
Bits per sample: 16
Bitrate: 965 kbps
Codec: FLAC
================================================================================

[CUETools log; Date: 18.03.2018 13:02:25; Version: 2.1.6]
[CTDB TOCID: n.GIhZIrd3WaZ_ARe9jW42TFXis-] found.
Track | CTDB Status
1 | (4/4) Accurately ripped
2 | (4/4) Accurately ripped
3 | (4/4) Accurately ripped
4 | (4/4) Accurately ripped
5 | (4/4) Accurately ripped
6 | (4/4) Accurately ripped
7 | (4/4) Accurately ripped
8 | (4/4) Accurately ripped
9 | (4/4) Accurately ripped
10 | (4/4) Accurately ripped
11 | (4/4) Accurately ripped
12 | (4/4) Accurately ripped
13 | (4/4) Accurately ripped
14 | (4/4) Accurately ripped
15 | (4/4) Accurately ripped
[AccurateRip ID: 0020d571-0172a855-ce0da90f] found.
Track [ CRC | V2 ] Status
01 [b271d685|0af29716] (0+2/2) Accurately ripped
02 [c4243b96|99fd843d] (0+2/2) Accurately ripped
03 [2d0b525e|d1bf927f] (0+2/2) Accurately ripped
04 [1c701fd9|e60a22d8] (0+2/2) Accurately ripped
05 [224445d8|8dd31b92] (0+2/2) Accurately ripped
06 [c382a4e5|6e6bc4a9] (0+2/2) Accurately ripped
07 [749a4e78|0c3d96be] (0+2/2) Accurately ripped
08 [949b7563|aece0e74] (0+2/2) Accurately ripped
09 [32633775|bb7b566e] (0+2/2) Accurately ripped
10 [93f41d38|ec3d7cd2] (0+2/2) Accurately ripped
11 [68c5a6dc|204d2359] (0+2/2) Accurately ripped
12 [dec472ed|0e28f3bc] (0+2/2) Accurately ripped
13 [70a16e7f|5c92a0d4] (0+2/2) Accurately ripped
14 [abbf542e|83077f3a] (0+2/2) Accurately ripped
15 [dfd131f5|626c1c31] (0+2/2) Accurately ripped

Track Peak [ CRC32 ] [W/O NULL] [ LOG ]
– 100,0 [05FF8F24] [3799F167] CRC32
01 97,5 [342F9624] [50E40B5A]
02 97,5 [96DB0492] [FC34071C]
03 98,0 [EE0C3E4F] [62D11DED]
04 99,1 [5D5477FE] [1C353B0D]
05 96,8 [4621866E] [0187A1A4]
06 97,4 [E989705D] [425DEF57]
07 93,7 [D699FE78] [88E6F0C9]
08 92,8 [B3E33A95] [FC8352A9]
09 97,0 [BF5485B0] [E7C3BB38]
10 100,0 [C7325766] [25842439]
11 93,1 [A8445B7B] [E70E0774]
12 93,5 [B7E47E09] [83961004]
13 94,5 [2E38F8DA] [BDD723A7]
14 94,8 [14D16C2A] [1637BE39]
15 91,6 [640D2016] [BE54AE27]

Cheap Trick - The Doctor (1986) {2017, Japan Blu-Spec CD2, Expanded & Remastered}

All thanks go to Ginger Devil

>>> Cheap Trick in my Blog <<<

Download from icerbox.com: