Subcategories

Cherry Poppin' Daddies - White Teeth, Black Thoughts (2013) {Deluxe Edition} RE-UP

Posted By: popsakov
Cherry Poppin' Daddies - White Teeth, Black Thoughts (2013) {Deluxe Edition} RE-UP

Cherry Poppin' Daddies - White Teeth, Black Thoughts (2013) {Deluxe Edition}
2CD | EAC Rip | FLAC (Img) + Cue + Log ~ 518 Mb | MP3 CBR320 ~ 217 Mb
Scans Included (JPG, 300 dpi) | RAR 5% Recovery
Swing, Jazz, Alternative Rock, Rockabilly, Country | Space Age Bachelor Pad Records #CPD-4233

White Teeth, Black Thoughts is the sixth studio album by American band the Cherry Poppin' Daddies, released on July 16, 2013 on Space Age Bachelor Pad Records. Following the predominant world music slant of 2008's Susquehanna and the 2009 ska album Skaboy JFK, White Teeth, Black Thoughts marks the Cherry Poppin' Daddies' first album since their 1997 compilation Zoot Suit Riot to focus exclusively on swing and jazz music, eschewing the ska, rock and pop influences which typically feature on their albums. A two-disc "deluxe" version of White Teeth, Black Thoughts was released concurrently with the main swing album, featuring an additional full-length album of material composed in an "Americana" vein covering rockabilly, country and western swing.
~ Wiki

Cherry Poppin' Daddies' sixth studio album, 2013's White Teeth Black Thoughts, is the band's first album of all swing-oriented material since their hit 1997 compilation Zoot Suit Riot. The album also follows up the group's more eclectic, world music-infused 2008 album Susquehanna and ska-centric 2009 compilation Skaboy JFK. Loosely inspired by the American financial crisis of 2007-2008, lead singer Steve Perry began re-investigating various Dust Bowl and Depression-era swing songs as a way of finding historical context for the nation's troubles. This led Perry and the Daddies to cover several songs from the '30s, '40s, and '50s, something the band had heretofore eschewed in favor of sticking to original material. To these ends, the band takes on Wynonie Harris' "Bloodshot Eyes," Bull Moose Jackson's "I Want a Bowlegged Woman," and Louis Jordan's "Doug the Jitterbug." While these cover songs never stray too far afield from the original arrangements, they do sound fresh and imbued with that crisp (punk-informed, if not literally punk-sounding) Cherry Poppin' Daddies style of swing. Elsewhere, the band delves into several no less compelling originals, including the very socio-satirical "The Babooch," the bluesy "I Love American Music," and the glitter rock meets Cab Calloway-sounding "Brown Flight Jacket." The result is an album of exuberant, urbane dance music that moves from popular standards to new compositions with devilish ease.
~ Matt Collar, All Music Guide

***************

Cherry Poppin' Daddies - White Teeth, Black Thoughts (2013) {Deluxe Edition} RE-UP

Track List CD1:

01. The Babooch [03:58]
02. I Love American Music [03:47]
03. Whiskey Jack [03:22]
04. Doug The Jitterbug [02:30]
05. White Teeth, Black Thoughts [03:27]
06. Brown Flight Jacket [04:07]
07. Bloodshot Eyes [02:31]
08. Jakes Frilly Panties [02:47]
09. Huffin' Muggles [03:19]
10. I Want A Bowlegged Woman [02:51]
11. Concrete Man Blues [05:00]

Exact Audio Copy V1.0 beta 3 from 29. August 2011

EAC extraction logfile from 23. May 2015, 13:12

Cherry Poppin' Daddies / White Teeth, Black Thoughts Disc 1

Used drive : PIONEER BD-RW BDR-TD03 Adapter: 0 ID: 1

Read mode : Secure
Utilize accurate stream : Yes
Defeat audio cache : Yes
Make use of C2 pointers : No

Read offset correction : 667
Overread into Lead-In and Lead-Out : No
Fill up missing offset samples with silence : Yes
Delete leading and trailing silent blocks : No
Null samples used in CRC calculations : Yes
Used interface : Native Win32 interface for Win NT & 2000

Used output format : User Defined Encoder
Selected bitrate : 768 kBit/s
Quality : High
Add ID3 tag : No
Command line compressor : C:\Program Files (x86)\Exact Audio Copy\FLAC\FLAC.EXE
Additional command line options : -6 -V -T "ARTIST=%artist%" -T "TITLE=%title%" -T "ALBUM=%albumtitle%" -T "DATE=%year%" -T "TRACKNUMBER=%tracknr%" -T "GENRE=%genre%" -T "COMMENT=%comment%" -T "BAND=%albuminterpret%" -T "ALBUMARTIST=%albuminterpret%" -T "COMPOSER=%composer%" %haslyrics%–tag-from-file=LYRICS="%lyricsfile%"%haslyrics% -T "DISCNUMBER=%cdnumber%" -T "TOTALDISCS=%totalcds%" -T "TOTALTRACKS=%numtracks%" %hascover%–picture="%coverfile%"%hascover% %source% -o %dest%


TOC of the extracted CD

Track | Start | Length | Start sector | End sector
––––––––––––––––––––––––––––-
1 | 0:00.00 | 3:57.31 | 0 | 17805
2 | 3:57.31 | 3:46.40 | 17806 | 34795
3 | 7:43.71 | 3:21.50 | 34796 | 49920
4 | 11:05.46 | 2:29.61 | 49921 | 61156
5 | 13:35.32 | 3:26.03 | 61157 | 76609
6 | 17:01.35 | 4:06.67 | 76610 | 95126
7 | 21:08.27 | 2:30.62 | 95127 | 106438
8 | 23:39.14 | 2:46.11 | 106439 | 118899
9 | 26:25.25 | 3:18.28 | 118900 | 133777
10 | 29:43.53 | 2:50.07 | 133778 | 146534
11 | 32:33.60 | 4:59.70 | 146535 | 169029


Range status and errors

Selected range

Filename C:\Users\Deris\Desktop\cherry13\cd1\Cherry Poppin' Daddies - White Teeth, Black Thoughts Disc 1.wav

Peak level 96.6 %
Extraction speed 4.4 X
Range quality 100.0 %
Test CRC 8F09D781
Copy CRC 8F09D781
Copy OK

No errors occurred


AccurateRip summary

Track 1 accurately ripped (confidence 2) [FC654979] (AR v1)
Track 2 accurately ripped (confidence 2) [08FECD6B] (AR v1)
Track 3 accurately ripped (confidence 2) [23DB036E] (AR v1)
Track 4 accurately ripped (confidence 2) [87456BB3] (AR v1)
Track 5 accurately ripped (confidence 2) [A3983416] (AR v1)
Track 6 accurately ripped (confidence 2) [B19291BC] (AR v1)
Track 7 accurately ripped (confidence 2) [6B4C347C] (AR v1)
Track 8 accurately ripped (confidence 2) [539E4CEC] (AR v1)
Track 9 accurately ripped (confidence 2) [45CFD10E] (AR v1)
Track 10 accurately ripped (confidence 2) [956CE876] (AR v1)
Track 11 accurately ripped (confidence 2) [D8168CD0] (AR v1)

All tracks accurately ripped

End of status report

–– CUETools DB Plugin V2.1.3

[CTDB TOCID: 2KCTZcKFd13hrfMpdceq8jNV9SU-] found, Submit result: 2KCTZcKFd13hrfMpdceq8jNV9SU- has been confirmed
[50d2a523] (10/10) Accurately ripped


==== Log checksum EE0D8DF6BD531DC2E2D5D8E6F50DB6393C898AF413F7214EEF3AF42C2A39DFEE ====

foobar2000 1.2.6 / Dynamic Range Meter 1.1.1
log date: 2015-05-25 11:50:38

––––––––––––––––––––––––––––––––––––––––
Analyzed: Cherry Poppin' Daddies / White Teeth, Black Thoughts Disc 1
––––––––––––––––––––––––––––––––––––––––

DR Peak RMS Duration Track
––––––––––––––––––––––––––––––––––––––––
DR8 -0.30 dB -9.63 dB 3:57 01-The Babooch
DR8 -0.30 dB -9.65 dB 3:47 02-I Love American Music
DR8 -0.30 dB -9.54 dB 3:22 03-Whiskey Jack
DR9 -0.30 dB -10.02 dB 2:30 04-Doug The Jitterbug
DR10 -0.30 dB -12.14 dB 3:26 05-White Teeth, Black Thoughts
DR8 -0.31 dB -10.30 dB 4:07 06-Brown Flight Jacket
DR8 -0.30 dB -8.94 dB 2:31 07-Bloodshot Eyes
DR7 -0.30 dB -8.38 dB 2:46 08-Jakes Frilly Panties
DR10 -0.30 dB -11.67 dB 3:18 09-Huffin' Muggles
DR8 -0.30 dB -9.83 dB 2:50 10-I Want A Bowlegged Woman
DR9 -0.30 dB -11.39 dB 5:00 11-Concrete Man Blues
––––––––––––––––––––––––––––––––––––––––

Number of tracks: 11
Official DR value: DR8

Samplerate: 44100 Hz
Channels: 2
Bits per sample: 16
Bitrate: 908 kbps
Codec: FLAC
================================================================================

[CUETools log; Date: 25.05.2015 11:44:08; Version: 2.1.5]
[CTDB TOCID: 2KCTZcKFd13hrfMpdceq8jNV9SU-] found.
Track | CTDB Status
1 | (11/11) Accurately ripped
2 | (11/11) Accurately ripped
3 | (11/11) Accurately ripped
4 | (11/11) Accurately ripped
5 | (11/11) Accurately ripped
6 | (11/11) Accurately ripped
7 | (11/11) Accurately ripped
8 | (11/11) Accurately ripped
9 | (11/11) Accurately ripped
10 | (11/11) Accurately ripped
11 | (11/11) Accurately ripped
[AccurateRip ID: 000f69b3-00844dc0-9808cd0b] found.
Track [ CRC | V2 ] Status
01 [fc654979|b350b3e7] (2+0/6) Accurately ripped
02 [08fecd6b|65572517] (2+0/6) Accurately ripped
03 [23db036e|fdec19f9] (2+0/6) Accurately ripped
04 [87456bb3|a771afb2] (2+0/6) Accurately ripped
05 [a3983416|44ae5b14] (2+0/6) Accurately ripped
06 [b19291bc|43cd8e6f] (2+0/6) Accurately ripped
07 [6b4c347c|a1f375d5] (2+0/6) Accurately ripped
08 [539e4cec|f52d2384] (2+0/6) Accurately ripped
09 [45cfd10e|0f021921] (2+0/6) Accurately ripped
10 [956ce876|91e9e8f5] (2+0/6) Accurately ripped
11 [d8168cd0|9d47380b] (2+0/6) Accurately ripped
Offsetted by -12:
01 [4b79d94c] (0/6) No match (V2 was not tested)
02 [606fe884] (0/6) No match (V2 was not tested)
03 [39c41058] (0/6) No match (V2 was not tested)
04 [90863c7f] (0/6) No match (V2 was not tested)
05 [f079a80c] (0/6) No match (V2 was not tested)
06 [7b3ecea6] (0/6) No match (V2 was not tested)
07 [e6ae4b7b] (0/6) No match (V2 was not tested)
08 [dd01a502] (0/6) No match (V2 was not tested)
09 [504f6ff3] (0/6) No match (V2 was not tested)
10 [bf8fed64] (0/6) No match (V2 was not tested)
11 [33ce07ba] (0/6) No match (V2 was not tested)

Track Peak [ CRC32 ] [W/O NULL] [ LOG ]
– 96,6 [8F09D781] [09D169A5] CRC32
01 96,6 [E1464B6D] [E78683C7]
02 96,5 [4AEDE822] [FE45228A]
03 96,5 [C7D1D732] [4569D575]
04 96,5 [C0DDA928] [66818319]
05 96,5 [562503A8] [0B068710]
06 96,5 [588C0E8E] [50E2A53B]
07 96,5 [1F078C5C] [EECC2B7D]
08 96,5 [2EF8977F] [2BE4A6DB]
09 96,5 [D7B853D8] [ACDDF0CA]
10 96,5 [7D796560] [2638018D]
11 96,5 [837C71F5] [1BE5BFC0]

Cherry Poppin' Daddies - White Teeth, Black Thoughts (2013) {Deluxe Edition} RE-UP

Track List CD2:

01. Tchoupitoulas Congregation [03:22]
02. You Wiped Your Ass With My Heart [02:41]
03. Peckerheads and Badasses [03:26]
04. Throwback Man [03:22]
05. Subway Killer [03:08]
06. Flat Butts and Beer Guts [02:14]
07. Platform Shoes [03:09]
08. Ragged Ol’ Flag [03:00]
09. Nuages [03:52]
10. The Babooch (Director’s cut) [03:57]

Exact Audio Copy V1.0 beta 3 from 29. August 2011

EAC extraction logfile from 23. May 2015, 22:04

Cherry Poppin’ Daddies / White Teeth, Black Thoughts

Used drive : PIONEER BD-RW BDR-TD03 Adapter: 0 ID: 1

Read mode : Secure
Utilize accurate stream : Yes
Defeat audio cache : Yes
Make use of C2 pointers : No

Read offset correction : 667
Overread into Lead-In and Lead-Out : No
Fill up missing offset samples with silence : Yes
Delete leading and trailing silent blocks : No
Null samples used in CRC calculations : Yes
Used interface : Native Win32 interface for Win NT & 2000

Used output format : User Defined Encoder
Selected bitrate : 768 kBit/s
Quality : High
Add ID3 tag : No
Command line compressor : C:\Program Files (x86)\Exact Audio Copy\FLAC\FLAC.EXE
Additional command line options : -6 -V -T "ARTIST=%artist%" -T "TITLE=%title%" -T "ALBUM=%albumtitle%" -T "DATE=%year%" -T "TRACKNUMBER=%tracknr%" -T "GENRE=%genre%" -T "COMMENT=%comment%" -T "BAND=%albuminterpret%" -T "ALBUMARTIST=%albuminterpret%" -T "COMPOSER=%composer%" %haslyrics%–tag-from-file=LYRICS="%lyricsfile%"%haslyrics% -T "DISCNUMBER=%cdnumber%" -T "TOTALDISCS=%totalcds%" -T "TOTALTRACKS=%numtracks%" %hascover%–picture="%coverfile%"%hascover% %source% -o %dest%


TOC of the extracted CD

Track | Start | Length | Start sector | End sector
––––––––––––––––––––––––––––-
1 | 0:00.00 | 3:21.19 | 0 | 15093
2 | 3:21.19 | 2:40.61 | 15094 | 27154
3 | 6:02.05 | 3:25.47 | 27155 | 42576
4 | 9:27.52 | 3:21.30 | 42577 | 57681
5 | 12:49.07 | 3:07.47 | 57682 | 71753
6 | 15:56.54 | 2:13.58 | 71754 | 81786
7 | 18:10.37 | 3:08.11 | 81787 | 95897
8 | 21:18.48 | 2:59.51 | 95898 | 109373
9 | 24:18.24 | 3:51.49 | 109374 | 126747
10 | 28:09.73 | 3:56.34 | 126748 | 144481


Range status and errors

Selected range

Filename C:\Users\Deris\Desktop\cherry13\cd2\Cherry Poppin’ Daddies - White Teeth, Black Thoughts.wav

Peak level 96.6 %
Extraction speed 4.2 X
Range quality 100.0 %
Test CRC 0D08CEFB
Copy CRC 0D08CEFB
Copy OK

No errors occurred


AccurateRip summary

Track 1 accurately ripped (confidence 2) [2F1251AB] (AR v1)
Track 2 accurately ripped (confidence 2) [355BC55A] (AR v1)
Track 3 accurately ripped (confidence 2) [C65527C6] (AR v1)
Track 4 accurately ripped (confidence 2) [2A8AD195] (AR v1)
Track 5 accurately ripped (confidence 2) [1629D205] (AR v1)
Track 6 accurately ripped (confidence 2) [02A149BD] (AR v1)
Track 7 accurately ripped (confidence 2) [87DBA3A2] (AR v1)
Track 8 accurately ripped (confidence 2) [20BAD07B] (AR v1)
Track 9 accurately ripped (confidence 2) [82FBCC7B] (AR v1)
Track 10 accurately ripped (confidence 2) [1A05989F] (AR v1)

All tracks accurately ripped

End of status report

–– CUETools DB Plugin V2.1.3

[CTDB TOCID: 0vfaJW3s.TY8rsgJbDIk_goYtGE-] found, Submit result: 0vfaJW3s.TY8rsgJbDIk_goYtGE- has been confirmed
[0703b62a] (4/4) Accurately ripped


==== Log checksum 827BEC1637ED4C1D3F8C52FB3E765DE77AFCDD181526DB9F7F9A18E0EA138DD4 ====

foobar2000 1.2.6 / Dynamic Range Meter 1.1.1
log date: 2015-05-25 11:53:44

––––––––––––––––––––––––––––––––––––––––
Analyzed: Cherry Poppin’ Daddies feat. Buckwheat Zydeco / White Teeth, Black Thoughts (1)
Cherry Poppin’ Daddies feat. Zoot Horn Rollo / White Teeth, Black Thoughts (2)
––––––––––––––––––––––––––––––––––––––––

DR Peak RMS Duration Track
––––––––––––––––––––––––––––––––––––––––
DR8 -0.30 dB -9.83 dB 3:21 01-Tchoupitoulas Congregation
DR8 -0.30 dB -9.96 dB 2:14 06-Flat Butts and Beer Guts
––––––––––––––––––––––––––––––––––––––––

Number of tracks: 2
Official DR value: DR8

Samplerate: 44100 Hz
Channels: 2
Bits per sample: 16
Bitrate: 878 kbps
Codec: FLAC
================================================================================

––––––––––––––––––––––––––––––––––––––––
Analyzed: Cherry Poppin’ Daddies / White Teeth, Black Thoughts
––––––––––––––––––––––––––––––––––––––––

DR Peak RMS Duration Track
––––––––––––––––––––––––––––––––––––––––
DR10 -0.30 dB -11.43 dB 2:41 02-You Wiped Your Ass With My Heart
DR8 -0.30 dB -9.53 dB 3:26 03-Peckerheads and Badasses
DR7 -0.30 dB -8.93 dB 3:21 04-Throwback Man
DR8 -0.30 dB -9.39 dB 3:08 05-Subway Killer
DR8 -0.30 dB -9.35 dB 3:08 07-Platform Shoes
DR10 -0.30 dB -11.25 dB 3:00 08-Ragged Ol’ Flag
DR11 -0.63 dB -15.81 dB 3:52 09-Nuages
DR9 -0.30 dB -10.59 dB 3:56 10-The Babooch (Director’s cut)
––––––––––––––––––––––––––––––––––––––––

Number of tracks: 8
Official DR value: DR9

Samplerate: 44100 Hz
Channels: 2
Bits per sample: 16
Bitrate: 878 kbps
Codec: FLAC
================================================================================

[CUETools log; Date: 25.05.2015 11:44:33; Version: 2.1.5]
[CTDB TOCID: 0vfaJW3s.TY8rsgJbDIk_goYtGE-] found.
Track | CTDB Status
1 | (5/5) Accurately ripped
2 | (5/5) Accurately ripped
3 | (5/5) Accurately ripped
4 | (5/5) Accurately ripped
5 | (5/5) Accurately ripped
6 | (5/5) Accurately ripped
7 | (5/5) Accurately ripped
8 | (5/5) Accurately ripped
9 | (5/5) Accurately ripped
10 | (5/5) Accurately ripped
[AccurateRip ID: 000bc9c7-005e5369-8007860a] found.
Track [ CRC | V2 ] Status
01 [2f1251ab|975db35d] (2+0/2) Accurately ripped
02 [355bc55a|9e918ad0] (2+0/2) Accurately ripped
03 [c65527c6|38a34525] (2+0/2) Accurately ripped
04 [2a8ad195|03ed88c7] (2+0/2) Accurately ripped
05 [1629d205|7f586702] (2+0/2) Accurately ripped
06 [02a149bd|1f6f0120] (2+0/2) Accurately ripped
07 [87dba3a2|c4bcb376] (2+0/2) Accurately ripped
08 [20bad07b|183722c3] (2+0/2) Accurately ripped
09 [82fbcc7b|e7e09fd7] (2+0/2) Accurately ripped
10 [1a05989f|22400f74] (2+0/2) Accurately ripped

Track Peak [ CRC32 ] [W/O NULL] [ LOG ]
– 96,6 [0D08CEFB] [255E9C8A] CRC32
01 96,6 [3A8D586E] [0CC62E29]
02 96,6 [E7EB08DD] [36CE6741]
03 96,6 [1925B824] [452FBF89]
04 96,6 [12BC3E9C] [0ADCEFDE]
05 96,6 [D000A60D] [159C6AB3]
06 96,6 [59FE164A] [AE51F0FA]
07 96,6 [D0F9C3A8] [15BC3742]
08 96,6 [A7EE8F9A] [96DD53C7]
09 93,0 [3FC2F62C] [59E34C35]
10 96,6 [AADE2971] [313734B2]

Cherry Poppin' Daddies - White Teeth, Black Thoughts (2013) {Deluxe Edition} RE-UP

All thanks go to Boris1

>>> Cherry Poppin' Daddies in my Blog <<<

Download from icerbox.com: