Subcategories

Chet Atkins - A Tribute To Bluegrass (2002) **RE-UP**

Posted By: popsakov
Chet Atkins - A Tribute To Bluegrass (2002) **RE-UP**

Chet Atkins - A Tribute To Bluegrass (2002)
EAC Rip | FLAC (Img) + Cue + Log ~ 145 Mb | MP3 CBR320 ~ 62 Mb
Scans Included (JPG, 300 dpi) | RAR 5% Recovery
Country, Bluegrass | BMG Special Products #75517468982

One of the most influential guitarists of the 20th century, as well as a legendary musician and producer within country music. Without Chet Atkins, country music may never have crossed over into the pop charts in the '50s and '60s. Although he recorded hundreds of solo records, Atkins' largest influence came as a session musician and a record producer. During the '50s and '60s, he helped create the Nashville sound, a style of country music that owed nearly as much to pop as it did to honky tonks.

***************

Chet Atkins - A Tribute To Bluegrass (2002) **RE-UP**

Track List:

01. Walk Right In [2:12]
02. Rocky Top [2:41]
03. Wildwood Flower [2:13]
04. Sittin' on Top of the World [2:26]
05. Arkansaw Traveler [2:19]
06. Wabash Cannon Ball [2:46]
07. Freight Train [2:03]
08. Back Up and Push [2:12]
09. Copper Kettle [2:09]
10. Black Mountain Rag [2:23]

All tracks originally recorded prior to 1972.

EAC extraction logfile from 15. January 2008, 19:48 for CD
Chet Atkins / A Tribute to Bluegrass

Used drive : Optiarc DVD RW AD-7173A Adapter: 0 ID: 0
Read mode : Secure with C2, accurate stream, NO disable cache
Read offset correction : 48
Overread into Lead-In and Lead-Out : No

Used output format : D:\Programs\Monkey's Audio\MAC.exe (Monkey's Audio Lossless Encoder)
Normal Lossless Compression

Other options :
Fill up missing offset samples with silence : Yes
Delete leading and trailing silent blocks : No
Native Win32 interface for Win NT & 2000


Range status and errors
Selected range
Filename D:\Documents\Music\Chet Atkins\1972 - A Tribute To Bluegrass (ape)\Chet Atkins - A Tribute To Bluegrass.wav

Peak level 100.0 %
Range quality 99.9 %
CRC FDA1F493
Copy OK

No errors occured

End of status report

foobar2000 1.3.16 / Dynamic Range Meter 1.1.1
log date: 2017-12-09 01:32:18

––––––––––––––––––––––––––––––––––––––––
Analyzed: Chet Atkins / A Tribute to Bluegrass
––––––––––––––––––––––––––––––––––––––––

DR Peak RMS Duration Track
––––––––––––––––––––––––––––––––––––––––
DR8 -2.30 dB -12.85 dB 2:12 01-Walk Right In
DR10 -1.00 dB -12.21 dB 2:41 02-Rocky Top
DR9 -0.50 dB -11.34 dB 2:13 03-Wildwood Flower
DR11 0.00 dB -12.83 dB 2:26 04-Sittin' on Top of the World
DR9 -1.20 dB -11.97 dB 2:19 05-Arkansaw Traveler
DR10 -1.00 dB -12.79 dB 2:46 06-Wabash Cannon Ball
DR10 -1.00 dB -12.97 dB 2:03 07-Freight Train
DR10 0.00 dB -12.48 dB 2:12 08-Back Up and Push
DR10 -0.60 dB -11.91 dB 2:09 09-Copper Kettle
DR9 -1.00 dB -11.18 dB 2:23 10-Black Mountain Rag
––––––––––––––––––––––––––––––––––––––––

Number of tracks: 10
Official DR value: DR10

Samplerate: 44100 Hz
Channels: 2
Bits per sample: 16
Bitrate: 790 kbps
Codec: FLAC
================================================================================

[CUETools log; Date: 09.12.2017 1:31:52; Version: 2.1.5]
[CTDB TOCID: K7zhKcrUzWveE4u0AxfXZJXthw0-] found.
Track | CTDB Status
1 | (6/6) Accurately ripped
2 | (6/6) Accurately ripped
3 | (6/6) Accurately ripped
4 | (6/6) Accurately ripped
5 | (6/6) Accurately ripped
6 | (6/6) Accurately ripped
7 | (6/6) Accurately ripped
8 | (6/6) Accurately ripped
9 | (6/6) Accurately ripped
10 | (6/6) Accurately ripped
[AccurateRip ID: 0008f008-00475ed2-71057c0a] found.
Track [ CRC | V2 ] Status
01 [00fc76d5|d658720b] (3+2/5) Accurately ripped
02 [570756cc|93789aad] (3+2/5) Accurately ripped
03 [a2937b0a|67473b5b] (3+2/5) Accurately ripped
04 [f861adde|1cae6769] (3+2/5) Accurately ripped
05 [861014fa|928a9c40] (3+2/5) Accurately ripped
06 [7d6c4ab9|f315e8e5] (3+2/5) Accurately ripped
07 [75bc41da|da38085c] (3+2/5) Accurately ripped
08 [83083537|5666ec1a] (3+2/5) Accurately ripped
09 [88b9b385|b0c7520c] (3+2/5) Accurately ripped
10 [7ca1ca41|b0c3acc6] (3+2/5) Accurately ripped

Track Peak [ CRC32 ] [W/O NULL] [ LOG ]
– 99,9 [FF07EAE7] [FDA1F493] W/O NULL
01 76,7 [DE67BC8E] [4939F00E]
02 89,1 [0E480E7F] [7F7F45D6]
03 94,4 [FA913AAD] [2DD9082E]
04 99,9 [514E6C6F] [7E154CD0]
05 87,0 [51CD8EDE] [EB6EC686]
06 89,1 [A77BB607] [F936EFD7]
07 89,1 [464DE87E] [AB84BB56]
08 99,9 [F2B889F3] [2E299251]
09 93,3 [E522C544] [DD6BB9E6]
10 89,0 [C97C3521] [80427832]

Chet Atkins - A Tribute To Bluegrass (2002) **RE-UP**

All thanks go to the original ripper(s) …

>>> My Blog <<<

Download from icerbox.com: