Subcategories

Chicago - Studio Albums 1979-2008 (2015) [10CD Box Set]

Posted By: v3122
Chicago - Studio Albums 1979-2008 (2015) [10CD Box Set]

Chicago - Studio Albums 1979-2008 (2015)
EAC | Flac(Image) + Cue + Log & MP3 CBR 320Kbps
10CD | Rhino, 081227954130 | ~ 4033 or 1344 Mb | Scans(png) -> 340 Mb
Jazz Rock / Pop Rock / Soft Rock | Box Art(png) -> 84 Mb

A belated sequel to Rhino's 2012 box set The Studio Albums 1969-1978, 2015's The Studio Albums: 1979-2008 rounds up the expanded remasters of Chicago's next ten studio albums, beginning with 1979's Chicago 13 and ending with 2008's Chicago XXXII: Stone of Sisyphus (which was actually recorded in 1994 but shelved for 14 years). Some of the group's biggest hits are here – Chicago 16, Chicago 17, Chicago 18, Chicago 19 – but so are some of their odder albums, like 1995's Night & Day: Big Band and, generally, some fans of the band's earliest music may find this a shade too slick. Nevertheless, for the hardcore, this is a handsome way to get the remasters, and for more casual fans, it's a convenient and relatively affordable way to get Chicago's best albums in one place.

by Stephen Thomas Erlewine, AMG
Chicago - Studio Albums 1979-2008 (2015) [10CD Box Set]


Chicago - Studio Albums 1979-2008 (2015):

Chicago - Studio Albums 1979-2008 (2015) [10CD Box Set]

Tracklist CD1 - 1979 - Chicago 13 (01:00:46):

01. Street Player 09:11
02. Mama Take 04:14
03. Must Have Been Crazy 03:26
04. Window Dreamin' 04:11
05. Paradise Alley 03:41
06. Aloha Mama 04:11
07. Reruns 04:29
08. Loser With A Broken Heart 04:42
09. Life Is What It Is 04:36
10. Run Away 04:23

Bonus Selection:
11. Closer To You 04:54
12. Street Player (Alternate Mix) 08:44

Exact Audio Copy V1.1 from 23. June 2015

EAC extraction logfile from 15. August 2015, 19:36

Chicago / Chicago 13

Used drive : PLEXTOR BD-R PX-B950SA Adapter: 1 ID: 1

Read mode : Secure
Utilize accurate stream : Yes
Defeat audio cache : Yes
Make use of C2 pointers : No

Read offset correction : 6
Overread into Lead-In and Lead-Out : No
Fill up missing offset samples with silence : Yes
Delete leading and trailing silent blocks : No
Null samples used in CRC calculations : Yes
Used interface : Native Win32 interface for Win NT & 2000

Used output format : Internal WAV Routines
Sample format : 44.100 Hz; 16 Bit; Stereo


TOC of the extracted CD

Track | Start | Length | Start sector | End sector
––––––––––––––––––––––––––––-
1 | 0:00.00 | 9:11.05 | 0 | 41329
2 | 9:11.05 | 4:14.18 | 41330 | 60397
3 | 13:25.23 | 3:26.17 | 60398 | 75864
4 | 16:51.40 | 4:11.10 | 75865 | 94699
5 | 21:02.50 | 3:41.00 | 94700 | 111274
6 | 24:43.50 | 4:11.20 | 111275 | 130119
7 | 28:54.70 | 4:29.15 | 130120 | 150309
8 | 33:24.10 | 4:42.60 | 150310 | 171519
9 | 38:06.70 | 4:36.68 | 171520 | 192287
10 | 42:43.63 | 4:23.17 | 192288 | 212029
11 | 47:07.05 | 4:54.18 | 212030 | 234097
12 | 52:01.23 | 8:44.47 | 234098 | 273444


Range status and errors

Selected range

Filename C:\Users\Meijin\Desktop\ALLexxess\Chicago\2015 Studio Albums 1979-2008 (10CD Box Set Rhino Records)\1979 Chicago 13\Chicago - Chicago 13.wav

Peak level 99.4 %
Extraction speed 7.9 X
Range quality 100.0 %
Test CRC 1BD354BC
Copy CRC 1BD354BC
Copy OK

No errors occurred


AccurateRip summary

Track 1 cannot be verified as accurate (confidence 12) [96C414AA], AccurateRip returned [1AB12DB7] (AR v2)
Track 2 cannot be verified as accurate (confidence 12) [79292D3A], AccurateRip returned [B76D5260] (AR v2)
Track 3 cannot be verified as accurate (confidence 12) [AB733767], AccurateRip returned [2A6FE494] (AR v2)
Track 4 cannot be verified as accurate (confidence 12) [91923D93], AccurateRip returned [4B05A25A] (AR v2)
Track 5 cannot be verified as accurate (confidence 12) [8575E6B7], AccurateRip returned [4FBA6AD9] (AR v2)
Track 6 cannot be verified as accurate (confidence 12) [D643B996], AccurateRip returned [FD7F0D67] (AR v2)
Track 7 cannot be verified as accurate (confidence 12) [6DDAFFED], AccurateRip returned [8B2EEFC9] (AR v2)
Track 8 cannot be verified as accurate (confidence 12) [59C22D68], AccurateRip returned [B69808A0] (AR v2)
Track 9 cannot be verified as accurate (confidence 12) [4990B510], AccurateRip returned [C7D37DD0] (AR v2)
Track 10 cannot be verified as accurate (confidence 12) [FF644E1D], AccurateRip returned [7E821B4C] (AR v2)
Track 11 cannot be verified as accurate (confidence 12) [091AE1A2], AccurateRip returned [72AF5187] (AR v2)
Track 12 cannot be verified as accurate (confidence 11) [5DA66E86], AccurateRip returned [D078D658] (AR v2)

No tracks could be verified as accurate
You may have a different pressing from the one(s) in the database

End of status report

–– CUETools DB Plugin V2.1.6

[CTDB TOCID: 7mVdGkSGWLALtDwLBBVhPwpuEW8-] found
Submit result: 7mVdGkSGWLALtDwLBBVhPwpuEW8- has been confirmed
Track | CTDB Status
1 | (12/12) Accurately ripped
2 | (12/12) Accurately ripped
3 | (12/12) Accurately ripped
4 | (12/12) Accurately ripped
5 | (12/12) Accurately ripped
6 | (12/12) Accurately ripped
7 | (12/12) Accurately ripped
8 | (12/12) Accurately ripped
9 | (12/12) Accurately ripped
10 | (12/12) Accurately ripped
11 | (12/12) Accurately ripped
12 | (12/12) Accurately ripped


==== Log checksum 3E958771CD897EE47997C6AE00CADC6B261CAD40E677BB033091CC207CB029F8 ====


foobar2000 1.2.9 / Dynamic Range Meter 1.1.1
log date: 2015-08-25 17:30:45

––––––––––––––––––––––––––––––––––––––––
Analyzed: Chicago / Chicago 13
––––––––––––––––––––––––––––––––––––––––

DR Peak RMS Duration Track
––––––––––––––––––––––––––––––––––––––––
DR9 -0.05 dB -10.52 dB 9:11 01-Street Player
DR9 -0.10 dB -11.31 dB 4:14 02-Mama Take
DR8 -0.10 dB -9.88 dB 3:26 03-Must Have Been Crazy
DR9 -0.10 dB -11.27 dB 4:11 04-Window Dreamin'
DR10 -0.10 dB -12.49 dB 3:41 05-Paradise Alley
DR9 -0.10 dB -11.27 dB 4:11 06-Aloha Mama
DR9 -0.10 dB -10.65 dB 4:29 07-Reruns
DR8 -0.10 dB -10.49 dB 4:43 08-Loser With A Broken Heart
DR9 -0.10 dB -10.94 dB 4:37 09-Life Is What It Is
DR8 -0.10 dB -10.57 dB 4:23 10-Run Away
DR9 -0.10 dB -10.66 dB 4:54 11-Closer To You / Bonus
DR9 -0.10 dB -10.39 dB 8:45 12-Street Player (Alternate Mix) / Bonus
––––––––––––––––––––––––––––––––––––––––

Number of tracks: 12
Official DR value: DR9

Samplerate: 44100 Hz
Channels: 2
Bits per sample: 16
Bitrate: 976 kbps
Codec: FLAC

[CUETools log; Date: 22.08.2015 17:08:07; Version: 2.1.4]
[CTDB TOCID: 7mVdGkSGWLALtDwLBBVhPwpuEW8-] found.
Track | CTDB Status
1 | (13/13) Accurately ripped
2 | (13/13) Accurately ripped
3 | (13/13) Accurately ripped
4 | (13/13) Accurately ripped
5 | (13/13) Accurately ripped
6 | (13/13) Accurately ripped
7 | (13/13) Accurately ripped
8 | (13/13) Accurately ripped
9 | (13/13) Accurately ripped
10 | (13/13) Accurately ripped
11 | (13/13) Accurately ripped
12 | (13/13) Accurately ripped
[AccurateRip ID: 001aa9b3-00f3e7fc-9f0e3d0c] found.
Track [ CRC | V2 ] Status
01 [59a30148|96c414aa] (00+00/32) No match
02 [c0f37b5e|79292d3a] (00+00/33) No match
03 [ffe1fe12|ab733767] (00+00/33) No match
04 [6d36a2b5|91923d93] (00+00/33) No match
05 [7ad1b9e3|8575e6b7] (00+00/33) No match
06 [bdb453b9|d643b996] (00+00/33) No match
07 [6ad0d6fb|6ddaffed] (00+00/33) No match
08 [9dc74145|59c22d68] (00+00/33) No match
09 [ffdd3975|4990b510] (00+00/33) No match
10 [0452231a|ff644e1d] (00+00/33) No match
11 [3c8ed913|091ae1a2] (00+00/31) No match
12 [86b2ec27|5da66e86] (00+00/31) No match
Offsetted by -6:
01 [d93cbeda] (06/32) Accurately ripped
02 [fd365798] (06/33) Accurately ripped
03 [7d3c3576] (06/33) Accurately ripped
04 [274e52be] (06/33) Accurately ripped
05 [43500376] (06/33) Accurately ripped
06 [e43c9f74] (06/33) Accurately ripped
07 [86ba7ffd] (06/33) Accurately ripped
08 [f91b3600] (06/33) Accurately ripped
09 [7f8853f2] (06/33) Accurately ripped
10 [81628e43] (06/33) Accurately ripped
11 [a3ddc56f] (06/31) Accurately ripped
12 [f563ce80] (07/31) Accurately ripped
Offsetted by 658:
01 [ecff86ca] (07/32) Accurately ripped
02 [88f545e8] (08/33) Accurately ripped
03 [f79198e6] (08/33) Accurately ripped
04 [9c5c6c3b] (08/33) Accurately ripped
05 [52c89d11] (08/33) Accurately ripped
06 [bf73af3e] (08/33) Accurately ripped
07 [f63d4283] (08/33) Accurately ripped
08 [c6b2138b] (08/33) Accurately ripped
09 [512e5adc] (08/33) Accurately ripped
10 [f8c41682] (08/33) Accurately ripped
11 [506a42ff] (08/31) Accurately ripped
12 [7e1ad719] (08/31) Accurately ripped

Track Peak [ CRC32 ] [W/O NULL] [ LOG ]
– 99,4 [1BD354BC] [A3865D50] CRC32
01 99,4 [7E089AC2] [A3C13B1E]
02 98,8 [43157741] [ADD81108]
03 98,8 [FB7AFA5F] [FC85B839]
04 98,8 [BB0B3DC1] [5B48865D]
05 98,8 [08E38C21] [736A3939]
06 98,8 [C900C791] [F71FDB57]
07 98,8 [C19FBB40] [AD2C18F8]
08 98,8 [442861A1] [94877C08]
09 98,8 [104D0532] [859C4BD8]
10 98,8 [C5C3348C] [7FDC8CD5]
11 98,8 [81125024] [3AC48BCC]
12 98,8 [4F4D1BEE] [9872A31D]

Chicago - Studio Albums 1979-2008 (2015) [10CD Box Set]

Tracklist CD2 - 1980 - Chicago XIV (00:49:48):

01. Manipulation 03:46
02. Upon Arrival 03:49
03. Song For You 03:43
04. Where Did The Lovin' Go 04:07
05. Birthday Boy 04;55
06. Hold On 04:14
07. Overnight Cafe 04:21
08. Thunder And Lighting 03:33
09. I'd Rather Be Rich 03:08
10. The American Dream 03:23

Bonus Selection:
11. Doin' Business 03:31
12. Live It Up 03:23
13. Soldier Of Fortune 03:50

Exact Audio Copy V1.1 from 23. June 2015

EAC extraction logfile from 15. August 2015, 19:04

Chicago / Chicago XIV

Used drive : PLEXTOR BD-R PX-B950SA Adapter: 1 ID: 1

Read mode : Secure
Utilize accurate stream : Yes
Defeat audio cache : Yes
Make use of C2 pointers : No

Read offset correction : 6
Overread into Lead-In and Lead-Out : No
Fill up missing offset samples with silence : Yes
Delete leading and trailing silent blocks : No
Null samples used in CRC calculations : Yes
Used interface : Native Win32 interface for Win NT & 2000

Used output format : Internal WAV Routines
Sample format : 44.100 Hz; 16 Bit; Stereo


TOC of the extracted CD

Track | Start | Length | Start sector | End sector
––––––––––––––––––––––––––––-
1 | 0:00.00 | 3:46.25 | 0 | 16974
2 | 3:46.25 | 3:49.60 | 16975 | 34209
3 | 7:36.10 | 3:43.30 | 34210 | 50964
4 | 11:19.40 | 4:07.00 | 50965 | 69489
5 | 15:26.40 | 4:55.25 | 69490 | 91639
6 | 20:21.65 | 4:14.72 | 91640 | 110761
7 | 24:36.62 | 4:21.00 | 110762 | 130336
8 | 28:57.62 | 3:33.68 | 130337 | 146379
9 | 32:31.55 | 3:08.00 | 146380 | 160479
10 | 35:39.55 | 3:23.20 | 160480 | 175724
11 | 39:03.00 | 3:31.45 | 175725 | 191594
12 | 42:34.45 | 3:23.30 | 191595 | 206849
13 | 45:58.00 | 3:50.45 | 206850 | 224144


Range status and errors

Selected range

Filename C:\Users\Meijin\Desktop\ALLexxess\Chicago\2015 Studio Albums 1979-2008 (10CD Box Set Rhino Records)\1980 Chicago XIV\Chicago - Chicago XIV.wav

Peak level 98.8 %
Extraction speed 7.0 X
Range quality 100.0 %
Test CRC 6E763E10
Copy CRC 6E763E10
Copy OK

No errors occurred


AccurateRip summary

Track 1 cannot be verified as accurate (confidence 17) [3C3DDA82], AccurateRip returned [693C81F7] (AR v2)
Track 2 cannot be verified as accurate (confidence 17) [8CB92C1B], AccurateRip returned [79A24472] (AR v2)
Track 3 cannot be verified as accurate (confidence 17) [14ED768B], AccurateRip returned [3ACECD20] (AR v2)
Track 4 cannot be verified as accurate (confidence 17) [07B74D2F], AccurateRip returned [7C739127] (AR v2)
Track 5 cannot be verified as accurate (confidence 17) [EBD987EC], AccurateRip returned [BE41498C] (AR v2)
Track 6 cannot be verified as accurate (confidence 17) [DB7903FB], AccurateRip returned [64C2D02A] (AR v2)
Track 7 cannot be verified as accurate (confidence 17) [349F26CF], AccurateRip returned [3A6E7E71] (AR v2)
Track 8 cannot be verified as accurate (confidence 17) [65E0E380], AccurateRip returned [E609E24F] (AR v2)
Track 9 cannot be verified as accurate (confidence 17) [90BA9402], AccurateRip returned [D3162B1B] (AR v2)
Track 10 cannot be verified as accurate (confidence 17) [A61F9A04], AccurateRip returned [1F50385A] (AR v2)
Track 11 cannot be verified as accurate (confidence 17) [996B9AD5], AccurateRip returned [67DA58F0] (AR v2)
Track 12 cannot be verified as accurate (confidence 17) [45E64CBF], AccurateRip returned [A317DA9A] (AR v2)
Track 13 cannot be verified as accurate (confidence 17) [F237B268], AccurateRip returned [20ED590B] (AR v2)

No tracks could be verified as accurate
You may have a different pressing from the one(s) in the database

End of status report

–– CUETools DB Plugin V2.1.6

[CTDB TOCID: LH.Jp72u2LkD0WJ.qxooEYlgYX4-] found
Submit result: LH.Jp72u2LkD0WJ.qxooEYlgYX4- has been confirmed
Track | CTDB Status
1 | (11/14) Accurately ripped
2 | (11/14) Accurately ripped
3 | (11/14) Accurately ripped
4 | (12/14) Accurately ripped
5 | (12/14) Accurately ripped
6 | (12/14) Accurately ripped
7 | (12/14) Accurately ripped
8 | (12/14) Accurately ripped
9 | (12/14) Accurately ripped
10 | (12/14) Accurately ripped
11 | (12/14) Accurately ripped
12 | (12/14) Accurately ripped
13 | (11/14) Accurately ripped


==== Log checksum FC7B79551813E496FADA310393C0222B5033FA20126A5337E9A4A3778D5D3AF9 ====

foobar2000 1.2.9 / Dynamic Range Meter 1.1.1
log date: 2015-08-25 17:31:01

––––––––––––––––––––––––––––––––––––––––
Analyzed: Chicago / Chicago XIV
––––––––––––––––––––––––––––––––––––––––

DR Peak RMS Duration Track
––––––––––––––––––––––––––––––––––––––––
DR8 -0.10 dB -9.17 dB 3:46 01-Manipulation
DR9 -0.10 dB -10.55 dB 3:50 02-Upon Arrival
DR10 -0.10 dB -13.60 dB 3:43 03-Song For You
DR8 -0.10 dB -10.81 dB 4:07 04-Where Did The Lovin' Go
DR8 -0.10 dB -11.30 dB 4:55 05-Birthday Boy
DR9 -0.10 dB -10.20 dB 4:15 06-Hold On
DR9 -0.10 dB -11.86 dB 4:21 07-Overnight Cafe
DR9 -0.10 dB -10.48 dB 3:34 08-Thunder And Lightning
DR8 -0.10 dB -10.12 dB 3:08 09-I'd Rather Be Rich
DR9 -0.10 dB -10.85 dB 3:23 10-The American Dream
DR8 -0.10 dB -9.08 dB 3:32 11-Doin' Business / Bonus
DR12 -0.10 dB -13.28 dB 3:23 12-Live It Up / Bonus
DR9 -0.10 dB -11.69 dB 3:51 13-Soldier Of Fortune / Bonus
––––––––––––––––––––––––––––––––––––––––

Number of tracks: 13
Official DR value: DR9

Samplerate: 44100 Hz
Channels: 2
Bits per sample: 16
Bitrate: 903 kbps
Codec: FLAC

[CUETools log; Date: 22.08.2015 17:10:55; Version: 2.1.4]
[CTDB TOCID: LH.Jp72u2LkD0WJ.qxooEYlgYX4-] found.
Track | CTDB Status
1 | (12/15) Accurately ripped
2 | (12/15) Accurately ripped
3 | (12/15) Accurately ripped
4 | (13/15) Accurately ripped
5 | (13/15) Accurately ripped
6 | (13/15) Accurately ripped
7 | (13/15) Accurately ripped
8 | (13/15) Accurately ripped
9 | (13/15) Accurately ripped
10 | (13/15) Accurately ripped
11 | (13/15) Accurately ripped
12 | (13/15) Accurately ripped
13 | (12/15) Accurately ripped
[AccurateRip ID: 00188f52-00f4b538-ba0bac0d] found.
Track [ CRC | V2 ] Status
01 [a5a99809|3c3dda82] (00+00/49) No match
02 [205b0010|8cb92c1b] (00+00/50) No match
03 [5f257a0c|14ed768b] (00+00/50) No match
04 [c2b70a59|07b74d2f] (00+00/50) No match
05 [550c8bc8|ebd987ec] (00+00/50) No match
06 [afef4cad|db7903fb] (00+00/49) No match
07 [a6ab1d96|349f26cf] (00+00/49) No match
08 [35a62c05|65e0e380] (00+00/48) No match
09 [b323c7af|90ba9402] (00+00/48) No match
10 [a15f0746|a61f9a04] (00+00/48) No match
11 [7a22b8a2|996b9ad5] (00+00/48) No match
12 [69465c8c|45e64cbf] (00+00/48) No match
13 [06c4e72b|f237b268] (00+00/47) No match
Offsetted by -6:
01 [165868bf] (08/49) Accurately ripped
02 [9a83006a] (08/50) Accurately ripped
03 [3bb777d0] (08/50) Accurately ripped
04 [6bdc6c6f] (08/50) Accurately ripped
05 [cadbad7c] (08/50) Accurately ripped
06 [7ea60457] (08/49) Accurately ripped
07 [2e0ac39c] (08/49) Accurately ripped
08 [514d14a7] (08/48) Accurately ripped
09 [6ea4866b] (08/48) Accurately ripped
10 [12fbeb0a] (08/48) Accurately ripped
11 [b12cee38] (08/48) Accurately ripped
12 [bbacc8e2] (08/48) Accurately ripped
13 [7868b98b] (08/47) Accurately ripped
Offsetted by 2094:
01 [07570feb] (00/49) No match
02 [97d2855e] (02/50) Accurately ripped
03 [ac1e85d8] (02/50) Accurately ripped
04 [2ac0525b] (02/50) Accurately ripped
05 [b9ab9964] (02/50) Accurately ripped
06 [67871e6b] (00/49) No match
07 [cc00a878] (00/49) No match
08 [831b072b] (00/48) No match
09 [149fc163] (00/48) No match
10 [be7c8512] (00/48) No match
11 [7137ab24] (00/48) No match
12 [13a4ab4e] (00/48) No match
13 [1a6f1a4b] (00/47) No match

Track Peak [ CRC32 ] [W/O NULL] [ LOG ]
– 98,8 [6E763E10] [FEADDBFB] CRC32
01 98,8 [26132E07] [4805BD25]
02 98,8 [A6270043] [1F713B55]
03 98,8 [306C15E2] [DDDCD542]
04 98,8 [F2DF73D9] [B9B38347]
05 98,8 [A2A83801] [1E7B3B8B]
06 98,8 [CD0BC400] [DFABA83D]
07 98,8 [09031020] [C1F30B64]
08 98,8 [F344D279] [58BDB967]
09 98,8 [8571E244] [312E599D]
10 98,8 [23EC606C] [937F2E6F]
11 98,8 [0AF226AE] [EFDB32D3]
12 98,8 [2ACA0906] [80385C51]
13 98,8 [7997D1C3] [129FD6CB]

Chicago - Studio Albums 1979-2008 (2015) [10CD Box Set]

Tracklist CD3 - 1982 - Chicago 16 (00:57:45):

01. What You're Missing 04:10
02. Waiting For You To Decide 04:07
03. Bad Advice 02:58
04. Chains 03:24
05. Hard To Say I'm Sorry / Get Away 05:04
06. Follow Me 04:54
07. Sonny Think Twice 04:01
08. What Can I Say 03:48
09. Rescue You 03:58
10. Love Me Tomorrow 05:09

Bonus Selection:
11. Daddy's Favorite Fool 03:54
12. Hard To Say I'm Sorry 03:41
13. What You're Missing (Alternate Version) 03:31
14. Love Me Tomorrow (Alternate Version) 04:59

Exact Audio Copy V1.1 from 23. June 2015

EAC extraction logfile from 15. August 2015, 18:37

Chicago / Chicago 16

Used drive : PLEXTOR BD-R PX-B950SA Adapter: 1 ID: 1

Read mode : Secure
Utilize accurate stream : Yes
Defeat audio cache : Yes
Make use of C2 pointers : No

Read offset correction : 6
Overread into Lead-In and Lead-Out : No
Fill up missing offset samples with silence : Yes
Delete leading and trailing silent blocks : No
Null samples used in CRC calculations : Yes
Used interface : Native Win32 interface for Win NT & 2000

Used output format : Internal WAV Routines
Sample format : 44.100 Hz; 16 Bit; Stereo


TOC of the extracted CD

Track | Start | Length | Start sector | End sector
––––––––––––––––––––––––––––-
1 | 0:00.00 | 4:10.38 | 0 | 18787
2 | 4:10.38 | 4:07.61 | 18788 | 37373
3 | 8:18.24 | 2:58.39 | 37374 | 50762
4 | 11:16.63 | 3:24.20 | 50763 | 66082
5 | 14:41.08 | 5:04.61 | 66083 | 88943
6 | 19:45.69 | 4:54.14 | 88944 | 111007
7 | 24:40.08 | 4:01.45 | 111008 | 129127
8 | 28:41.53 | 3:48.56 | 129128 | 146283
9 | 32:30.34 | 3:58.20 | 146284 | 164153
10 | 36:28.54 | 5:09.40 | 164154 | 187368
11 | 41:38.19 | 3:54.41 | 187369 | 204959
12 | 45:32.60 | 3:41.62 | 204960 | 221596
13 | 49:14.47 | 3:31.26 | 221597 | 237447
14 | 52:45.73 | 4:59.59 | 237448 | 259931


Range status and errors

Selected range

Filename C:\Users\Meijin\Desktop\ALLexxess\Chicago\2015 Studio Albums 1979-2008 (10CD Box Set Rhino Records)\1982 Chicago 16\Chicago - Chicago 16.wav

Peak level 100.0 %
Extraction speed 7.4 X
Range quality 99.9 %
Test CRC E742A03D
Copy CRC E742A03D
Copy OK

No errors occurred


AccurateRip summary

Track 1 accurately ripped (confidence 3) [61D6A0E3] (AR v2)
Track 2 accurately ripped (confidence 3) [BE494C21] (AR v2)
Track 3 accurately ripped (confidence 3) [F5C861F4] (AR v2)
Track 4 accurately ripped (confidence 3) [D818A977] (AR v2)
Track 5 accurately ripped (confidence 3) [9C17EA62] (AR v2)
Track 6 accurately ripped (confidence 3) [FF5B0C99] (AR v2)
Track 7 accurately ripped (confidence 3) [C35EC050] (AR v2)
Track 8 accurately ripped (confidence 3) [D388B6AD] (AR v2)
Track 9 accurately ripped (confidence 3) [051B5605] (AR v2)
Track 10 accurately ripped (confidence 3) [EDFEFA37] (AR v2)
Track 11 accurately ripped (confidence 3) [4F37B111] (AR v2)
Track 12 accurately ripped (confidence 3) [C1C1E095] (AR v2)
Track 13 accurately ripped (confidence 3) [0E1FBB6F] (AR v2)
Track 14 accurately ripped (confidence 3) [F884015F] (AR v2)

All tracks accurately ripped

End of status report

–– CUETools DB Plugin V2.1.6

[CTDB TOCID: 1EAebBmBURzSoJrdYUT5MpRaJx4-] found
Submit result: 1EAebBmBURzSoJrdYUT5MpRaJx4- has been confirmed
Track | CTDB Status
1 | (1/1) Accurately ripped
2 | (1/1) Accurately ripped
3 | (1/1) Accurately ripped
4 | (1/1) Accurately ripped
5 | (1/1) Accurately ripped
6 | (1/1) Accurately ripped
7 | (1/1) Accurately ripped
8 | (1/1) Accurately ripped
9 | (1/1) Accurately ripped
10 | (1/1) Accurately ripped
11 | (1/1) Accurately ripped
12 | (1/1) Accurately ripped
13 | (1/1) Accurately ripped
14 | (1/1) Accurately ripped


==== Log checksum BA294AD51C7B62789307102AFE00F111866F5579767A904A7C35D5C2FC0FA315 ====

foobar2000 1.2.9 / Dynamic Range Meter 1.1.1
log date: 2015-08-25 17:30:26

––––––––––––––––––––––––––––––––––––––––
Analyzed: Chicago / Chicago 16
––––––––––––––––––––––––––––––––––––––––

DR Peak RMS Duration Track
––––––––––––––––––––––––––––––––––––––––
DR9 0.00 dB -10.10 dB 4:11 01-What You're Missing
DR9 0.00 dB -10.29 dB 4:08 02-Waiting For You To Decide
DR9 0.00 dB -10.37 dB 2:59 03-Bad Advice
DR8 0.00 dB -10.08 dB 3:24 04-Chains
DR8 0.00 dB -11.15 dB 5:05 05-Hard To Say I'm Sorry / Get Away
DR8 0.00 dB -10.42 dB 4:54 06-Follow Me
DR10 0.00 dB -11.79 dB 4:02 07-Sonny Think Twice
DR10 0.00 dB -12.08 dB 3:49 08-What Can I Say
DR10 0.00 dB -10.77 dB 3:58 09-Rescue You
DR9 0.00 dB -11.53 dB 5:10 10-Love Me Tomorrow
DR7 -0.10 dB -8.01 dB 3:55 11-Daddy's Favorite Fool / Bonus
DR8 0.00 dB -12.12 dB 3:42 12-Hard To Say I'm Sorry / Bonus
DR9 0.00 dB -10.23 dB 3:31 13-What You're Missing (Alternate Version) / Bonus
DR10 0.00 dB -11.92 dB 5:00 14-Love Me Tomorrow (Alternate Version) / Bonus
––––––––––––––––––––––––––––––––––––––––

Number of tracks: 14
Official DR value: DR9

Samplerate: 44100 Hz
Channels: 2
Bits per sample: 16
Bitrate: 955 kbps
Codec: FLAC

[CUETools log; Date: 22.08.2015 17:13:21; Version: 2.1.4]
[CTDB TOCID: 1EAebBmBURzSoJrdYUT5MpRaJx4-] found.
Track | CTDB Status
1 | (2/2) Accurately ripped
2 | (2/2) Accurately ripped
3 | (2/2) Accurately ripped
4 | (2/2) Accurately ripped
5 | (2/2) Accurately ripped
6 | (2/2) Accurately ripped
7 | (2/2) Accurately ripped
8 | (2/2) Accurately ripped
9 | (2/2) Accurately ripped
10 | (2/2) Accurately ripped
11 | (2/2) Accurately ripped
12 | (2/2) Accurately ripped
13 | (2/2) Accurately ripped
14 | (2/2) Accurately ripped
[AccurateRip ID: 001d5af8-013a7a3e-c00d890e] found.
Track [ CRC | V2 ] Status
01 [933d07b4|61d6a0e3] (2+3/5) Accurately ripped
02 [b9ff05a9|be494c21] (2+3/5) Accurately ripped
03 [4b609ca5|f5c861f4] (2+3/5) Accurately ripped
04 [a9c46897|d818a977] (2+3/5) Accurately ripped
05 [71761c29|9c17ea62] (2+3/5) Accurately ripped
06 [ac5ca445|ff5b0c99] (2+3/5) Accurately ripped
07 [b10a9fcc|c35ec050] (2+3/5) Accurately ripped
08 [375b3ffe|d388b6ad] (2+3/5) Accurately ripped
09 [4926041e|051b5605] (2+3/5) Accurately ripped
10 [f0df989c|edfefa37] (2+3/5) Accurately ripped
11 [a3d41042|4f37b111] (2+3/5) Accurately ripped
12 [1b38c26b|c1c1e095] (2+3/5) Accurately ripped
13 [57c9cf17|0e1fbb6f] (2+3/5) Accurately ripped
14 [9b601e5a|f884015f] (2+3/5) Accurately ripped

Track Peak [ CRC32 ] [W/O NULL] [ LOG ]
– 100,0 [E742A03D] [6719077D] CRC32
01 100,0 [B6143C37] [607294AB]
02 100,0 [6FE330DB] [EE86AD04]
03 100,0 [AA83E7E5] [B016A1DE]
04 100,0 [F2903962] [0DD00931]
05 100,0 [A29D06D0] [C0AA9CD4]
06 100,0 [6328644F] [940481AB]
07 100,0 [5566B1CF] [4D16B4B1]
08 100,0 [EA3F3E65] [71D4FFD7]
09 100,0 [3EDAC02E] [95C2AD12]
10 100,0 [6B6E4BF4] [01E6AA2C]
11 98,8 [6CAB5530] [A55A63E0]
12 100,0 [0CFEFA14] [7F530894]
13 100,0 [3210317E] [E9995C6E]
14 100,0 [E5C795F7] [4795B098]

Chicago - Studio Albums 1979-2008 (2015) [10CD Box Set]

Tracklist CD4 - 1984 - Chicago 17 (00:57:43):

01. Stay The Night 03:50
02. We Can Stop The Hurtin' 04:12
03. Hard Habit To Break 04:45
04. Only You 03:55
05. Remember The Feeling 04:29
06. Along Comes A Woman 04:18
07. You're The Inspiration 03:49
08. Please Hold On 03:37
09. Prima Donna 04:12
10. Once In A Lifetime 04:16

Bonus Selection:
11. Here Is Where We Begin 03:58
12. Only You (Alternate Version) 03:50
13. You're The Inspiration (Alternate Version) 03:52
14. Prima Donna (Alternate Version) 04:33

Exact Audio Copy V1.1 from 23. June 2015

EAC extraction logfile from 15. August 2015, 18:07

Chicago / Chicago 17

Used drive : PLEXTOR BD-R PX-B950SA Adapter: 1 ID: 1

Read mode : Secure
Utilize accurate stream : Yes
Defeat audio cache : Yes
Make use of C2 pointers : No

Read offset correction : 6
Overread into Lead-In and Lead-Out : No
Fill up missing offset samples with silence : Yes
Delete leading and trailing silent blocks : No
Null samples used in CRC calculations : Yes
Used interface : Native Win32 interface for Win NT & 2000

Used output format : Internal WAV Routines
Sample format : 44.100 Hz; 16 Bit; Stereo


TOC of the extracted CD

Track | Start | Length | Start sector | End sector
––––––––––––––––––––––––––––-
1 | 0:00.00 | 3:50.10 | 0 | 17259
2 | 3:50.10 | 4:12.59 | 17260 | 36218
3 | 8:02.69 | 4:45.21 | 36219 | 57614
4 | 12:48.15 | 3:55.49 | 57615 | 75288
5 | 16:43.64 | 4:29.26 | 75289 | 95489
6 | 21:13.15 | 4:18.49 | 95490 | 114888
7 | 25:31.64 | 3:49.32 | 114889 | 132095
8 | 29:21.21 | 3:37.71 | 132096 | 148441
9 | 32:59.17 | 4:12.46 | 148442 | 167387
10 | 37:11.63 | 4:16.02 | 167388 | 186589
11 | 41:27.65 | 3:58.05 | 186590 | 204444
12 | 45:25.70 | 3:50.74 | 204445 | 221768
13 | 49:16.69 | 3:52.51 | 221769 | 239219
14 | 53:09.45 | 4:33.39 | 239220 | 259733


Range status and errors

Selected range

Filename C:\Users\Meijin\Desktop\ALLexxess\Chicago\2015 Studio Albums 1979-2008 (10CD Box Set Rhino Records)\1984 Chicago 17\Chicago - Chicago 17.wav

Peak level 100.0 %
Extraction speed 7.4 X
Range quality 99.9 %
Test CRC 668F03F2
Copy CRC 668F03F2
Copy OK

No errors occurred


AccurateRip summary

Track 1 accurately ripped (confidence 4) [C80DE00B] (AR v2)
Track 2 accurately ripped (confidence 4) [EAB9C259] (AR v2)
Track 3 accurately ripped (confidence 4) [C9F85282] (AR v2)
Track 4 accurately ripped (confidence 4) [CFC28257] (AR v2)
Track 5 accurately ripped (confidence 4) [9BC96355] (AR v2)
Track 6 accurately ripped (confidence 4) [CF2ACA15] (AR v2)
Track 7 accurately ripped (confidence 4) [957BE009] (AR v2)
Track 8 accurately ripped (confidence 4) [DB9BF31D] (AR v2)
Track 9 accurately ripped (confidence 4) [1DEC4CD9] (AR v2)
Track 10 accurately ripped (confidence 4) [7496D744] (AR v2)
Track 11 accurately ripped (confidence 4) [46B3D17D] (AR v2)
Track 12 accurately ripped (confidence 4) [CFB2C509] (AR v2)
Track 13 accurately ripped (confidence 4) [74B042FD] (AR v2)
Track 14 accurately ripped (confidence 4) [E8865846] (AR v2)

All tracks accurately ripped

End of status report

–– CUETools DB Plugin V2.1.6

[CTDB TOCID: qEpGX41.1C89dX1WHvMgVYi5_O4-] found
Submit result: qEpGX41.1C89dX1WHvMgVYi5_O4- has been confirmed
Track | CTDB Status
1 | (3/3) Accurately ripped
2 | (3/3) Accurately ripped
3 | (3/3) Accurately ripped
4 | (3/3) Accurately ripped
5 | (3/3) Accurately ripped
6 | (3/3) Accurately ripped
7 | (3/3) Accurately ripped
8 | (3/3) Accurately ripped
9 | (3/3) Accurately ripped
10 | (3/3) Accurately ripped
11 | (3/3) Accurately ripped
12 | (3/3) Accurately ripped
13 | (3/3) Accurately ripped
14 | (3/3) Accurately ripped


==== Log checksum 6E646F320CD3BE99589CF51608F36CFF5B32BB95B4D67E27B0C4C6536B4F4259 ====

foobar2000 1.2.9 / Dynamic Range Meter 1.1.1
log date: 2015-08-25 17:31:20

––––––––––––––––––––––––––––––––––––––––
Analyzed: Chicago / Chicago 17
––––––––––––––––––––––––––––––––––––––––

DR Peak RMS Duration Track
––––––––––––––––––––––––––––––––––––––––
DR8 0.00 dB -9.53 dB 3:50 01-Stay The Night
DR7 0.00 dB -8.59 dB 4:13 02-We Can Stop The Hurtin'
DR7 0.00 dB -9.58 dB 4:45 03-Hard Habit To Break
DR8 0.00 dB -9.24 dB 3:56 04-Only You
DR7 0.00 dB -9.55 dB 4:29 05-Remember The Feeling
DR7 0.00 dB -9.14 dB 4:19 06-Along Comes A Woman
DR8 0.00 dB -9.99 dB 3:49 07-You're The Inspiration
DR8 0.00 dB -9.89 dB 3:38 08-Please Hold On
DR7 0.00 dB -8.06 dB 4:13 09-Prima Donna
DR8 0.00 dB -9.08 dB 4:16 10-Once In A Lifetime
DR8 -0.10 dB -9.47 dB 3:58 11-Here Is Where We Begin / Bonus
DR9 0.00 dB -10.00 dB 3:51 12-Only You (Alternate Version) / Bonus
DR8 0.00 dB -10.71 dB 3:53 13-You're The Inspiration (Alternate Version) / Bonus
DR7 0.00 dB -8.31 dB 4:34 14-Prima Donna (Alternate Version) / Bonus
––––––––––––––––––––––––––––––––––––––––

Number of tracks: 14
Official DR value: DR8

Samplerate: 44100 Hz
Channels: 2
Bits per sample: 16
Bitrate: 989 kbps
Codec: FLAC

CUETools log; Date: 22.08.2015 17:16:01; Version: 2.1.4]
[CTDB TOCID: qEpGX41.1C89dX1WHvMgVYi5_O4-] found.
Track | CTDB Status
1 | (4/4) Accurately ripped
2 | (4/4) Accurately ripped
3 | (4/4) Accurately ripped
4 | (4/4) Accurately ripped
5 | (4/4) Accurately ripped
6 | (4/4) Accurately ripped
7 | (4/4) Accurately ripped
8 | (4/4) Accurately ripped
9 | (4/4) Accurately ripped
10 | (4/4) Accurately ripped
11 | (4/4) Accurately ripped
12 | (4/4) Accurately ripped
13 | (4/4) Accurately ripped
14 | (4/4) Accurately ripped
[AccurateRip ID: 001dda5e-013dce8d-c50d870e] found.
Track [ CRC | V2 ] Status
01 [9c825db1|c80de00b] (0+4/4) Accurately ripped
02 [6bd1448c|eab9c259] (0+4/4) Accurately ripped
03 [60781d02|c9f85282] (0+4/4) Accurately ripped
04 [8144306a|cfc28257] (0+4/4) Accurately ripped
05 [6b221777|9bc96355] (0+4/4) Accurately ripped
06 [77a1bbd0|cf2aca15] (0+4/4) Accurately ripped
07 [cb5c7696|957be009] (0+4/4) Accurately ripped
08 [63a8b553|db9bf31d] (0+4/4) Accurately ripped
09 [9d8ade7e|1dec4cd9] (0+4/4) Accurately ripped
10 [82709501|7496d744] (0+4/4) Accurately ripped
11 [22b1af9f|46b3d17d] (0+4/4) Accurately ripped
12 [1d86c7b4|cfb2c509] (0+4/4) Accurately ripped
13 [2f906709|74b042fd] (0+4/4) Accurately ripped
14 [252e81b2|e8865846] (0+4/4) Accurately ripped

Track Peak [ CRC32 ] [W/O NULL] [ LOG ]
– 100,0 [668F03F2] [F2BE18FF] CRC32
01 100,0 [CCAE7452] [24E2CF10]
02 100,0 [22A745BA] [B5638B79]
03 100,0 [4CE58FDC] [4F5C9DE4]
04 100,0 [B514019E] [2DA8D28A]
05 100,0 [BE2D8517] [21FAECC1]
06 100,0 [414D7598] [5865F86D]
07 100,0 [63215E2D] [23A7E8B1]
08 100,0 [3F82DA95] [0A1AB205]
09 100,0 [4F5168A8] [4D88ED24]
10 100,0 [8988EC15] [9DCD5E7A]
11 98,8 [FF2A1D68] [DCC8B3D7]
12 100,0 [9667D75F] [217F5B02]
13 100,0 [9F2BBCD0] [3A1E9305]
14 100,0 [B38734A3] [69187F78]

Chicago - Studio Albums 1979-2008 (2015) [10CD Box Set]

Tracklist CD5 - 1986 - Chicago 18 (00:53:51):

01. Niagara Falls 03:45
02. Forever 05:19
03. If She Would Have Been Faithful… 03:51
04. 25 Or 6 To 4 04:21
05. Will You Still Love Me? 05:43
06. Over And Over 04:20
07. It's Alright 04:29
08. Nothin's Gonna Stop Us Now 04:51
09. I Believe 04:23
10. One More Day 04:18

Bonus Selection:
11. 25 Or 6 To 4 (Alternate Version) 04:13
12. Will You Still Love Me? (Alternate Version) 04:13

Exact Audio Copy V1.1 from 23. June 2015

EAC extraction logfile from 15. August 2015, 12:15

Chicago / Chicago 18

Used drive : PLEXTOR BD-R PX-B950SA Adapter: 1 ID: 1

Read mode : Secure
Utilize accurate stream : Yes
Defeat audio cache : Yes
Make use of C2 pointers : No

Read offset correction : 6
Overread into Lead-In and Lead-Out : No
Fill up missing offset samples with silence : Yes
Delete leading and trailing silent blocks : No
Null samples used in CRC calculations : Yes
Used interface : Native Win32 interface for Win NT & 2000

Used output format : Internal WAV Routines
Sample format : 44.100 Hz; 16 Bit; Stereo


TOC of the extracted CD

Track | Start | Length | Start sector | End sector
––––––––––––––––––––––––––––-
1 | 0:00.00 | 3:45.72 | 0 | 16946
2 | 3:45.72 | 5:19.33 | 16947 | 40904
3 | 9:05.30 | 3:51.37 | 40905 | 58266
4 | 12:56.67 | 4:21.11 | 58267 | 77852
5 | 17:18.03 | 5:43.21 | 77853 | 103598
6 | 23:01.24 | 4:20.18 | 103599 | 123116
7 | 27:21.42 | 4:29.04 | 123117 | 143295
8 | 31:50.46 | 4:51.68 | 143296 | 165188
9 | 36:42.39 | 4:23.21 | 165189 | 184934
10 | 41:05.60 | 4:18.34 | 184935 | 204318
11 | 45:24.19 | 4:13.53 | 204319 | 223346
12 | 49:37.72 | 4:13.21 | 223347 | 242342


Range status and errors

Selected range

Filename C:\Users\Meijin\Desktop\ALLexxess\Chicago\2015 Studio Albums 1979-2008 (10CD Box Set Rhino Records)\1986 Chicago 18\Chicago - Chicago 18.wav

Peak level 100.0 %
Extraction speed 7.1 X
Range quality 100.0 %
Test CRC 518E6B3F
Copy CRC 518E6B3F
Copy OK

No errors occurred


AccurateRip summary

Track 1 accurately ripped (confidence 3) [95F30279] (AR v2)
Track 2 accurately ripped (confidence 3) [EC4CDA79] (AR v2)
Track 3 accurately ripped (confidence 3) [5D586DD5] (AR v2)
Track 4 accurately ripped (confidence 3) [5A278FFD] (AR v2)
Track 5 accurately ripped (confidence 3) [55F68130] (AR v2)
Track 6 accurately ripped (confidence 3) [2A172EDF] (AR v2)
Track 7 accurately ripped (confidence 3) [A5B9B0FF] (AR v2)
Track 8 accurately ripped (confidence 3) [FE0C4A97] (AR v2)
Track 9 accurately ripped (confidence 3) [A2201683] (AR v2)
Track 10 accurately ripped (confidence 3) [81C7BA3A] (AR v2)
Track 11 accurately ripped (confidence 3) [1D7A7DEC] (AR v2)
Track 12 accurately ripped (confidence 3) [EFCC9AFC] (AR v2)

All tracks accurately ripped

End of status report

–– CUETools DB Plugin V2.1.6

[CTDB TOCID: a8pLOe.bsRTvQSbYo3KXZucFTGM-] found
Submit result: a8pLOe.bsRTvQSbYo3KXZucFTGM- has been confirmed
Track | CTDB Status
1 | (4/4) Accurately ripped
2 | (4/4) Accurately ripped
3 | (4/4) Accurately ripped
4 | (4/4) Accurately ripped
5 | (4/4) Accurately ripped
6 | (4/4) Accurately ripped
7 | (4/4) Accurately ripped
8 | (4/4) Accurately ripped
9 | (4/4) Accurately ripped
10 | (4/4) Accurately ripped
11 | (4/4) Accurately ripped
12 | (4/4) Accurately ripped


==== Log checksum 3F86BD82A2DC0BFDCCBDF28AE1CB84DF40CDEDBB195B662DC8B032EFFD671BD9 ====

foobar2000 1.2.9 / Dynamic Range Meter 1.1.1
log date: 2015-08-25 17:32:34

––––––––––––––––––––––––––––––––––––––––
Analyzed: Chicago / Chicago 18
––––––––––––––––––––––––––––––––––––––––

DR Peak RMS Duration Track
––––––––––––––––––––––––––––––––––––––––
DR7 0.00 dB -9.19 dB 3:46 01-Niagra Falls
DR9 0.00 dB -10.55 dB 5:19 02-Forever
DR8 0.00 dB -9.62 dB 3:51 03-If She Would Have Been Faithful…
DR9 0.00 dB -10.02 dB 4:21 04-25 Or 6 To 4 (1986 Version)
DR9 0.00 dB -11.27 dB 5:43 05-Will You Still Love Me?
DR8 0.00 dB -9.55 dB 4:20 06-Over And Over
DR8 0.00 dB -9.09 dB 4:29 07-It's Alright
DR9 0.00 dB -11.01 dB 4:52 08-Nothing's Gonna Stop Us Now
DR9 0.00 dB -11.18 dB 4:23 09-I Believe
DR9 0.00 dB -11.31 dB 4:18 10-One More Day
DR9 0.00 dB -10.36 dB 4:14 11-25 Or 6 To 4 (Alternate Version) / Bonus
DR8 -0.50 dB -10.12 dB 4:13 12-Will You Still Love Me? (Alternate Version) / Bonus
––––––––––––––––––––––––––––––––––––––––

Number of tracks: 12
Official DR value: DR8

Samplerate: 44100 Hz
Channels: 2
Bits per sample: 16
Bitrate: 973 kbps
Codec: FLAC

[CUETools log; Date: 22.08.2015 17:18:44; Version: 2.1.4]
[CTDB TOCID: a8pLOe.bsRTvQSbYo3KXZucFTGM-] found.
Track | CTDB Status
1 | (5/5) Accurately ripped
2 | (5/5) Accurately ripped
3 | (5/5) Accurately ripped
4 | (5/5) Accurately ripped
5 | (5/5) Accurately ripped
6 | (5/5) Accurately ripped
7 | (5/5) Accurately ripped
8 | (5/5) Accurately ripped
9 | (5/5) Accurately ripped
10 | (5/5) Accurately ripped
11 | (5/5) Accurately ripped
12 | (5/5) Accurately ripped
[AccurateRip ID: 00182bf5-00e22dfb-a90c9f0c] found.
Track [ CRC | V2 ] Status
01 [badf2c90|95f30279] (0+3/3) Accurately ripped
02 [cc75afa9|ec4cda79] (0+3/3) Accurately ripped
03 [7015a1e8|5d586dd5] (0+3/3) Accurately ripped
04 [5e089681|5a278ffd] (0+3/3) Accurately ripped
05 [3ace8c80|55f68130] (0+3/3) Accurately ripped
06 [cc72dc8f|2a172edf] (0+3/3) Accurately ripped
07 [a5160771|a5b9b0ff] (0+3/3) Accurately ripped
08 [dc34179e|fe0c4a97] (0+3/3) Accurately ripped
09 [08ee3063|a2201683] (0+3/3) Accurately ripped
10 [f52653ab|81c7ba3a] (0+3/3) Accurately ripped
11 [2fd1c341|1d7a7dec] (0+3/3) Accurately ripped
12 [a87dc281|efcc9afc] (0+3/3) Accurately ripped

Track Peak [ CRC32 ] [W/O NULL] [ LOG ]
– 100,0 [518E6B3F] [5F317FB3] CRC32
01 100,0 [1F4CB254] [28F2B779]
02 100,0 [823B24C1] [F0CC1202]
03 100,0 [DFC65B3A] [1A1DF861]
04 100,0 [48BAAE51] [E8F37FBD]
05 100,0 [8C58A03E] [A9FF7A5C]
06 100,0 [9FA224D5] [0F06708E]
07 100,0 [7B0950C9] [DA5AA774]
08 100,0 [89C33CA5] [D289337F]
09 100,0 [E68AD0ED] [A88E3C3A]
10 100,0 [423932C9] [C0405139]
11 100,0 [1BA8F755] [6D736781]
12 94,3 [CC4143B7] [52920F05]

Chicago - Studio Albums 1979-2008 (2015) [10CD Box Set]

Tracklist CD6 - 1988 - Chicago 19 (00:56:29):

01. Heart In Pieces 05:08
02. I Don't Wanna Live Without Your Love 03:59
03. I Stand Up 04:07
04. We Can Last Forever 03:46
05. Come In From The Night 04:42
06. Look Away 04:03
07. What Kind Of Man Would I Be 04:23
08. Runaround 04:11
09. You're Not Alone 04:00
10. Victorious 06:06

Bonus Selection:
11. Look Away (Single Version) 04:01
12. We Can Last Forever (Single Version) 03:46
13. What Kind Of Man Would I Be? (Single Version) 04:12

Exact Audio Copy V1.1 from 23. June 2015

EAC extraction logfile from 15. August 2015, 11:43

Chicago / Chicago 19

Used drive : Optiarc DVD RW AD-7280S Adapter: 1 ID: 0

Read mode : Secure
Utilize accurate stream : Yes
Defeat audio cache : Yes
Make use of C2 pointers : No

Read offset correction : 48
Overread into Lead-In and Lead-Out : No
Fill up missing offset samples with silence : Yes
Delete leading and trailing silent blocks : No
Null samples used in CRC calculations : Yes
Used interface : Native Win32 interface for Win NT & 2000

Used output format : Internal WAV Routines
Sample format : 44.100 Hz; 16 Bit; Stereo


TOC of the extracted CD

Track | Start | Length | Start sector | End sector
––––––––––––––––––––––––––––-
1 | 0:00.00 | 5:08.26 | 0 | 23125
2 | 5:08.26 | 3:59.12 | 23126 | 41062
3 | 9:07.38 | 4:07.00 | 41063 | 59587
4 | 13:14.38 | 3:46.02 | 59588 | 76539
5 | 17:00.40 | 4:42.71 | 76540 | 97760
6 | 21:43.36 | 4:03.45 | 97761 | 116030
7 | 25:47.06 | 4:23.65 | 116031 | 135820
8 | 30:10.71 | 4:11.37 | 135821 | 154682
9 | 34:22.33 | 4:00.15 | 154683 | 172697
10 | 38:22.48 | 6:06.03 | 172698 | 200150
11 | 44:28.51 | 4:01.69 | 200151 | 218294
12 | 48:30.45 | 3:46.08 | 218295 | 235252
13 | 52:16.53 | 4:12.27 | 235253 | 254179


Range status and errors

Selected range

Filename C:\Users\Meijin\Desktop\ALLexxess\Chicago\2015 Studio Albums 1979-2008 (10CD Box Set Rhino Records)\1988 Chicago 19\Chicago - Chicago 19.wav

Peak level 100.0 %
Extraction speed 4.0 X
Range quality 99.9 %
Test CRC 850BC64E
Copy CRC 850BC64E
Copy OK

No errors occurred


AccurateRip summary

Track 1 accurately ripped (confidence 4) [D59286DE] (AR v2)
Track 2 accurately ripped (confidence 4) [FB68CA72] (AR v2)
Track 3 accurately ripped (confidence 4) [5734CF84] (AR v2)
Track 4 accurately ripped (confidence 4) [20D56789] (AR v2)
Track 5 accurately ripped (confidence 4) [CA3D46ED] (AR v2)
Track 6 accurately ripped (confidence 4) [37E21DE0] (AR v2)
Track 7 accurately ripped (confidence 4) [5F0ABC7B] (AR v2)
Track 8 accurately ripped (confidence 4) [64C7F8A7] (AR v2)
Track 9 accurately ripped (confidence 4) [4AF58156] (AR v2)
Track 10 accurately ripped (confidence 4) [0FC76603] (AR v2)
Track 11 accurately ripped (confidence 4) [C405AF7F] (AR v2)
Track 12 cannot be verified as accurate (confidence 4) [80FA6F0A], AccurateRip returned [B9A531EA] (AR v2)
Track 13 accurately ripped (confidence 4) [3AA54BCE] (AR v2)

12 track(s) accurately ripped
1 track(s) could not be verified as accurate

Some tracks could not be verified as accurate

End of status report

–– CUETools DB Plugin V2.1.6

[CTDB TOCID: tt2t5Qov5JPtKUlJjtxAddr03WA-] found
Submit result: tt2t5Qov5JPtKUlJjtxAddr03WA- has been submitted
Track | CTDB Status
1 | (3/3) Accurately ripped
2 | (3/3) Accurately ripped
3 | (3/3) Accurately ripped
4 | (3/3) Accurately ripped
5 | (3/3) Accurately ripped
6 | (3/3) Accurately ripped
7 | (3/3) Accurately ripped
8 | (3/3) Accurately ripped
9 | (3/3) Accurately ripped
10 | (3/3) Accurately ripped
11 | (3/3) Accurately ripped
12 | (3/3) Differs in 23 samples @03:13:51,03:13:69
13 | (3/3) Accurately ripped
If you are sure that your rip contains errors, you can use CUETools to repair it.


==== Log checksum 8E2BDA15856CDF43D8C76DD13FA5622A0E843481A94051D8CD70926CBDE1C9FF ====

foobar2000 1.2.9 / Dynamic Range Meter 1.1.1
log date: 2015-08-25 17:32:50

––––––––––––––––––––––––––––––––––––––––
Analyzed: Chicago / Chicago 19
––––––––––––––––––––––––––––––––––––––––

DR Peak RMS Duration Track
––––––––––––––––––––––––––––––––––––––––
DR8 0.00 dB -9.31 dB 5:08 01-Heart In Pieces
DR8 0.00 dB -10.74 dB 3:59 02-I Don't Wanna Live Without Your Love
DR8 0.00 dB -10.23 dB 4:07 03-I Stand Up
DR8 0.00 dB -10.25 dB 3:46 04-We Can Last Forever
DR10 0.00 dB -11.34 dB 4:43 05-Come In From The Night
DR8 0.00 dB -11.18 dB 4:04 06-Look Away
DR8 0.00 dB -10.38 dB 4:24 07-What Kind Of Man Would I Be
DR9 0.00 dB -10.82 dB 4:11 08-Runaround
DR9 0.00 dB -11.08 dB 4:00 09-You're Not Alone
DR10 0.00 dB -12.11 dB 6:06 10-Victorious
DR9 0.00 dB -11.34 dB 4:02 11-Look Away (Single Version) / Bonus
DR7 -0.47 dB -9.62 dB 3:46 12-We Can Last Forever (Single Version) / Bonus
DR8 0.00 dB -10.62 dB 4:12 13-What Kind Of Man Would I Be? (Single Version) / Bonus
––––––––––––––––––––––––––––––––––––––––

Number of tracks: 13
Official DR value: DR9

Samplerate: 44100 Hz
Channels: 2
Bits per sample: 16
Bitrate: 948 kbps
Codec: FLAC

[CUETools log; Date: 22.08.2015 17:21:04; Version: 2.1.4]
[CTDB TOCID: tt2t5Qov5JPtKUlJjtxAddr03WA-] found.
Track | CTDB Status
1 | (4/4) Accurately ripped
2 | (4/4) Accurately ripped
3 | (4/4) Accurately ripped
4 | (4/4) Accurately ripped
5 | (4/4) Accurately ripped
6 | (4/4) Accurately ripped
7 | (4/4) Accurately ripped
8 | (4/4) Accurately ripped
9 | (4/4) Accurately ripped
10 | (4/4) Accurately ripped
11 | (4/4) Accurately ripped
12 | (1/4) Accurately ripped, or (3/4) differs in 23 samples @03:13:51,03:13:69
13 | (4/4) Accurately ripped
[AccurateRip ID: 001b3d66-01101c16-9c0d3d0d] found.
Track [ CRC | V2 ] Status
01 [ac004f40|d59286de] (0+4/4) Accurately ripped
02 [cf0a9446|fb68ca72] (0+4/4) Accurately ripped
03 [cbd7c255|5734cf84] (0+4/4) Accurately ripped
04 [aa2693e1|20d56789] (0+4/4) Accurately ripped
05 [1aa5faf4|ca3d46ed] (0+4/4) Accurately ripped
06 [1f45b86c|37e21de0] (0+4/4) Accurately ripped
07 [f872bf5e|5f0abc7b] (0+4/4) Accurately ripped
08 [1bba8a33|64c7f8a7] (0+4/4) Accurately ripped
09 [ac6eada8|4af58156] (0+4/4) Accurately ripped
10 [56872a8f|0fc76603] (0+4/4) Accurately ripped
11 [fdb005ca|c405af7f] (0+4/4) Accurately ripped
12 [82abef59|80fa6f0a] (0+0/4) No match
13 [062db96d|3aa54bce] (0+4/4) Accurately ripped

Track Peak [ CRC32 ] [W/O NULL] [ LOG ]
– 100,0 [850BC64E] [0E4708FF] CRC32
01 100,0 [C30D4178] [AA156CFE]
02 100,0 [2D09CA17] [BC6F1214]
03 100,0 [6EA0A363] [92243C78]
04 100,0 [0251AA32] [7D83F7FB]
05 100,0 [07D975C8] [06CAD7E7]
06 100,0 [AEFD9BF8] [3B2D0736]
07 100,0 [405AF851] [3B37FC1B]
08 100,0 [2A0389BF] [A05A1768]
09 100,0 [7DE5056F] [79B53AD1]
10 100,0 [ED9077BE] [50F9A258]
11 100,0 [01492878] [A1183AE3]
12 94,7 [2E17DDA2] [38C965EF]
13 100,0 [E21D0C32] [4D09C6E3]

Chicago - Studio Albums 1979-2008 (2015) [10CD Box Set]

Tracklist CD7 - 1991 - Twenty 1 (00:53:14):

01. Explain It To My Heart 04:47
02. If It Were You 04:42
03. You Come To My Senses 03:50
04. Somebody, Somewhere 04:22
05. What Does It Take 04:38
06. One From The Heart 04:44
07. Chasin' The Wind 04:19
08. God Save The Queen 04:20
09. Man To Woman 03:57
10. Only Time Can Heal The Wounded 04:44
11. Who Do You Love 03:20
12. Holdin' On 04:18

Bonus Selection:
13. Explain It To My Heart (Promo Single Version) 04:08

Exact Audio Copy V1.1 from 23. June 2015

EAC extraction logfile from 15. August 2015, 10:39

Chicago / Twenty 1

Used drive : PLEXTOR BD-R PX-B950SA Adapter: 1 ID: 1

Read mode : Secure
Utilize accurate stream : Yes
Defeat audio cache : Yes
Make use of C2 pointers : No

Read offset correction : 6
Overread into Lead-In and Lead-Out : No
Fill up missing offset samples with silence : Yes
Delete leading and trailing silent blocks : No
Null samples used in CRC calculations : Yes
Used interface : Native Win32 interface for Win NT & 2000

Used output format : Internal WAV Routines
Sample format : 44.100 Hz; 16 Bit; Stereo


TOC of the extracted CD

Track | Start | Length | Start sector | End sector
––––––––––––––––––––––––––––-
1 | 0:00.00 | 4:47.29 | 0 | 21553
2 | 4:47.29 | 4:42.48 | 21554 | 42751
3 | 9:30.02 | 3:50.51 | 42752 | 60052
4 | 13:20.53 | 4:22.39 | 60053 | 79741
5 | 17:43.17 | 4:38.57 | 79742 | 100648
6 | 22:21.74 | 4:44.03 | 100649 | 121951
7 | 27:06.02 | 4:19.03 | 121952 | 141379
8 | 31:25.05 | 4:20.36 | 141380 | 160915
9 | 35:45.41 | 3:57.07 | 160916 | 178697
10 | 39:42.48 | 4:44.11 | 178698 | 200008
11 | 44:26.59 | 3:20.01 | 200009 | 215009
12 | 47:46.60 | 4:18.45 | 215010 | 234404
13 | 52:05.30 | 4:08.69 | 234405 | 253073


Range status and errors

Selected range

Filename C:\Users\Meijin\Desktop\ALLexxess\Chicago\2015 Studio Albums 1979-2008 (10CD Box Set Rhino Records)\1991 Twenty 1\Chicago - Twenty 1.wav

Peak level 100.0 %
Extraction speed 7.3 X
Range quality 100.0 %
Test CRC 1E2A9393
Copy CRC 1E2A9393
Copy OK

No errors occurred


AccurateRip summary

Track 1 accurately ripped (confidence 4) [29C58045] (AR v2)
Track 2 accurately ripped (confidence 4) [779AE92A] (AR v2)
Track 3 accurately ripped (confidence 4) [A91C3A06] (AR v2)
Track 4 accurately ripped (confidence 4) [0245464F] (AR v2)
Track 5 accurately ripped (confidence 4) [6F33D002] (AR v2)
Track 6 accurately ripped (confidence 4) [827D4146] (AR v2)
Track 7 accurately ripped (confidence 4) [016108C4] (AR v2)
Track 8 accurately ripped (confidence 4) [4A48BE64] (AR v2)
Track 9 accurately ripped (confidence 4) [35BCDD82] (AR v2)
Track 10 accurately ripped (confidence 4) [9A287156] (AR v2)
Track 11 accurately ripped (confidence 4) [573BC471] (AR v2)
Track 12 accurately ripped (confidence 4) [C8A6E1AF] (AR v2)
Track 13 accurately ripped (confidence 4) [B01C49E9] (AR v2)

All tracks accurately ripped

End of status report

–– CUETools DB Plugin V2.1.6

[CTDB TOCID: UCDD8qQVJBQiQyX22O__G7Wf3YQ-] found
Submit result: UCDD8qQVJBQiQyX22O__G7Wf3YQ- has been confirmed
Track | CTDB Status
1 | (2/2) Accurately ripped
2 | (2/2) Accurately ripped
3 | (2/2) Accurately ripped
4 | (2/2) Accurately ripped
5 | (2/2) Accurately ripped
6 | (2/2) Accurately ripped
7 | (2/2) Accurately ripped
8 | (2/2) Accurately ripped
9 | (2/2) Accurately ripped
10 | (2/2) Accurately ripped
11 | (2/2) Accurately ripped
12 | (2/2) Accurately ripped
13 | (2/2) Accurately ripped


==== Log checksum 3FC78D75F3BD955258A5EFDEAEF66CE22A01529D8D3F7071BA3A30629EB78C75 ====

foobar2000 1.2.9 / Dynamic Range Meter 1.1.1
log date: 2015-08-25 17:33:10

––––––––––––––––––––––––––––––––––––––––
Analyzed: Chicago / Twenty 1
––––––––––––––––––––––––––––––––––––––––

DR Peak RMS Duration Track
––––––––––––––––––––––––––––––––––––––––
DR8 0.00 dB -10.66 dB 4:47 01-Explain It To My Heart
DR8 0.00 dB -9.27 dB 4:43 02-If It Were You
DR8 0.00 dB -10.88 dB 3:51 03-You Come To My Senses
DR8 0.00 dB -9.31 dB 4:23 04-Somebody, Somewhere
DR8 0.00 dB -10.20 dB 4:39 05-What Does It Take
DR8 0.00 dB -9.69 dB 4:44 06-One From The Heart
DR7 0.00 dB -9.98 dB 4:19 07-Chasin' The Wind
DR8 0.00 dB -9.26 dB 4:20 08-God Save The Queen
DR8 0.00 dB -9.74 dB 3:57 09-Man To Woman
DR8 0.00 dB -10.62 dB 4:44 10-Only Time Can Heal The Wounded
DR8 0.00 dB -8.46 dB 3:20 11-Who Do You Love
DR8 0.00 dB -9.79 dB 4:19 12-Holdin' On
DR8 0.00 dB -10.58 dB 4:09 13-Explain It To My Heart (Promo Single Version) / Bonus
––––––––––––––––––––––––––––––––––––––––

Number of tracks: 13
Official DR value: DR8

Samplerate: 44100 Hz
Channels: 2
Bits per sample: 16
Bitrate: 974 kbps
Codec: FLAC

[CUETools log; Date: 22.08.2015 17:23:25; Version: 2.1.4]
[CTDB TOCID: UCDD8qQVJBQiQyX22O__G7Wf3YQ-] found.
Track | CTDB Status
1 | (3/3) Accurately ripped
2 | (3/3) Accurately ripped
3 | (3/3) Accurately ripped
4 | (3/3) Accurately ripped
5 | (3/3) Accurately ripped
6 | (3/3) Accurately ripped
7 | (3/3) Accurately ripped
8 | (3/3) Accurately ripped
9 | (3/3) Accurately ripped
10 | (3/3) Accurately ripped
11 | (3/3) Accurately ripped
12 | (3/3) Accurately ripped
13 | (3/3) Accurately ripped
[AccurateRip ID: 001b9f12-0112ba95-c70d2e0d] found.
Track [ CRC | V2 ] Status
01 [43886228|29c58045] (0+4/4) Accurately ripped
02 [490f46eb|779ae92a] (0+4/4) Accurately ripped
03 [5ac7b226|a91c3a06] (0+4/4) Accurately ripped
04 [95dd8f50|0245464f] (0+4/4) Accurately ripped
05 [158573d9|6f33d002] (0+4/4) Accurately ripped
06 [503d03b0|827d4146] (0+4/4) Accurately ripped
07 [40333067|016108c4] (0+4/4) Accurately ripped
08 [808975ce|4a48be64] (0+4/4) Accurately ripped
09 [77623cff|35bcdd82] (0+4/4) Accurately ripped
10 [5c996f96|9a287156] (0+4/4) Accurately ripped
11 [c888b711|573bc471] (0+4/4) Accurately ripped
12 [486b94d9|c8a6e1af] (0+4/4) Accurately ripped
13 [f180607b|b01c49e9] (0+4/4) Accurately ripped

Track Peak [ CRC32 ] [W/O NULL] [ LOG ]
– 100,0 [1E2A9393] [BDFF9DB8] CRC32
01 100,0 [FCD077FE] [7A179653]
02 100,0 [D1A637BA] [1A9F5017]
03 100,0 [3BA8AF33] [30336364]
04 100,0 [F26D7639] [2FE67650]
05 100,0 [811DC086] [C6141FDD]
06 100,0 [99B2A7BB] [95AB14BD]
07 100,0 [EFFC47F5] [2DE39FE7]
08 100,0 [8DE63317] [04D4FBDE]
09 100,0 [C53870BD] [35A1FD14]
10 100,0 [1F819E3F] [B3DA4301]
11 100,0 [51BD97C6] [CE99E5D5]
12 100,0 [3328BF8D] [45B0DA30]
13 100,0 [7966FCEF] [0D58359C]

Chicago - Studio Albums 1979-2008 (2015) [10CD Box Set]

Tracklist CD8 - 1995 - Night & Day (Big Band) (00:51:24):

01. Chicago 03:07
02. Caravan 03:22
03. Dream A Little Dream Of Me (Duet With Jade & Piano Stylings By Paul Shaffer) 03:12
04. Goody Goody 04:04
05. Moonlight Serenade 04:26
06. Night & Day 05:36
07. Blues In The Night 06:04
08. Sing, Sing, Sing (With The Gipsy Kings) 03:21
09. Sophisticated Lady 05:11
10. In The Mood 03:43
11. Don't Get Around Much Anymore 03:38
12. Take The 'A' Train 05:33

Exact Audio Copy V1.1 from 23. June 2015

EAC extraction logfile from 15. August 2015, 10:09

Chicago / Night And Day (Big Band)

Used drive : PLEXTOR BD-R PX-B950SA Adapter: 1 ID: 1

Read mode : Secure
Utilize accurate stream : Yes
Defeat audio cache : Yes
Make use of C2 pointers : No

Read offset correction : 6
Overread into Lead-In and Lead-Out : No
Fill up missing offset samples with silence : Yes
Delete leading and trailing silent blocks : No
Null samples used in CRC calculations : Yes
Used interface : Native Win32 interface for Win NT & 2000

Used output format : Internal WAV Routines
Sample format : 44.100 Hz; 16 Bit; Stereo


TOC of the extracted CD

Track | Start | Length | Start sector | End sector
––––––––––––––––––––––––––––-
1 | 0:00.00 | 3:07.40 | 0 | 14064
2 | 3:07.40 | 3:22.60 | 14065 | 29274
3 | 6:30.25 | 3:12.26 | 29275 | 43700
4 | 9:42.51 | 4:04.68 | 43701 | 62068
5 | 13:47.44 | 4:26.19 | 62069 | 82037
6 | 18:13.63 | 5:36.31 | 82038 | 107268
7 | 23:50.19 | 6:04.04 | 107269 | 134572
8 | 29:54.23 | 3:21.56 | 134573 | 149703
9 | 33:16.04 | 5:11.61 | 149704 | 173089
10 | 38:27.65 | 3:43.43 | 173090 | 189857
11 | 42:11.33 | 3:38.63 | 189858 | 206270
12 | 45:50.21 | 5:33.64 | 206271 | 231309


Range status and errors

Selected range

Filename C:\Users\Meijin\Desktop\ALLexxess\Chicago\2015 Studio Albums 1979-2008 (10CD Box Set Rhino Records)\1995 Night & Day (Big Band)\Chicago - Night And Day (Big Band).wav

Peak level 100.0 %
Extraction speed 7.0 X
Range quality 100.0 %
Test CRC 1D74A700
Copy CRC 1D74A700
Copy OK

No errors occurred


AccurateRip summary

Track 1 accurately ripped (confidence 1) [6E616276] (AR v2)
Track 2 accurately ripped (confidence 1) [06008493] (AR v2)
Track 3 accurately ripped (confidence 1) [A40698CE] (AR v2)
Track 4 accurately ripped (confidence 1) [00D34BF9] (AR v2)
Track 5 accurately ripped (confidence 1) [3116433F] (AR v2)
Track 6 accurately ripped (confidence 1) [54C76426] (AR v2)
Track 7 accurately ripped (confidence 1) [C45E038F] (AR v2)
Track 8 accurately ripped (confidence 1) [48F57A7B] (AR v2)
Track 9 accurately ripped (confidence 1) [7E643892] (AR v2)
Track 10 accurately ripped (confidence 1) [84BD4EB6] (AR v2)
Track 11 accurately ripped (confidence 1) [BCAC5FD1] (AR v2)
Track 12 accurately ripped (confidence 1) [A0DAAB27] (AR v2)

All tracks accurately ripped

End of status report

–– CUETools DB Plugin V2.1.6

[CTDB TOCID: QxbV4PgIq5MmClFkf9VaVZyicXM-] found
Submit result: QxbV4PgIq5MmClFkf9VaVZyicXM- has been confirmed
Track | CTDB Status
1 | (1/1) Accurately ripped
2 | (1/1) Accurately ripped
3 | (1/1) Accurately ripped
4 | (1/1) Accurately ripped
5 | (1/1) Accurately ripped
6 | (1/1) Accurately ripped
7 | (1/1) Accurately ripped
8 | (1/1) Accurately ripped
9 | (1/1) Accurately ripped
10 | (1/1) Accurately ripped
11 | (1/1) Accurately ripped
12 | (1/1) Accurately ripped


==== Log checksum 3EE05AB0856C154A2FF3CF990BB4FA47264428E9F475F917B254313CF21B896D ====

foobar2000 1.2.9 / Dynamic Range Meter 1.1.1
log date: 2015-08-25 17:33:27

––––––––––––––––––––––––––––––––––––––––
Analyzed: Chicago / Night And Day (Big Band)
––––––––––––––––––––––––––––––––––––––––

DR Peak RMS Duration Track
––––––––––––––––––––––––––––––––––––––––
DR11 -0.15 dB -13.36 dB 3:08 01-Chicago
DR12 0.00 dB -13.20 dB 3:23 02-Caravan
DR11 -1.76 dB -15.31 dB 3:12 03-Dream A Little Dream Of Me (Duet With Jade & Piano Stylings By Paul Shaffer)
DR12 -0.11 dB -13.65 dB 4:05 04-Goody Goody
DR11 -0.72 dB -13.51 dB 4:26 05-Moonlight Serenade
DR12 0.00 dB -14.28 dB 5:36 06-Night & Day
DR12 -0.31 dB -14.47 dB 6:04 07-Blues In The Night
DR12 -0.62 dB -14.54 dB 3:22 08-Sing, Sing, Sing (With The Gipsy Kings)
DR12 -1.34 dB -15.45 dB 5:12 09-Sophisticated Lady
DR12 -0.57 dB -14.24 dB 3:44 10-In The Mood
DR13 0.00 dB -14.15 dB 3:39 11-Don't Get Around Much Anymore
DR12 -0.38 dB -13.96 dB 5:34 12-Take The A Train
––––––––––––––––––––––––––––––––––––––––

Number of tracks: 12
Official DR value: DR12

Samplerate: 44100 Hz
Channels: 2
Bits per sample: 16
Bitrate: 920 kbps
Codec: FLAC

[CUETools log; Date: 22.08.2015 17:25:54; Version: 2.1.4]
[CTDB TOCID: QxbV4PgIq5MmClFkf9VaVZyicXM-] found.
Track | CTDB Status
1 | (2/2) Accurately ripped
2 | (2/2) Accurately ripped
3 | (2/2) Accurately ripped
4 | (2/2) Accurately ripped
5 | (2/2) Accurately ripped
6 | (2/2) Accurately ripped
7 | (2/2) Accurately ripped
8 | (2/2) Accurately ripped
9 | (2/2) Accurately ripped
10 | (2/2) Accurately ripped
11 | (2/2) Accurately ripped
12 | (2/2) Accurately ripped
[AccurateRip ID: 0015b777-00cf0edc-bc0c0c0c] found.
Track [ CRC | V2 ] Status
01 [6a36c72e|6e616276] (0+1/1) Accurately ripped
02 [5bfbffc8|06008493] (0+1/1) Accurately ripped
03 [273ebf9f|a40698ce] (0+1/1) Accurately ripped
04 [cf831983|00d34bf9] (0+1/1) Accurately ripped
05 [2e2859d6|3116433f] (0+1/1) Accurately ripped
06 [4e32e31a|54c76426] (0+1/1) Accurately ripped
07 [cc1785c2|c45e038f] (0+1/1) Accurately ripped
08 [67be3be9|48f57a7b] (0+1/1) Accurately ripped
09 [9f71c254|7e643892] (0+1/1) Accurately ripped
10 [ea1822a5|84bd4eb6] (0+1/1) Accurately ripped
11 [263bb862|bcac5fd1] (0+1/1) Accurately ripped
12 [05e7c8b5|a0daab27] (0+1/1) Accurately ripped

Track Peak [ CRC32 ] [W/O NULL] [ LOG ]
– 100,0 [1D74A700] [445DE116] CRC32
01 98,2 [CFE14CAE] [365AF167]
02 100,0 [E91B7755] [77662267]
03 81,7 [3ED6C729] [20EB224A]
04 98,7 [9D037486] [9F606DE7]
05 92,0 [E3DD925E] [3AB750FA]
06 100,0 [8606B6A9] [E6911736]
07 96,4 [8C9BCF8C] [8938F812]
08 93,1 [802D1210] [E3E1109F]
09 85,7 [7B5AC517] [FC3CCFE2]
10 93,6 [DC691A5D] [8A3D2F68]
11 100,0 [DB5FFC5D] [065F7E1E]
12 95,7 [E79C10F7] [3B43741F]

Chicago - Studio Albums 1979-2008 (2015) [10CD Box Set]

Tracklist CD9 - 2006 - XXX (00:56:50):

01. Feel (Hot Single Mix) 04:01
02. King Of Might Have Been 03:52
03. Caroline 03:39
04. Why Can't We 04:07
05. Love Will Come Back 03:48
06. Long Lost Friend 04:33
07. 90 Degrees And Freezing 03:52
08. Where Were You 04:17
09. Already Gone 06:51
10. Come To Me, Do 04:36
11. Lovin' Chains 03:56
12. Better 04:41
13. Feel (With Horns) 04:30

Exact Audio Copy V1.1 from 23. June 2015

EAC extraction logfile from 15. August 2015, 9:36

Chicago / XXX

Used drive : PLEXTOR BD-R PX-B950SA Adapter: 1 ID: 1

Read mode : Secure
Utilize accurate stream : Yes
Defeat audio cache : Yes
Make use of C2 pointers : No

Read offset correction : 6
Overread into Lead-In and Lead-Out : No
Fill up missing offset samples with silence : Yes
Delete leading and trailing silent blocks : No
Null samples used in CRC calculations : Yes
Used interface : Native Win32 interface for Win NT & 2000

Used output format : Internal WAV Routines
Sample format : 44.100 Hz; 16 Bit; Stereo


TOC of the extracted CD

Track | Start | Length | Start sector | End sector
––––––––––––––––––––––––––––-
1 | 0:00.00 | 4:01.70 | 0 | 18144
2 | 4:01.70 | 3:52.67 | 18145 | 35611
3 | 7:54.62 | 3:39.65 | 35612 | 52101
4 | 11:34.52 | 4:07.58 | 52102 | 70684
5 | 15:42.35 | 3:48.57 | 70685 | 87841
6 | 19:31.17 | 4:33.55 | 87842 | 108371
7 | 24:04.72 | 3:52.20 | 108372 | 125791
8 | 27:57.17 | 4:17.20 | 125792 | 145086
9 | 32:14.37 | 6:51.50 | 145087 | 175961
10 | 39:06.12 | 4:36.13 | 175962 | 196674
11 | 43:42.25 | 3:56.20 | 196675 | 214394
12 | 47:38.45 | 4:41.57 | 214395 | 235526
13 | 52:20.27 | 4:30.33 | 235527 | 255809


Range status and errors

Selected range

Filename C:\Users\Meijin\Desktop\ALLexxess\Chicago\2015 Studio Albums 1979-2008 (10CD Box Set Rhino Records)\2006 XXX\Chicago - XXX.wav

Peak level 98.8 %
Extraction speed 7.3 X
Range quality 100.0 %
Test CRC 58C7CE59
Copy CRC 58C7CE59
Copy OK

No errors occurred


AccurateRip summary

Track 1 cannot be verified as accurate (confidence 42) [8185750D], AccurateRip returned [DB80D705] (AR v2)
Track 2 cannot be verified as accurate (confidence 43) [2A3F8D2D], AccurateRip returned [A7DCD6CF] (AR v2)
Track 3 cannot be verified as accurate (confidence 43) [81ABABB4], AccurateRip returned [F91BDBD8] (AR v2)
Track 4 cannot be verified as accurate (confidence 43) [249436E6], AccurateRip returned [EBEDCD0D] (AR v2)
Track 5 cannot be verified as accurate (confidence 43) [11C00D49], AccurateRip returned [62EAF7F4] (AR v2)
Track 6 cannot be verified as accurate (confidence 43) [0B87771C], AccurateRip returned [432B8770] (AR v2)
Track 7 cannot be verified as accurate (confidence 42) [AB744AB1], AccurateRip returned [A0C84EAA] (AR v2)
Track 8 cannot be verified as accurate (confidence 43) [DBEC7F21], AccurateRip returned [29294C0A] (AR v2)
Track 9 cannot be verified as accurate (confidence 44) [22AC0AE5], AccurateRip returned [460DD293] (AR v2)
Track 10 cannot be verified as accurate (confidence 44) [5ACFA303], AccurateRip returned [CAEC87D3] (AR v2)
Track 11 cannot be verified as accurate (confidence 41) [2827E0AD], AccurateRip returned [AD3BC63D] (AR v2)
Track 12 cannot be verified as accurate (confidence 43) [B6C85CA1], AccurateRip returned [BB7CDBF1] (AR v2)
Track 13 cannot be verified as accurate (confidence 43) [55178175], AccurateRip returned [D7676391] (AR v2)

No tracks could be verified as accurate
You may have a different pressing from the one(s) in the database

End of status report

–– CUETools DB Plugin V2.1.6

[CTDB TOCID: 1v6JJWSO.01jjk5YQ.c3gpVeQGI-] found
Submit result: 1v6JJWSO.01jjk5YQ.c3gpVeQGI- has been confirmed
Track | CTDB Status
1 | (31/32) Accurately ripped
2 | (31/32) Accurately ripped
3 | (31/32) Accurately ripped
4 | (31/32) Accurately ripped
5 | (31/32) Accurately ripped
6 | (31/32) Accurately ripped
7 | (29/32) Accurately ripped
8 | (29/32) Accurately ripped
9 | (29/32) Accurately ripped
10 | (29/32) Accurately ripped
11 | (31/32) Accurately ripped
12 | (29/32) Accurately ripped
13 | (30/32) Accurately ripped


==== Log checksum 76C1B83A9CC9F9354902121A89D1583098C9AB6C7FC675495968AB859D097C79 ====

foobar2000 1.2.9 / Dynamic Range Meter 1.1.1
log date: 2015-08-25 17:33:43

––––––––––––––––––––––––––––––––––––––––
Analyzed: Chicago / XXX
––––––––––––––––––––––––––––––––––––––––

DR Peak RMS Duration Track
––––––––––––––––––––––––––––––––––––––––
DR6 -0.10 dB -8.28 dB 4:02 01-Feel (Hot Single Mix)
DR5 -0.10 dB -9.01 dB 3:53 02-King Of Might Have Been
DR5 -0.10 dB -6.88 dB 3:40 03-Caroline
DR5 -0.10 dB -8.79 dB 4:08 04-Why Can't We
DR5 -0.10 dB -8.64 dB 3:49 05-Love Will Come Back
DR5 -0.10 dB -8.31 dB 4:34 06-Long Lost Friend
DR7 -0.10 dB -8.85 dB 3:52 07-90 Degrees And Freezing
DR6 -0.10 dB -7.64 dB 4:17 08-Where Were You
DR8 -0.10 dB -9.50 dB 6:52 09-Already Gone
DR7 -0.10 dB -9.12 dB 4:36 10-Come To Me, Do
DR7 -0.10 dB -8.84 dB 3:56 11-Lovin' Chains
DR6 -0.10 dB -8.23 dB 4:42 12-Better
DR6 -0.10 dB -8.63 dB 4:30 13-Feel (With Horns)
––––––––––––––––––––––––––––––––––––––––

Number of tracks: 13
Official DR value: DR6

Samplerate: 44100 Hz
Channels: 2
Bits per sample: 16
Bitrate: 993 kbps
Codec: FLAC

[CUETools log; Date: 22.08.2015 17:28:14; Version: 2.1.4]
[CTDB TOCID: 1v6JJWSO.01jjk5YQ.c3gpVeQGI-] found.
Track | CTDB Status
1 | (34/35) Accurately ripped
2 | (34/35) Accurately ripped
3 | (34/35) Accurately ripped
4 | (34/35) Accurately ripped
5 | (34/35) Accurately ripped
6 | (34/35) Accurately ripped
7 | (32/35) Accurately ripped
8 | (32/35) Accurately ripped
9 | (32/35) Accurately ripped
10 | (32/35) Accurately ripped
11 | (34/35) Accurately ripped
12 | (32/35) Accurately ripped
13 | (33/35) Accurately ripped
[AccurateRip ID: 001a4696-010a23af-c00d520d] found.
Track [ CRC | V2 ] Status
01 [c2c1bcd9|8185750d] (000+000/130) No match
02 [e62f10ab|2a3f8d2d] (000+000/131) No match
03 [e554e6d0|81ababb4] (000+000/131) No match
04 [cece4a21|249436e6] (000+000/131) No match
05 [a3cca2cc|11c00d49] (000+000/131) No match
06 [4919984c|0b87771c] (000+000/130) No match
07 [c96530f2|ab744ab1] (000+000/129) No match
08 [e517c3ce|dbec7f21] (000+000/130) No match
09 [fbba8a1f|22ac0ae5] (000+000/132) No match
10 [e8422053|5acfa303] (000+000/132) No match
11 [590edd71|2827e0ad] (000+000/129) No match
12 [52bb63ad|b6c85ca1] (000+000/129) No match
13 [ad6515d9|55178175] (000+000/129) No match
Offsetted by -742:
01 [3cea39cf] (002/130) Accurately ripped
02 [2dfd6c5d] (002/131) Accurately ripped
03 [018dc094] (002/131) Accurately ripped
04 [57956977] (002/131) Accurately ripped
05 [f7f589a0] (002/131) Accurately ripped
06 [8519307e] (002/130) Accurately ripped
07 [24d5de8e] (002/129) Accurately ripped
08 [ab53d64c] (002/130) Accurately ripped
09 [ef82df79] (002/132) Accurately ripped
10 [a7c02013] (002/132) Accurately ripped
11 [2de7c2b7] (002/129) Accurately ripped
12 [f576456f] (002/129) Accurately ripped
13 [2848db75] (002/129) Accurately ripped
Offsetted by -12:
01 [db80d705] (042/130) Accurately ripped
02 [a7dcd6cf] (043/131) Accurately ripped
03 [f91bdbd8] (043/131) Accurately ripped
04 [ebedcd0d] (043/131) Accurately ripped
05 [62eaf7f4] (043/131) Accurately ripped
06 [432b8770] (043/130) Accurately ripped
07 [a0c84eaa] (042/129) Accurately ripped
08 [29294c0a] (043/130) Accurately ripped
09 [460dd293] (044/132) Accurately ripped
10 [caec87d3] (044/132) Accurately ripped
11 [ad3bc63d] (041/129) Accurately ripped
12 [bb7cdbf1] (043/129) Accurately ripped
13 [d7676391] (043/129) Accurately ripped
Offsetted by -6:
01 [4f2149ef] (033/130) Accurately ripped
02 [c705f3bd] (033/131) Accurately ripped
03 [ef386154] (033/131) Accurately ripped
04 [5d5e0b97] (033/131) Accurately ripped
05 [835bcd60] (033/131) Accurately ripped
06 [46228fde] (033/130) Accurately ripped
07 [3516bfce] (033/129) Accurately ripped
08 [072087ec] (033/130) Accurately ripped
09 [20e42e59] (033/132) Accurately ripped
10 [59975413] (033/132) Accurately ripped
11 [032551d7] (033/129) Accurately ripped
12 [871c1fcf] (033/129) Accurately ripped
13 [c2663cb5] (032/129) Accurately ripped
Offsetted by -676:
01 [34cf29dd] (000/130) No match (V2 was not tested)
02 [84c1aa97] (000/131) No match (V2 was not tested)
03 [94c77ce8] (000/131) No match (V2 was not tested)
04 [37681965] (000/131) No match (V2 was not tested)
05 [5cceb544] (000/131) No match (V2 was not tested)
06 [a5b68d38] (000/130) No match (V2 was not tested)
07 [8434bb1a] (000/129) No match (V2 was not tested)
08 [34f36902] (000/130) No match (V2 was not tested)
09 [56b8d0fb] (000/132) No match (V2 was not tested)
10 [c916e6d3] (000/132) No match (V2 was not tested)
11 [def0c255] (000/129) No match (V2 was not tested)
12 [b54e2ff9] (000/129) No match (V2 was not tested)
13 [413c3001] (000/129) No match (V2 was not tested)

Track Peak [ CRC32 ] [W/O NULL] [ LOG ]
– 98,8 [58C7CE59] [3DB735F9] CRC32
01 98,8 [45423108] [A0DCDCEF]
02 98,8 [D4717661] [A9F36315]
03 98,8 [28D0E4E9] [06804464]
04 98,8 [B2338CB4] [DCE42116]
05 98,8 [FD721D09] [13688DE1]
06 98,8 [3EE52587] [B5EFEAFC]
07 98,8 [B14D0F0C] [CF1DB748]
08 98,8 [C5556DC3] [8BED9187]
09 98,8 [3E2862D0] [D649DA7B]
10 98,8 [E322E940] [44D8B0DA]
11 98,8 [00B20B8F] [3AB07A94]
12 98,8 [4C778672] [13594E42]
13 98,8 [E94E5B8E] [813B1239]

Chicago - Studio Albums 1979-2008 (2015) [10CD Box Set]

Tracklist CD10 - 2008 - Stone Of Sisyphus (XXXII) (01:09:42):

01. Stone Of Sisyphus 04:11
02. Bigger Than Elvis 04:31
03. All The Years 04:16
04. Mah-Jong 04:42
05. Sleeping In The Middle Of The Bed 04:45
06. Let's Take A Lifetime 04:56
07. The Pull 04:17
08. Here With Me (Candle For The Dark) 04:11
09. Plaid 04:59
10. Cry For The Lost 05:18
11. The Show Must Go On 05:25

Bonus Selection:
12. Love Is Forever (Demo) 04:14
13. Mah-Jong (Demo) 04:59
14. Let's Take A Lifetime (Demo) 04:15
15. Stone Of Sisyphus (No Rhythm Loop) 04:35

Exact Audio Copy V1.1 from 23. June 2015

EAC extraction logfile from 15. August 2015, 9:08

Chicago / Stone Of Sisyphus (XXXII)

Used drive : PLEXTOR BD-R PX-B950SA Adapter: 1 ID: 1

Read mode : Secure
Utilize accurate stream : Yes
Defeat audio cache : Yes
Make use of C2 pointers : No

Read offset correction : 6
Overread into Lead-In and Lead-Out : No
Fill up missing offset samples with silence : Yes
Delete leading and trailing silent blocks : No
Null samples used in CRC calculations : Yes
Used interface : Native Win32 interface for Win NT & 2000

Used output format : Internal WAV Routines
Sample format : 44.100 Hz; 16 Bit; Stereo


TOC of the extracted CD

Track | Start | Length | Start sector | End sector
––––––––––––––––––––––––––––-
1 | 0:00.00 | 4:11.39 | 0 | 18863
2 | 4:11.39 | 4:31.52 | 18864 | 39240
3 | 8:43.16 | 4:16.18 | 39241 | 58458
4 | 12:59.34 | 4:42.47 | 58459 | 79655
5 | 17:42.06 | 4:45.59 | 79656 | 101089
6 | 22:27.65 | 4:56.26 | 101090 | 123315
7 | 27:24.16 | 4:17.67 | 123316 | 142657
8 | 31:42.08 | 4:11.13 | 142658 | 161495
9 | 35:53.21 | 4:59.68 | 161496 | 183988
10 | 40:53.14 | 5:18.36 | 183989 | 207874
11 | 46:11.50 | 5:25.56 | 207875 | 232305
12 | 51:37.31 | 4:14.56 | 232306 | 251411
13 | 55:52.12 | 4:59.57 | 251412 | 273893
14 | 60:51.69 | 4:15.16 | 273894 | 293034
15 | 65:07.10 | 4:35.08 | 293035 | 313667


Range status and errors

Selected range

Filename C:\Users\Meijin\Desktop\ALLexxess\Chicago\2015 Studio Albums 1979-2008 (10CD Box Set Rhino Records)\2008 Stone Of Sisyphus (XXXII)\Chicago - Stone Of Sisyphus (XXXII).wav

Peak level 100.0 %
Extraction speed 8.3 X
Range quality 99.9 %
Test CRC 6E838C49
Copy CRC 6E838C49
Copy OK

No errors occurred


AccurateRip summary

Track 1 accurately ripped (confidence 17) [9AB5F633] (AR v2)
Track 2 accurately ripped (confidence 17) [207D0637] (AR v2)
Track 3 accurately ripped (confidence 17) [A268F7E5] (AR v2)
Track 4 accurately ripped (confidence 17) [A57129D8] (AR v2)
Track 5 accurately ripped (confidence 17) [C820DBD0] (AR v2)
Track 6 accurately ripped (confidence 17) [E1BE6D0E] (AR v2)
Track 7 accurately ripped (confidence 17) [6FD4AEA2] (AR v2)
Track 8 accurately ripped (confidence 17) [B95AA614] (AR v2)
Track 9 accurately ripped (confidence 17) [5BECCF92] (AR v2)
Track 10 accurately ripped (confidence 17) [7CFD690C] (AR v2)
Track 11 accurately ripped (confidence 17) [3B76B9A2] (AR v2)
Track 12 accurately ripped (confidence 16) [62198954] (AR v2)
Track 13 accurately ripped (confidence 16) [99E203BE] (AR v2)
Track 14 accurately ripped (confidence 16) [B48DA0D6] (AR v2)
Track 15 accurately ripped (confidence 16) [028D8F79] (AR v2)

All tracks accurately ripped

End of status report

–– CUETools DB Plugin V2.1.6

[CTDB TOCID: sLi_cILiPCojIugAUc9r8YincQQ-] found
Submit result: sLi_cILiPCojIugAUc9r8YincQQ- has been confirmed
Track | CTDB Status
1 | (35/36) Accurately ripped
2 | (35/36) Accurately ripped
3 | (35/36) Accurately ripped
4 | (35/36) Accurately ripped
5 | (35/36) Accurately ripped
6 | (35/36) Accurately ripped
7 | (35/36) Accurately ripped
8 | (35/36) Accurately ripped
9 | (35/36) Accurately ripped
10 | (35/36) Accurately ripped
11 | (35/36) Accurately ripped
12 | (35/36) Accurately ripped
13 | (34/36) Accurately ripped
14 | (35/36) Accurately ripped
15 | (34/36) Accurately ripped


==== Log checksum 1927C8CC9AA244A6699C93F008F9098CD287030E830B9252FA4E23A6F7392AC1 ====

foobar2000 1.2.9 / Dynamic Range Meter 1.1.1
log date: 2015-08-25 17:34:06

––––––––––––––––––––––––––––––––––––––––
Analyzed: Chicago / Stone Of Sisyphus (XXXII)
––––––––––––––––––––––––––––––––––––––––

DR Peak RMS Duration Track
––––––––––––––––––––––––––––––––––––––––
DR9 0.00 dB -11.00 dB 4:12 01-Stone Of Sisyphus
DR10 0.00 dB -14.02 dB 4:32 02-Bigger Than Elvis
DR11 0.00 dB -12.59 dB 4:16 03-All The Years
DR11 0.00 dB -13.12 dB 4:43 04-Mah-Jong
DR11 0.00 dB -12.28 dB 4:46 05-Sleeping In The Middle Of The Bed
DR11 0.00 dB -14.02 dB 4:56 06-Let's Take A Lifetime
DR10 0.00 dB -12.08 dB 4:18 07-The Pull
DR11 0.00 dB -13.06 dB 4:11 08-Here With Me (A Candle For The Dark)
DR10 0.00 dB -11.75 dB 5:00 09-Plaid
DR11 0.00 dB -13.27 dB 5:18 10-Cry For The Lost
DR11 0.00 dB -13.09 dB 5:26 11-The Show Must Go On
DR6 -2.37 dB -12.45 dB 4:15 12-Love Is Forever (Demo) / Bonus
DR11 -3.90 dB -16.42 dB 5:00 13-Mah-Jong (Demo) / Bonus
DR11 -3.24 dB -16.73 dB 4:15 14-Let's Take A Lifetime (Demo) / Bonus
DR7 -3.87 dB -12.78 dB 4:35 15-Stone Of Sisyphus (No Rhythm Loop) / Bonus
––––––––––––––––––––––––––––––––––––––––

Number of tracks: 15
Official DR value: DR10

Samplerate: 44100 Hz
Channels: 2
Bits per sample: 16
Bitrate: 943 kbps
Codec: FLAC

[CUETools log; Date: 22.08.2015 17:31:02; Version: 2.1.4]
[CTDB TOCID: sLi_cILiPCojIugAUc9r8YincQQ-] found.
Track | CTDB Status
1 | (36/37) Accurately ripped
2 | (36/37) Accurately ripped
3 | (36/37) Accurately ripped
4 | (36/37) Accurately ripped
5 | (36/37) Accurately ripped
6 | (36/37) Accurately ripped
7 | (36/37) Accurately ripped
8 | (36/37) Accurately ripped
9 | (36/37) Accurately ripped
10 | (36/37) Accurately ripped
11 | (36/37) Accurately ripped
12 | (36/37) Accurately ripped
13 | (35/37) Accurately ripped
14 | (36/37) Accurately ripped
15 | (35/37) Accurately ripped
[AccurateRip ID: 0025db3f-01af91b8-dd10560f] found.
Track [ CRC | V2 ] Status
01 [176a08c9|9ab5f633] (019+017/101) Accurately ripped
02 [5f974a83|207d0637] (019+017/101) Accurately ripped
03 [4141378b|a268f7e5] (019+017/101) Accurately ripped
04 [3cb0e453|a57129d8] (019+017/100) Accurately ripped
05 [5975b062|c820dbd0] (019+017/100) Accurately ripped
06 [aca82c8f|e1be6d0e] (019+017/100) Accurately ripped
07 [2ab9afe2|6fd4aea2] (019+017/100) Accurately ripped
08 [c993f704|b95aa614] (018+017/099) Accurately ripped
09 [a42395d9|5beccf92] (019+017/100) Accurately ripped
10 [2ed42ae4|7cfd690c] (019+017/100) Accurately ripped
11 [ba7ef75b|3b76b9a2] (019+017/101) Accurately ripped
12 [8ac8615e|62198954] (019+016/100) Accurately ripped
13 [2d19d3a3|99e203be] (019+016/100) Accurately ripped
14 [eab63175|b48da0d6] (019+016/100) Accurately ripped
15 [eb9f5dab|028d8f79] (019+016/095) Accurately ripped
Offsetted by -670:
01 [809ee14a] (005/101) Accurately ripped
02 [2639407e] (005/101) Accurately ripped
03 [7fff8d3a] (005/101) Accurately ripped
04 [9e5e91a5] (005/100) Accurately ripped
05 [cc5cb150] (005/100) Accurately ripped
06 [d37e0ead] (005/100) Accurately ripped
07 [2fc9b47d] (005/100) Accurately ripped
08 [0e20e7e7] (005/099) Accurately ripped
09 [94b5b5fb] (005/100) Accurately ripped
10 [8cc9ede4] (005/100) Accurately ripped
11 [1a9e1c51] (005/101) Accurately ripped
12 [c70ecd83] (005/100) Accurately ripped
13 [dec641cf] (005/100) Accurately ripped
14 [c626b0f7] (005/100) Accurately ripped
15 [996653c5] (004/095) Accurately ripped
Offsetted by -6:
01 [eebda589] (032/101) Accurately ripped
02 [21c720ad] (032/101) Accurately ripped
03 [dfe04c41] (032/101) Accurately ripped
04 [47dee506] (031/100) Accurately ripped
05 [68500d3b] (031/100) Accurately ripped
06 [c37ad265] (031/100) Accurately ripped
07 [1cf06958] (031/100) Accurately ripped
08 [aadaf5e9] (031/099) Accurately ripped
09 [3cc4317f] (031/100) Accurately ripped
10 [c2c44bf4] (031/100) Accurately ripped
11 [82733a3c] (032/101) Accurately ripped
12 [3408b84a] (032/100) Accurately ripped
13 [9302217b] (032/100) Accurately ripped
14 [c1c498c4] (032/100) Accurately ripped
15 [747a7142] (028/095) Accurately ripped

Track Peak [ CRC32 ] [W/O NULL] [ LOG ]
– 100,0 [6E838C49] [092329E5] CRC32
01 100,0 [41F44353] [38A0F2B8]
02 100,0 [7EC0E521] [459ED532]
03 100,0 [93493275] [5F95DF77]
04 100,0 [37B2CF1A] [39986981]
05 100,0 [9A83349C] [6BD3811E]
06 100,0 [BDB2DB0F] [DB769BB0]
07 100,0 [20EB3267] [DD52C4CB]
08 100,0 [B05DB5F8] [BF673075]
09 100,0 [AF232094] [6E971718]
10 100,0 [E9DA7DE4] [732019C7]
11 100,0 [CD9BC686] [CF84D110]
12 76,0 [1ABA8E56] [9F0351C7]
13 63,8 [D0CAC66C] [CC723291]
14 68,8 [D24BFCC9] [D32AF700]
15 64,0 [DBA8499E] [9F4C4083]

Chicago - Studio Albums 1979-2008 (2015) [10CD Box Set]

All thanks go to ALLexxess

Chicago in my Blog

Download Chicago - Studio Albums 1979-2008 (2015):