Subcategories

Chick Corea Elektric Band - Beneath The Mask (1991) [Repost]

Posted By: tiburon
Chick Corea Elektric Band - Beneath The Mask (1991) [Repost]

Chick Corea Elektric Band - Beneath The Mask (1991)
EAC 0.99pb4 | FLAC tracks level 8 | Cue+Log+M3U | Full Scans 300dpi | 382MB + 5% Recovery
Genre: Fusion

The fifth and final recording by the original version of Chick Corea's Elektric Band is not quite up to the level of the past few sets due to some forgettable compositions. The keyboardist/leader, guitarist Frank Gambale, and saxophonist Eric Marienthal create some fine solos and the ensembles (with bassist John Patitucci and drummer Dave Weckl) are tight, making this a worthwhile but not essential release from the top fusion group.
Track List
01. Beneath The Mask 3:31
02. Little Things That Count 3:47
03. One Of Us Is Over 40. 4:55
04. A Wave Goodbye 4:55
05. Lifescape 5:10
06. Jammin E. Cricket 6:51
07. Charged Particles 5:17
08. Free Step 7:44
09. 99 Flavors 3:52
10. Illusions 9:44

musicians
Chick Corea - keyboards
Eric Marienthal - soprano and alto saxophones
Frank Gambale - acoustic and electric guitars, guitar synth
John Patitucci - 5 & 6 string basses
Dave Weckl - drums

Produced by Chick Corea


Exact Audio Copy V0.99 prebeta 4 from 23. January 2008

EAC extraction logfile from 21. June 2008, 17:21

Chick Corea Elektric Band / Beneath The Mask

Used drive : PLEXTOR CD-R PREMIUM2 Adapter: 1 ID: 1

Read mode : Secure
Utilize accurate stream : Yes
Defeat audio cache : Yes
Make use of C2 pointers : No

Read offset correction : 30
Overread into Lead-In and Lead-Out : No
Fill up missing offset samples with silence : Yes
Delete leading and trailing silent blocks : No
Null samples used in CRC calculations : Yes
Used interface : Installed external ASPI interface
Gap handling : Appended to previous track

Used output format : User Defined Encoder
Selected bitrate : 32 kBit/s
Quality : High
Add ID3 tag : No
Command line compressor : C:\Programmi\FLAC\flac.exe
Additional command line options : -8 -V -T "ARTIST=%a" -T "TITLE=%t" -T "ALBUM=%g" -T "DATE=%y" -T "TRACKNUMBER=%n" -T "GENRE=%m" -T "COMMENT=EAC FLAC -8" %s


TOC of the extracted CD

Track | Start | Length | Start sector | End sector
––––––––––––––––––––––––––––-
1 | 0:00.00 | 3:33.72 | 0 | 16046
2 | 3:33.72 | 3:50.45 | 16047 | 33341
3 | 7:24.42 | 4:57.68 | 33342 | 55684
4 | 12:22.35 | 4:46.60 | 55685 | 77194
5 | 17:09.20 | 5:12.35 | 77195 | 100629
6 | 22:21.55 | 6:54.70 | 100630 | 131749
7 | 29:16.50 | 5:21.32 | 131750 | 155856
8 | 34:38.07 | 7:47.25 | 155857 | 190906
9 | 42:25.32 | 3:56.60 | 190907 | 208666
10 | 46:22.17 | 9:45.10 | 208667 | 252551


Track 1

Filename C:\My Rip\01 - Beneath The Mask.wav

Pre-gap length 0:00:02.00

Peak level 97.6 %
Track quality 100.0 %
Test CRC 98D899CA
Copy CRC 98D899CA
Track not present in AccurateRip database
Copy OK

Track 2

Filename C:\My Rip\02 - Little Things That Count.wav

Pre-gap length 0:00:02.36

Peak level 97.7 %
Track quality 100.0 %
Test CRC C7B3E2A6
Copy CRC C7B3E2A6
Track not present in AccurateRip database
Copy OK

Track 3

Filename C:\My Rip\03 - One Of Us Is Over 40..wav

Pre-gap length 0:00:02.29

Peak level 100.0 %
Track quality 100.0 %
Test CRC 947408D5
Copy CRC 947408D5
Track not present in AccurateRip database
Copy OK

Track 4

Filename C:\My Rip\04 - A Wave Goodbye.wav

Pre-gap length 0:00:01.97

Peak level 96.8 %
Track quality 100.0 %
Test CRC 27197C85
Copy CRC 27197C85
Track not present in AccurateRip database
Copy OK

Track 5

Filename C:\My Rip\05 - Lifescape.wav

Peak level 97.8 %
Track quality 99.9 %
Test CRC E90F45B5
Copy CRC E90F45B5
Track not present in AccurateRip database
Copy OK

Track 6

Filename C:\My Rip\06 - Jammin E. Cricket.wav

Pre-gap length 0:00:01.40

Peak level 98.3 %
Track quality 100.0 %
Test CRC ABB1DA1F
Copy CRC ABB1DA1F
Track not present in AccurateRip database
Copy OK

Track 7

Filename C:\My Rip\07 - Charged Particles.wav

Pre-gap length 0:00:01.53

Peak level 98.7 %
Track quality 99.9 %
Test CRC A135AFB6
Copy CRC A135AFB6
Track not present in AccurateRip database
Copy OK

Track 8

Filename C:\My Rip\08 - Free Step.wav

Pre-gap length 0:00:02.22

Peak level 99.8 %
Track quality 100.0 %
Test CRC 10B761DD
Copy CRC 10B761DD
Track not present in AccurateRip database
Copy OK

Track 9

Filename C:\My Rip\09 - 99 Flavors.wav

Pre-gap length 0:00:02.16

Peak level 98.3 %
Track quality 100.0 %
Test CRC 538FD663
Copy CRC 538FD663
Track not present in AccurateRip database
Copy OK

Track 10

Filename C:\My Rip\10 - Illusions.wav

Pre-gap length 0:00:02.53

Peak level 98.8 %
Track quality 99.9 %
Test CRC 3C1E64F8
Copy CRC 3C1E64F8
Track not present in AccurateRip database
Copy OK


None of the tracks are present in the AccurateRip database

No errors occurred

End of status report


––––––––––––––––––––––––––––––––––––––––
Analyzed: Chick Corea Elektric Band / Beneath The Mask
––––––––––––––––––––––––––––––––––––––––

DR Peak RMS Duration Track
––––––––––––––––––––––––––––––––––––––––
DR10 -0.21 dB -12.26 dB 3:34 01-Beneath The Mask
DR8 -0.19 dB -11.42 dB 3:51 02-Little Things That Count
DR8 0.00 dB -10.54 dB 4:58 03-One Of Us Is Over 40.
DR10 -0.28 dB -12.82 dB 4:47 04-A Wave Goodbye
DR9 -0.19 dB -11.74 dB 5:12 05-Lifescape
DR8 -0.14 dB -11.47 dB 6:55 06-Jammin E. Cricket
DR7 -0.11 dB -9.02 dB 5:21 07-Charged Particles
DR8 -0.01 dB -11.30 dB 7:47 08-Free Step
DR10 -0.14 dB -12.68 dB 3:57 09-99 Flavors
DR9 -0.10 dB -11.79 dB 9:45 10-Illusions
––––––––––––––––––––––––––––––––––––––––

Number of tracks: 10
Official DR value: DR9

Samplerate: 44100 Hz
Channels: 2
Bits per sample: 16
Bitrate: 923 kbps
Codec: FLAC
================================================================================

Chick Corea Elektric Band - Beneath The Mask (1991) [Repost]
Chick Corea Elektric Band - Beneath The Mask (1991) [Repost]
Chick Corea Elektric Band - Beneath The Mask (1991) [Repost]


Rip by Sarchiapone