Subcategories

Chillum (Second Hand) - Chillum (1971) (SHM-CD)

Posted By: uff
Chillum (Second Hand) - Chillum (1971) (SHM-CD)

Chillum (Second Hand) - Chillum (1971) (SHM-CD)
Rock | 1cd | EAC Rip | Ape + Cue + Log | covers
Belle Antique, Belle 101682 | rel: 2010 | 310Mb

The sole album by Chillum was an oddity, in that it was for most intents and purposes an album that the British prog rock band Second Hand released under a different name. Unlike the two Second Hand LPs that had predated this December 1971 release, however, Chillum was an all-instrumental album. Some of it was actually taken from the tape they made when they were auditioning guitarist Tony McGill, while others were done after McGill had officially joined. While the result was pretty much a record of improvised instrumental music, as those things go it's pretty tight, and in some ways more accessible than Second Hand's far more ambitious and eclectic (yet in some ways jarring) previous LP, Death May Be Your Santa Claus. The real star of this effort is keyboardist (usually on Mellotron, but also on organ and piano) Ken Elliott, the focal point of a sound that is reminiscent of early-'70s Soft Machine in some respects, if not as planned out or distinguished. The song titles are certainly in the whimsically surreal mode a la Soft Machine and some other art rock and avant-garde acts of the time, including "Land of a Thousand Dreams" and "Yes! We Have No Pajamas." Other parts might remind you of the more instrumentally oriented passages of period acts like King Crimson, with "Too Many Bananas" featuring an extended drum solo, and "Promenade des Anglaises" getting into an unexpectedly lighter cinematic tropical mood. The 2010 CD reissue on Sunbeam adds historical liner notes and four bonus tracks, all composed by Elliott and usually featuring him on piano. These are mostly in a slightly lighter and more playful mood, with Elliott offering some tentative vocals on the melancholy ballad "This Is Not Romance." ~Allmusic

Track listing
01. Introduction By Brain Surgeons From The Royal Free Hospital (0:16)
02. Brain Strain (22:03)
03. Land of a Thousand Dreams (1:20)
04. Too Many Bananas (4:15)
05. Yes! We Have No Pajamas (10:41)
06. Promenade des Anglaises (1:57)
07. The Lone Commuter (1:33)
08. Three Bllind Mice (1:45)
09. Celebration (6:05)
10. This Is Not Romance (5:12)
~ (55:09)

Personnel
- Bass, Violin, Vocals – George Hart
- Drums, Vibraphone [Vibes], Percussion, Noises, Vocals – Kieran O'Connor
- Guitar – Tony Mcgill
- Organ, Mellotron, Piano, Vocals – Ken Elliott


Exact Audio Copy V0.99 prebeta 5 from 4. May 2009

Отчёт EAC об извлечении, выполненном 27. декабря 2011, 15:45

Chillum / Chillum

Дисковод: Optiarc DVD RW AD-7203S Adapter: 3 ID: 0

Режим чтения : Достоверность
Использование точного потока : Да
Отключение кэша аудио : Да
Использование указателей C2 : Нет

Коррекция смещения при чтении : 48
Способность читать области Lead-in и Lead-out : Нет
Заполнение пропущенных сэмплов тишиной : Да
Удаление блоков с тишиной в начале и конце : Нет
При вычислениях CRC использовались нулевые сэмплы : Да
Интерфейс : Встроенный Win32-интерфейс для Win NT/2000

Выходной формат : Внутренние WAV-операции
Формат сэмплов : 44.100 Гц; 16 бит; стерео


TOC извлечённого CD

Трек | Старт | Длительность | Начальный сектор | Конечный сектор
––––––––––––––––––––––––––––––––––-
1 | 0:00.00 | 0:16.09 | 0 | 1208
2 | 0:16.09 | 22:02.57 | 1209 | 100415
3 | 22:18.66 | 1:19.53 | 100416 | 106393
4 | 23:38.44 | 4:15.08 | 106394 | 125526
5 | 27:53.52 | 10:41.28 | 125527 | 173629
6 | 38:35.05 | 1:57.27 | 173630 | 182431
7 | 40:32.32 | 1:33.07 | 182432 | 189413
8 | 42:05.39 | 1:45.18 | 189414 | 197306
9 | 43:50.57 | 6:05.30 | 197307 | 224711
10 | 49:56.12 | 5:12.26 | 224712 | 248137


Характеристики диапазона извлечения и сообщения об ошибках

Выбранный диапазон

Имя файла D:\M_\Chillum\Chillum - Chillum.wav

Пиковый уровень 98.8 %
Качество диапазона 100.0 %
CRC копии E3DA0015
Копирование… OK

Ошибок не произошло

Конец отчёта



[CUETools log; Date: 2015.11.27. 10:42:03; Version: 2.1.5]
[CTDB TOCID: h4ItN3FFYF7qFY91M4ut7ZeAOy8-] disk not present in database.
[AccurateRip ID: 0017a37b-00b63de3-800cec0a] found.
Track [ CRC | V2 ] Status
01 [02003a94|6692d1cd] (0+0/1) No match
02 [7835857b|f35414dd] (0+0/1) No match
03 [bc1bb690|d4a44454] (0+0/1) No match
04 [a545d4c7|525a88da] (0+0/1) No match
05 [88bb068e|1f966a8d] (0+0/1) No match
06 [a07fb237|633cae1a] (0+0/1) No match
07 [c59d06f4|e26382fc] (0+0/1) No match
08 [05c66907|a996f81f] (0+0/1) No match
09 [a5d6262a|62d0baf6] (0+0/1) No match
10 [1c554691|349d4922] (0+0/1) No match
Offsetted by 48:
01 [d8f0a686] (1/1) Accurately ripped
02 [eca7bcbd] (0/1) No match (V2 was not tested)
03 [6c1fdfe0] (1/1) Accurately ripped
04 [f4e6b27f] (1/1) Accurately ripped
05 [4d53e513] (1/1) Accurately ripped
06 [42fd44fa] (1/1) Accurately ripped
07 [7462f3a4] (1/1) Accurately ripped
08 [52395497] (1/1) Accurately ripped
09 [0a8bc06a] (1/1) Accurately ripped
10 [6d4f2da1] (1/1) Accurately ripped

Track Peak [ CRC32 ] [W/O NULL]
– 98,8 [E3DA0015] [37958553]
01 84,1 [DEFD26FA] [2A94F317]
02 98,8 [297FA18B] [C47407D2]
03 48,2 [01AAF075] [7D09C3A4]
04 98,8 [09B75B2C] [0B38C888]
05 98,8 [544900E7] [21650543]
06 98,8 [0EB601FA] [36B60E6E]
07 98,8 [B6712856] [FF77CCFE]
08 98,8 [2FFE0E5A] [0E0BE093]
09 80,7 [410DF397] [97C110BC]
10 73,1 [289E2D26] [0F63EBB6]


Thx to sasos
Oboom

Yunfile


password: asd