Subcategories

Choeurs et Orchestre de l’Opera de Lyon, John Nelson - Berlioz: Béatrice et Bénédict (1992)

Posted By: tirexiss
Choeurs et Orchestre de l’Opera de Lyon, John Nelson - Berlioz: Béatrice et Bénédict (1992)

Choeurs et Orchestre de l’Opera de Lyon, John Nelson - Berlioz: Béatrice et Bénédict (1992)
EAC | FLAC (image+.cue, log) | Covers Included | 01:51:31 | 584 MB
Genre: Classical, Opera | Label: Erato Disques | Catalog: 2292-45773-2

Béatrice et Bénédict, Berlioz's last completed work, is based on Shakespeare's Much Ado About Nothing, but the libretto, by the composer, dispenses with most of the intrigue of the original and reduces the plot to a single premise: Béatrice et Bénédict mask their affection for each other by squabbling, and then finally come to their senses and get married. Although designated an opera, it is closer in effect to an opéra comique because of its very extensive use of spoken dialogue. The effectiveness of a recording of an opera with this amount of dialogue depends at least in part on the persuasiveness of the spoken drama, and on that count this version is largely successful because it uses professional actors. They make the comedy plausibly fun, so that the listener is fully engaged, not just waiting around impatiently for the music to start up again. A great amount of attention has been given to production values, with impressive sound effects and realistic spatial blocking. The vocal performances are for the most part well taken, but the women outshine the men. Soprano Sylvia McNair in the relatively small role of Héro practically steals the show. Her aria, "Je vais le voir," is the undisputed highlight of the album because of the music – this is Berlioz at his most melodically eccentric, most deeply felt, and most inspired – and because of McNair's radiant, soaring performance. A close runner-up is the gorgeous, graceful women's trio, "Je vais d'un coeur aimant être la joie et le bonheur suprême," with McNair, Susan Graham as Béatrice, and Catherine Robbin as Ursule, Héro's lady-in-waiting. The rhapsodic duet with McNair and Robbin, "Nuit paisible et sereine!" also deserves mention, as does Béatrice's aria, "Dieu! que viens-je d'entendre?"; Berlioz's writing for women in this opera is consistently spectacular. In the opera's leading role, Graham sings with warmth and smooth lyricism, but because of the fragmented nature of the opera, it's difficult for her, or almost any other cast member, for that matter, to establish much of a sense of dramatic momentum. An exception is baritone Gabriel Bacquier as Somarone, a comic character invented by Berlioz to lampoon the pomposity of the composer Spontini. Bacquier is in excellent vocal form and he is a natural comedian, and he alone performs the spoken dialogue as well as singing. The remaining singers, Jean-Luc Viala as Bénédict, Vincent le Texier as Don Pedro, and Gilles Cachemaille as Claudio, are adequate at best. John Nelson, leading the Orchestra and Chorus of l'Opéra de Lyon, delivers an exceptionally polished performance and keeps things moving at a vivacious clip. The sound of the 1991 recording is disappointingly one-dimensional (except, paradoxically, for the sections featuring the actors), dull, and sometimes distant.

Choeurs et Orchestre de l’Opera de Lyon, John Nelson - Berlioz: Béatrice et Bénédict (1992)

Track List:

CD 1:
01. Beatrice et Benedict, opera, H. 138: Ouverture
02. Beatrice et Benedict, opera, H. 138: Act 1. Scene 1. No. 1. Choeur. Le More est en fuite! Victoire!
03. Scene 2. Enfin, cette guerre est terminee! / Scene 3. Monseigneur, je vous annonce l'arri
04. Scene 4. No. 2. Choeur. Le More est en fuite! Victorie! / Scene 5. Ne l'ecoutez pas, mes
05. Scene 5. No. 2bis. Sicilienne
06. Scene 6. No. 3. Air. Je vais le voir
07. Scene 7. Recevez mes felicitations, general!
08. Scene 7. No. 4. Duo. Comment le dedain pourrait-il mourir?
09. Scene 8. Ma fille, suivez-moi! / Scene 9. Benedict, ne partez pas!
10. Scene 9. No. 5. Trio. Me marier? Dieu me pardonne!
11. Scene 10. Je vous quitte, messieurs, vous me convertiriez / Scene 11. Allons! chacun de v
12. Scene 11. No. 6. Epithalame grotesque. Mourez, tendres epoux
13. Scene 11. Ah! mon Dieu! vous me beuglez cet epithalame comme un De produndis! / Scene 12.
14. Scene 13. No. 6bis. Epithalame grotesque. Mourez, tendres epoux
15. Scene 13. Comment? 'mourez'? / Scene 14. Eh bien, Leonato / Scene 15. Non, il faut que le
16. Scene 15. No. 7. Rondo. Ah! Je vais l'aimer, mon coeur me l'annonce!
17. Scene 15. Voici la belle Hero et son amie / Scene 16. Je sais bien bon gre a mon pere
18. Scene 16. No. 8. Duo (Nocturne). Vous soupirez, Madame?… Nuit paisible et sereine!

Exact Audio Copy V1.1 from 23. June 2015

EAC extraction logfile from 22. July 2017, 18:28

Hector Berlioz / Béatrice et Bénédict – CD1 Ouverture et Acte I

Used drive : TSSTcorpCDDVDW SE-208AB Adapter: 1 ID: 1

Read mode : Secure
Utilize accurate stream : Yes
Defeat audio cache : Yes
Make use of C2 pointers : No

Read offset correction : 6
Overread into Lead-In and Lead-Out : No
Fill up missing offset samples with silence : Yes
Delete leading and trailing silent blocks : No
Null samples used in CRC calculations : Yes
Used interface : Native Win32 interface for Win NT & 2000

Used output format : User Defined Encoder
Selected bitrate : 1024 kBit/s
Quality : High
Add ID3 tag : No
Command line compressor : C:\Program Files (x86)\Exact Audio Copy\FLAC\FLAC.EXE
Additional command line options : -8 -V -T "ARTIST=%artist%" -T "TITLE=%title%" -T "ALBUM=%albumtitle%" -T "DATE=%year%" -T "TRACKNUMBER=%tracknr%" -T "TOTALTRACKS=%numtracks%" -T "GENRE=%genre%" -T "ALBUMARTIST=%albumartist%" -T "ALBUM ARTIST=%albumartist%" -T "COMMENT=EAC Secure Mode, Test & Copy, AccurateRip, FLAC -8" %source%


TOC of the extracted CD

Track | Start | Length | Start sector | End sector
––––––––––––––––––––––––––––-
1 | 0:00.00 | 7:50.63 | 0 | 35312
2 | 7:50.63 | 1:57.32 | 35313 | 44119
3 | 9:48.20 | 2:41.15 | 44120 | 56209
4 | 12:29.35 | 1:17.43 | 56210 | 62027
5 | 13:47.03 | 1:42.00 | 62028 | 69677
6 | 15:29.03 | 8:09.42 | 69678 | 106394
7 | 23:38.45 | 0:51.55 | 106395 | 110274
8 | 24:30.25 | 6:50.08 | 110275 | 141032
9 | 31:20.33 | 0:51.52 | 141033 | 144909
10 | 32:12.10 | 6:16.38 | 144910 | 173147
11 | 38:28.48 | 2:21.42 | 173148 | 183764
12 | 40:50.15 | 2:24.30 | 183765 | 194594
13 | 43:14.45 | 2:53.50 | 194595 | 207619
14 | 46:08.20 | 2:23.65 | 207620 | 218409
15 | 48:32.10 | 6:25.05 | 218410 | 247289
16 | 54:57.15 | 2:28.40 | 247290 | 258429
17 | 57:25.55 | 1:46.15 | 258430 | 266394
18 | 59:11.70 | 9:56.63 | 266395 | 311157


Range status and errors

Selected range

Filename C:\EAC RIPS\Berlioz - Béatrice et Bénédict – CD1.wav

Peak level 96.4 %
Extraction speed 2.1 X
Range quality 100.0 %
Test CRC 2CC476AD
Copy CRC 2CC476AD
Copy OK

No errors occurred


AccurateRip summary

Track 1 accurately ripped (confidence 10) [B41CF41C] (AR v2)
Track 2 accurately ripped (confidence 11) [E6DB10C1] (AR v2)
Track 3 accurately ripped (confidence 11) [7DF84D86] (AR v2)
Track 4 accurately ripped (confidence 11) [6A711C7E] (AR v2)
Track 5 accurately ripped (confidence 11) [C4717CA9] (AR v2)
Track 6 accurately ripped (confidence 11) [BA84530C] (AR v2)
Track 7 accurately ripped (confidence 11) [6F7307BB] (AR v2)
Track 8 accurately ripped (confidence 11) [96E18D02] (AR v2)
Track 9 accurately ripped (confidence 11) [5066C571] (AR v2)
Track 10 accurately ripped (confidence 11) [82A49E89] (AR v2)
Track 11 accurately ripped (confidence 11) [15350A48] (AR v2)
Track 12 accurately ripped (confidence 11) [42C66CB0] (AR v2)
Track 13 accurately ripped (confidence 11) [9E455A94] (AR v2)
Track 14 accurately ripped (confidence 11) [DBC4E946] (AR v2)
Track 15 accurately ripped (confidence 11) [CBA2B11C] (AR v2)
Track 16 accurately ripped (confidence 11) [2724AB44] (AR v2)
Track 17 accurately ripped (confidence 11) [7BF5A453] (AR v2)
Track 18 accurately ripped (confidence 11) [6AF26EC1] (AR v2)

All tracks accurately ripped

End of status report

–– CUETools DB Plugin V2.1.6

[CTDB TOCID: xQjqUOmp0aOjDVBSr_KMGvXlB0g-] found
Submit result: xQjqUOmp0aOjDVBSr_KMGvXlB0g- has been confirmed
Track | CTDB Status
1 | ( 9/10) Accurately ripped
2 | (10/10) Accurately ripped
3 | (10/10) Accurately ripped
4 | (10/10) Accurately ripped
5 | (10/10) Accurately ripped
6 | (10/10) Accurately ripped
7 | (10/10) Accurately ripped
8 | ( 9/10) Accurately ripped
9 | (10/10) Accurately ripped
10 | (10/10) Accurately ripped
11 | (10/10) Accurately ripped
12 | (10/10) Accurately ripped
13 | ( 9/10) Accurately ripped
14 | (10/10) Accurately ripped
15 | ( 9/10) Accurately ripped
16 | (10/10) Accurately ripped
17 | (10/10) Accurately ripped
18 | (10/10) Accurately ripped


==== Log checksum 29B23A0655FD95754B7979254143ACFAE483F0E928879625462240611F651A30 ====

[CUETools log; Date: 18.08.2017 10:14:53; Version: 2.1.5]
[CTDB TOCID: xQjqUOmp0aOjDVBSr_KMGvXlB0g-] found.
Track | CTDB Status
1 | (10/11) Accurately ripped
2 | (11/11) Accurately ripped
3 | (11/11) Accurately ripped
4 | (11/11) Accurately ripped
5 | (11/11) Accurately ripped
6 | (11/11) Accurately ripped
7 | (11/11) Accurately ripped
8 | (10/11) Accurately ripped
9 | (11/11) Accurately ripped
10 | (11/11) Accurately ripped
11 | (11/11) Accurately ripped
12 | (11/11) Accurately ripped
13 | (10/11) Accurately ripped
14 | (11/11) Accurately ripped
15 | (10/11) Accurately ripped
16 | (11/11) Accurately ripped
17 | (11/11) Accurately ripped
18 | (11/11) Accurately ripped
[AccurateRip ID: 002b31b5-023a62e0-06103412] found.
Track [ CRC | V2 ] Status
01 [3e16014b|b41cf41c] (06+10/16) Accurately ripped
02 [325cd46d|e6db10c1] (06+11/17) Accurately ripped
03 [cca67ccd|7df84d86] (06+11/17) Accurately ripped
04 [76507b28|6a711c7e] (06+11/17) Accurately ripped
05 [da3a98d0|c4717ca9] (06+11/17) Accurately ripped
06 [8631bc33|ba84530c] (06+11/17) Accurately ripped
07 [b30bd27d|6f7307bb] (06+11/17) Accurately ripped
08 [69ebcc36|96e18d02] (05+11/16) Accurately ripped
09 [fac0adc5|5066c571] (06+11/17) Accurately ripped
10 [4c38d6d5|82a49e89] (06+11/17) Accurately ripped
11 [ed972fd2|15350a48] (06+11/17) Accurately ripped
12 [7a5b780b|42c66cb0] (05+11/16) Accurately ripped
13 [6acf371e|9e455a94] (06+11/17) Accurately ripped
14 [38d55597|dbc4e946] (06+11/17) Accurately ripped
15 [f931f1de|cba2b11c] (06+11/17) Accurately ripped
16 [74bbbe53|2724ab44] (06+11/17) Accurately ripped
17 [2c7c22cb|7bf5a453] (06+11/17) Accurately ripped
18 [2f402ab6|6af26ec1] (04+11/15) Accurately ripped
Offsetted by -664:
01 [1f20e6e1] (00/16) No match (V2 was not tested)
02 [f6a468de] (00/17) No match (V2 was not tested)
03 [24c1fd66] (00/17) No match (V2 was not tested)
04 [78c058f4] (00/17) No match (V2 was not tested)
05 [48cfe349] (00/17) No match (V2 was not tested)
06 [f5d2e34c] (00/17) No match (V2 was not tested)
07 [a4edfbc7] (00/17) No match (V2 was not tested)
08 [6f7c3b1f] (00/16) No match (V2 was not tested)
09 [5a0a003f] (00/17) No match (V2 was not tested)
10 [3a2bc7a2] (00/17) No match (V2 was not tested)
11 [6a1cce00] (00/17) No match (V2 was not tested)
12 [d5685378] (00/16) No match (V2 was not tested)
13 [5a1d8246] (00/17) No match (V2 was not tested)
14 [536ae9f1] (00/17) No match (V2 was not tested)
15 [91b01c6d] (00/17) No match (V2 was not tested)
16 [cbd2bea1] (00/17) No match (V2 was not tested)
17 [4dde303a] (00/17) No match (V2 was not tested)
18 [e561934d] (00/15) No match (V2 was not tested)

Track Peak [ CRC32 ] [W/O NULL] [ LOG ]
– 96,4 [2CC476AD] [869958EA] CRC32
01 73,3 [9AA4EA0B] [FE5A9723]
02 80,3 [2C1D6699] [59EBD05A]
03 33,5 [E4B1B63E] [6B9F2308]
04 75,0 [C793AAD9] [DA0CA82A]
05 17,7 [852CDACC] [98ADB6F5]
06 96,4 [13A7EFB2] [2F19E1F1]
07 27,9 [6553671A] [7573060B]
08 92,3 [C0471960] [C5E72E7A]
09 22,7 [A66BA317] [C58F42A5]
10 71,2 [B45E6484] [2EADECAA]
11 38,5 [DC7515F9] [8B20EECF]
12 49,1 [9A98406F] [99EE0C1A]
13 44,3 [1AC6C9BC] [4AF106B9]
14 60,6 [C906E525] [E27ED849]
15 29,1 [D3D4A414] [31FF0CC6]
16 65,0 [A9D1250E] [1962ECA4]
17 23,5 [6556E0A8] [026FDAC7]
18 49,8 [63982739] [9C5962A8]

CD 2:
01. Beatrice et Benedict, opera, H. 138: Entracte Sicilienne
02. Beatrice et Benedict, opera, H. 138: Act 2. Scene 1. Du vin! du vin!
03. Scene 1. No. 9. Improvisation et chanson a boire. Le vin de Syracuse
04. Scene 2. No. 10. Air. Dieu! que viens-je d'entendre?
05. Scene 3. Qu'as-tu donc, Beatrice?
06. Scene 3. No. 11. Trio. Je vais d'un coeur aimant etre la joie et le bonheur supreme
07. Scene 3. On nous attend, chere Ursule!
08. Scene 3. No. 12. Choeur lointain. Viens! Viens, de l'hymenee victime fortunee!
09. Scene 4. Ciel! / Scene 5. Restez, ma chere niece!
10. Act 2. Scene 5. No. 13. Marche nuptiale. Dieu qui guidas nos bras pour chasser l'infidele
11. Act 2. Scene 6. No. 14. Enseigne. Ici l'on voit Benedict, l'homme marie!
12. Scene 6. No. 15. Scherzo duettino. L'amour est un flambeau

Exact Audio Copy V1.1 from 23. June 2015

EAC extraction logfile from 22. July 2017, 19:29

Hector Berlioz / Béatrice et Bénédict – CD2 Acte II

Used drive : TSSTcorpCDDVDW SE-208AB Adapter: 1 ID: 1

Read mode : Secure
Utilize accurate stream : Yes
Defeat audio cache : Yes
Make use of C2 pointers : No

Read offset correction : 6
Overread into Lead-In and Lead-Out : No
Fill up missing offset samples with silence : Yes
Delete leading and trailing silent blocks : No
Null samples used in CRC calculations : Yes
Used interface : Native Win32 interface for Win NT & 2000

Used output format : User Defined Encoder
Selected bitrate : 1024 kBit/s
Quality : High
Add ID3 tag : No
Command line compressor : C:\Program Files (x86)\Exact Audio Copy\FLAC\FLAC.EXE
Additional command line options : -8 -V -T "ARTIST=%artist%" -T "TITLE=%title%" -T "ALBUM=%albumtitle%" -T "DATE=%year%" -T "TRACKNUMBER=%tracknr%" -T "TOTALTRACKS=%numtracks%" -T "GENRE=%genre%" -T "ALBUMARTIST=%albumartist%" -T "ALBUM ARTIST=%albumartist%" -T "COMMENT=EAC Secure Mode, Test & Copy, AccurateRip, FLAC -8" %source%


TOC of the extracted CD

Track | Start | Length | Start sector | End sector
––––––––––––––––––––––––––––-
1 | 0:00.00 | 1:44.40 | 0 | 7839
2 | 1:44.40 | 1:21.48 | 7840 | 13962
3 | 3:06.13 | 4:30.17 | 13963 | 34229
4 | 7:36.30 | 9:43.55 | 34230 | 78009
5 | 17:20.10 | 0:43.58 | 78010 | 81292
6 | 18:03.68 | 9:28.65 | 81293 | 123957
7 | 27:32.58 | 0:14.22 | 123958 | 125029
8 | 27:47.05 | 2:44.58 | 125030 | 137387
9 | 30:31.63 | 2:31.62 | 137388 | 148774
10 | 33:03.50 | 3:45.33 | 148775 | 165682
11 | 36:49.08 | 2:49.35 | 165683 | 178392
12 | 39:38.43 | 0:52.30 | 178393 | 182322
13 | 40:30.73 | 1:58.52 | 182323 | 191224


Range status and errors

Selected range

Filename C:\EAC RIPS\Berlioz - Béatrice et Bénédict – CD2.wav

Peak level 93.8 %
Extraction speed 1.7 X
Range quality 100.0 %
Test CRC FDBE6F30
Copy CRC FDBE6F30
Copy OK

No errors occurred


AccurateRip summary

Track 1 accurately ripped (confidence 11) [B99F74AC] (AR v2)
Track 2 accurately ripped (confidence 11) [AFE715D7] (AR v2)
Track 3 accurately ripped (confidence 11) [76E45974] (AR v2)
Track 4 accurately ripped (confidence 11) [78E08087] (AR v2)
Track 5 accurately ripped (confidence 11) [AECD42C2] (AR v2)
Track 6 accurately ripped (confidence 11) [71C00294] (AR v2)
Track 7 accurately ripped (confidence 11) [F61A9BC7] (AR v2)
Track 8 accurately ripped (confidence 11) [B1FD47BE] (AR v2)
Track 9 accurately ripped (confidence 11) [8971DDBE] (AR v2)
Track 10 accurately ripped (confidence 11) [0FA432D4] (AR v2)
Track 11 accurately ripped (confidence 11) [100940E9] (AR v2)
Track 12 accurately ripped (confidence 11) [62638F0E] (AR v2)
Track 13 accurately ripped (confidence 11) [2BCB0FFE] (AR v2)

All tracks accurately ripped

End of status report

–– CUETools DB Plugin V2.1.6

[CTDB TOCID: 2GUrVyCnWyt1MX2OymgV8EVZfX4-] found
Submit result: 2GUrVyCnWyt1MX2OymgV8EVZfX4- has been confirmed
Track | CTDB Status
1 | (12/12) Accurately ripped
2 | (12/12) Accurately ripped
3 | (12/12) Accurately ripped
4 | (12/12) Accurately ripped
5 | (12/12) Accurately ripped
6 | (12/12) Accurately ripped
7 | (12/12) Accurately ripped
8 | (12/12) Accurately ripped
9 | (12/12) Accurately ripped
10 | (11/12) Accurately ripped
11 | (12/12) Accurately ripped
12 | (12/12) Accurately ripped
13 | (12/12) Accurately ripped


==== Log checksum 24685EF393C5635241505B72CD127F792A38A4965F29FF643BAAA318D93E59C8 ====

[CUETools log; Date: 18.08.2017 10:13:58; Version: 2.1.5]
[CTDB TOCID: 2GUrVyCnWyt1MX2OymgV8EVZfX4-] found.
Track | CTDB Status
1 | (13/13) Accurately ripped
2 | (13/13) Accurately ripped
3 | (13/13) Accurately ripped
4 | (13/13) Accurately ripped
5 | (13/13) Accurately ripped
6 | (13/13) Accurately ripped
7 | (13/13) Accurately ripped
8 | (13/13) Accurately ripped
9 | (13/13) Accurately ripped
10 | (12/13) Accurately ripped
11 | (13/13) Accurately ripped
12 | (13/13) Accurately ripped
13 | (13/13) Accurately ripped
[AccurateRip ID: 001666cf-00dfec78-aa09f50d] found.
Track [ CRC | V2 ] Status
01 [04558182|b99f74ac] (05+11/16) Accurately ripped
02 [0a6e79e7|afe715d7] (05+11/16) Accurately ripped
03 [8958b32b|76e45974] (05+11/16) Accurately ripped
04 [c6d824a0|78e08087] (05+11/16) Accurately ripped
05 [e4ad4198|aecd42c2] (05+11/16) Accurately ripped
06 [86a9ebc1|71c00294] (05+11/16) Accurately ripped
07 [ee265099|f61a9bc7] (05+11/16) Accurately ripped
08 [33c0d122|b1fd47be] (05+11/16) Accurately ripped
09 [ea15299c|8971ddbe] (05+11/16) Accurately ripped
10 [beefe4b3|0fa432d4] (05+11/16) Accurately ripped
11 [76ace515|100940e9] (05+11/16) Accurately ripped
12 [3c88adf7|62638f0e] (05+11/16) Accurately ripped
13 [e6371679|2bcb0ffe] (05+11/16) Accurately ripped
Offsetted by -664:
01 [2b0837de] (00/16) No match (V2 was not tested)
02 [705ca872] (00/16) No match (V2 was not tested)
03 [7dd3094d] (00/16) No match (V2 was not tested)
04 [95e06206] (00/16) No match (V2 was not tested)
05 [ba236906] (00/16) No match (V2 was not tested)
06 [e9aa9652] (00/16) No match (V2 was not tested)
07 [8cde9577] (00/16) No match (V2 was not tested)
08 [77d27655] (00/16) No match (V2 was not tested)
09 [f3cb0615] (00/16) No match (V2 was not tested)
10 [ed6b379b] (00/16) No match (V2 was not tested)
11 [240cdc9a] (00/16) No match (V2 was not tested)
12 [2984fc2a] (00/16) No match (V2 was not tested)
13 [529244c9] (00/16) No match (V2 was not tested)

Track Peak [ CRC32 ] [W/O NULL] [ LOG ]
– 93,8 [FDBE6F30] [FE21E5FE] CRC32
01 38,5 [0DA24FA3] [88E7A4AB]
02 37,0 [F96F4746] [A23E5DDE]
03 61,4 [178AB63F] [2631F6B7]
04 91,1 [889478A6] [46093D6D]
05 24,6 [700ACDC9] [121157BD]
06 90,5 [BB2E79EE] [C7A8F957]
07 4,3 [0FEE83DE] [91F996C7]
08 18,5 [DBA97B57] [CAA100AC]
09 19,2 [7C245BE6] [AC855A99]
10 93,8 [8FC6F94C] [10956F13]
11 64,8 [3DCCFA1D] [C106DCE8]
12 79,5 [FF69E843] [1D833C08]
13 89,1 [397644C9] [5506D371]

Performers:
Vincent le Texier (Don Pedro)
Jean-Luc Viala (Benedict)
Sylvia McNair (Hero)
Catherine Robbin (Ursule)
Gilles Cachemaille (Claudio)
Philippe Magnant (Leonato)
Susan Graham (Beatrice)
Gabriel Bacquier (Somarone)

Choeurs et Orchestre de l’Opera de Lyon
John Nelson, conductor

Thanks to the Original ripper (unknown)!

Download: