Subcategories

Chris Isaak - Heart Shaped World (1989)

Posted By: popsakov
Chris Isaak - Heart Shaped World (1989)

Chris Isaak - Heart Shaped World (1989)
EAC Rip | FLAC (Img) + Cue + Log ~ 315 Mb | MP3 CBR320 ~ 133 Mb
Scans Included (JPG, 600 dpi) | RAR 5% Recovery
Roots Rock, Rockabilly, Rock & Roll | Reprise Records #9 25837-2

When filmmaker David Lynch backed a disquieting scene in Blue Velvet with Roy Orbison's "In Dreams," he demonstrated the eerie atmosphere behind its pre-'60s innocence. Orbison disciple Chris Isaak played those qualities to the hilt in his shimmering, spare "Wicked Game," so it was no surprise when Lynch included the ballad in Wild at Heart. What was surprising, given the fact that it sounded like nothing else on pop radio in 1990, was that "Wicked Game" became a breakout Top Ten hit, pushing Isaak's accompanying album Heart Shaped World to platinum status. Of course, there's more than that one moody masterpiece of a single to recommend Heart Shaped World. Isaak faithfully recreates his influences with production that's infinitely cleaner than Sun rock & roll, drawing more on its form than its attitude, but he's particularly suited to the sort of Orbison/Presley-style balladry that brought him a mass audience. His rich, sobbing croon is simply a gorgeous instrument, whether he's in a sonorous baritone or quavering falsetto. And he uses that instrument to tremendous effect here, coming across as a brooding romantic with a broken heart and swoon-inducing style. Of itself, Heart Shaped World is a pretty effective mood piece, showcasing Isaak doing a whole lot of what he does best. He does attempt a couple of rockers, but they never really rock – much like Orbison, it's clear that ballads are his true forte, and given the spirit Isaak wants to channel, the numbers feel much too tame. But aside from that flaw, the rest of Heart Shaped World is a supremely elegant late-night soundtrack, equally suited to steamy romance or solitary heartache.
~ Steve Huey, All Music

***************

Chris Isaak - Heart Shaped World (1989)

Track List:

01. Heart Shaped World [0:03:29.45]
02. I'm Not Waiting [0:03:16.13]
03. Don't Make Me Dream About You [0:03:33.30]
04. Kings of the Highway [0:04:46.45]
05. Wicked Game [0:04:49.05]
06. Blue Spanish Sky [0:03:58.30]
07. Wrong To Love You [0:04:19.67]
08. Forever Young [0:03:23.13]
09. Nothing's Changed [0:04:08.35]
10. In the Heat of the Jungle [0:06:19.62]
11. Diddley Daddy [0:04:05.65]

Personnel:
Chris Isaak - vocals, guitar
James Calvin Wilsey - lead guitar
Rowland Salley - bass guitar, vocals
Kenney Dale Johnson - drums, vocals

Additional Personnel:
Prairie Prince - drums, percussion
Frank Martin - keyboards, piano
Pete Scaturro - keyboards
Christine Wall - vocals
Cynthia Lloyd - vocals
Chris Solberg - guitars
Joni Haastrup - keyboards

Exact Audio Copy V1.0 beta 3 from 29. August 2011

EAC extraction logfile from 12. April 2014, 15:25

Chris Isaak / Heart Shaped World

Used drive : ATAPI iHAS124 D Adapter: 0 ID: 2

Read mode : Secure
Utilize accurate stream : Yes
Defeat audio cache : Yes
Make use of C2 pointers : No

Read offset correction : 6
Overread into Lead-In and Lead-Out : No
Fill up missing offset samples with silence : Yes
Delete leading and trailing silent blocks : No
Null samples used in CRC calculations : Yes
Used interface : Installed external ASPI interface

Used output format : User Defined Encoder
Selected bitrate : 1024 kBit/s
Quality : High
Add ID3 tag : No
Command line compressor : C:\Program Files (x86)\Exact Audio Copy\Flac\flac.exe
Additional command line options : -6 -V -T "ARTIST=%artist%" -T "TITLE=%title%" -T "ALBUM=%albumtitle%" -T "DATE=%year%" -T "TRACKNUMBER=%tracknr%" -T "GENRE=%genre%" -T "COMMENT=%comment%" -T "BAND=%albuminterpret%" -T "COMPOSER=%composer%" %haslyrics%–tag-from-file=LYRICS="%lyricsfile%"%haslyrics% -T "DISCNUMBER=%cdnumber%" -T "TOTALDISCS=%totalcds%" -T "TOTALTRACKS=%numtracks%" %hascover%–picture="%coverfile%"%hascover% %source% -o %dest%


TOC of the extracted CD

Track | Start | Length | Start sector | End sector
––––––––––––––––––––––––––––-
1 | 0:00.32 | 3:29.45 | 32 | 15751
2 | 3:30.02 | 3:16.13 | 15752 | 30464
3 | 6:46.15 | 3:33.30 | 30465 | 46469
4 | 10:19.45 | 4:46.45 | 46470 | 67964
5 | 15:06.15 | 4:49.05 | 67965 | 89644
6 | 19:55.20 | 3:58.30 | 89645 | 107524
7 | 23:53.50 | 4:19.67 | 107525 | 127016
8 | 28:13.42 | 3:23.13 | 127017 | 142254
9 | 31:36.55 | 4:08.35 | 142255 | 160889
10 | 35:45.15 | 6:19.62 | 160890 | 189376
11 | 42:05.02 | 4:05.65 | 189377 | 207816


Range status and errors

Selected range

Filename C:\mm\Chris Isaak\1989 - Heart Shaped World [9 25837-2]\Chris Isaak - Heart Shaped World.wav

Suspicious position 0:38:33

Peak level 99.9 %
Extraction speed 2.4 X
Range quality 99.9 %
Test CRC E3CEC7DE
Copy CRC BD46B300
Copy finished

There were errors


AccurateRip summary

Track 1 accurately ripped (confidence 44) [97BF8E82] (AR v2)
Track 2 accurately ripped (confidence 44) [7C50AA50] (AR v2)
Track 3 accurately ripped (confidence 44) [E4FFB1CF] (AR v2)
Track 4 accurately ripped (confidence 46) [4703AD9E] (AR v2)
Track 5 accurately ripped (confidence 44) [8DE7D1ED] (AR v2)
Track 6 accurately ripped (confidence 44) [201B5196] (AR v2)
Track 7 accurately ripped (confidence 43) [4D3752AB] (AR v2)
Track 8 accurately ripped (confidence 44) [7E86B0D0] (AR v2)
Track 9 accurately ripped (confidence 44) [E8E41AE5] (AR v2)
Track 10 cannot be verified as accurate (confidence 147) [047E5258], AccurateRip returned [5FED12E9] (AR v2)
Track 11 accurately ripped (confidence 42) [1E09CFE0] (AR v2)

10 трек(и) скопированы точно
1 трек(и) не удалось проверить на точность

Some tracks could not be verified as accurate

End of status report

foobar2000 1.2.6 / Dynamic Range Meter 1.1.1
log date: 2017-01-17 09:30:52

––––––––––––––––––––––––––––––––––––––––
Analyzed: Chris Isaak / Heart Shaped World
––––––––––––––––––––––––––––––––––––––––

DR Peak RMS Duration Track
––––––––––––––––––––––––––––––––––––––––
DR12 -1.37 dB -15.75 dB 3:30 01-Heart Shaped World
DR11 -1.56 dB -15.30 dB 3:16 02-I'm Not Waiting
DR12 -1.43 dB -15.42 dB 3:33 03-Don't Make Me Dream About You
DR13 -1.87 dB -17.69 dB 4:47 04-Kings of the Highway
DR13 -3.17 dB -18.96 dB 4:49 05-Wicked Game
DR12 -4.77 dB -20.82 dB 3:58 06-Blue Spanish Sky
DR12 -0.59 dB -16.26 dB 4:20 07-Wrong To Love You
DR12 -2.58 dB -16.91 dB 3:23 08-Forever Young
DR13 -2.75 dB -19.91 dB 4:08 09-Nothing's Changed
DR14 -0.44 dB -18.44 dB 6:20 10-In the Heat of the Jungle
DR14 0.00 dB -15.37 dB 4:06 11-Diddley Daddy
––––––––––––––––––––––––––––––––––––––––

Number of tracks: 11
Official DR value: DR13

Samplerate: 44100 Hz
Channels: 2
Bits per sample: 16
Bitrate: 843 kbps
Codec: FLAC
================================================================================

[CUETools log; Date: 17.01.2017 9:31:06; Version: 2.1.5]
Pregap length 00:00:32.
[CTDB TOCID: 3P03YwFP1EaiQK_87c0_H6peWmo-] found.
Track | CTDB Status
1 | (348/354) Accurately ripped
2 | (346/354) Accurately ripped
3 | (350/354) Accurately ripped
4 | (349/354) Accurately ripped
5 | (347/354) Accurately ripped
6 | (350/354) Accurately ripped
7 | (346/354) Accurately ripped
8 | (348/354) Accurately ripped
9 | (348/354) Accurately ripped
10 | ( 0/354) No match
11 | (343/354) Accurately ripped
[AccurateRip ID: 001215ba-009f04d7-990ad20b] found.
Track [ CRC | V2 ] Status
01 [8cc49448|97bf8e82] (087+068/924) Accurately ripped
02 [5c7fd0ea|7c50aa50] (085+068/919) Accurately ripped
03 [f7644b52|e4ffb1cf] (085+068/925) Accurately ripped
04 [726995f0|4703ad9e] (085+070/933) Accurately ripped
05 [432edfec|8de7d1ed] (088+068/944) Accurately ripped
06 [b217f658|201b5196] (087+068/928) Accurately ripped
07 [3b59ed06|4d3752ab] (087+067/928) Accurately ripped
08 [48c02112|7e86b0d0] (086+068/918) Accurately ripped
09 [54a7ea29|e8e41ae5] (085+068/920) Accurately ripped
10 [5e0256fb|047e5258] (000+000/903) No match
11 [d2e3bf38|1e09cfe0] (081+066/891) Accurately ripped
Offsetted by -2532:
01 [a11bf584] (051/924) Accurately ripped
02 [b2daecd6] (050/919) Accurately ripped
03 [1376e7e2] (049/925) Accurately ripped
04 [d0a32274] (050/933) Accurately ripped
05 [458f0360] (051/944) Accurately ripped
06 [4fd12b0c] (049/928) Accurately ripped
07 [f9398f26] (048/928) Accurately ripped
08 [1d2041f2] (048/918) Accurately ripped
09 [317db52d] (049/920) Accurately ripped
10 [050af2bf] (000/903) No match (V2 was not tested)
11 [6a6cd2ac] (048/891) Accurately ripped
Offsetted by -697:
01 [c46a2e57] (047/924) Accurately ripped
02 [0b6c9ca5] (047/919) Accurately ripped
03 [9576c376] (047/925) Accurately ripped
04 [5916f351] (047/933) Accurately ripped
05 [6af70a09] (047/944) Accurately ripped
06 [fe2b18c5] (047/928) Accurately ripped
07 [68a4878e] (047/928) Accurately ripped
08 [6a57274a] (047/918) Accurately ripped
09 [bf257f2a] (047/920) Accurately ripped
10 [35bf0c2c] (000/903) No match (V2 was not tested)
11 [230d3953] (044/891) Accurately ripped
Offsetted by -102:
01 [d359b112] (107/924) Accurately ripped
02 [56e0e87c] (104/919) Accurately ripped
03 [9e22506a] (105/925) Accurately ripped
04 [3682f4c6] (105/933) Accurately ripped
05 [bfa394ea] (109/944) Accurately ripped
06 [aa7eaa36] (104/928) Accurately ripped
07 [a5e1b8b6] (105/928) Accurately ripped
08 [4daa85e2] (105/918) Accurately ripped
09 [ce62e0bf] (107/920) Accurately ripped
10 [a949a9b1] (000/903) No match (V2 was not tested)
11 [97cbfafa] (100/891) Accurately ripped
Offsetted by -68:
01 [667d5224] (153/924) Accurately ripped
02 [036b35f6] (150/919) Accurately ripped
03 [bbe2f962] (152/925) Accurately ripped
04 [4a7a7fd4] (155/933) Accurately ripped
05 [40d20340] (159/944) Accurately ripped
06 [ad0718ec] (153/928) Accurately ripped
07 [2d09ca26] (153/928) Accurately ripped
08 [4c070ef2] (149/918) Accurately ripped
09 [fb248e8d] (150/920) Accurately ripped
10 [3adc8e1f] (000/903) No match (V2 was not tested)
11 [4a2763fe] (149/891) Accurately ripped
Offsetted by 6:
01 [f2071a1e] (000/924) No match (V2 was not tested)
02 [a81fc078] (000/919) No match (V2 was not tested)
03 [933affba] (000/925) No match (V2 was not tested)
04 [84feae7a] (000/933) No match (V2 was not tested)
05 [e1825cce] (000/944) No match (V2 was not tested)
06 [d0a8825a] (000/928) No match (V2 was not tested)
07 [ad8e2c56] (000/928) No match (V2 was not tested)
08 [66943942] (000/918) No match (V2 was not tested)
09 [a7d926f3] (000/920) No match (V2 was not tested)
10 [77b2d9a5] (000/903) No match (V2 was not tested)
11 [8b3651d3] (000/891) No match (V2 was not tested)
Offsetted by 92:
01 [31216f90] (048/924) Accurately ripped
02 [e4142a16] (049/919) Accurately ripped
03 [a2406ee2] (048/925) Accurately ripped
04 [e4ad0e34] (049/933) Accurately ripped
05 [bed9b020] (048/944) Accurately ripped
06 [316b03cc] (049/928) Accurately ripped
07 [127b0d26] (049/928) Accurately ripped
08 [bcc993f2] (047/918) Accurately ripped
09 [faf038ed] (047/920) Accurately ripped
10 [e7ea2a7f] (000/903) No match (V2 was not tested)
11 [d71f55ed] (043/891) Accurately ripped

Track Peak [ CRC32 ] [W/O NULL] [ LOG ]
– 99,9 [BD46B300] [24C357E4] CRC32
01 85,4 [1EAE4F40] [FECA415F]
02 83,5 [AB4E8DC4] [B9C01D58]
03 84,8 [4C758946] [EAEECE67]
04 80,6 [9464D8BD] [599E5E60]
05 69,4 [724C9B7B] [EEFFEB8D]
06 57,7 [A3EE6A6C] [F6ABAF27]
07 93,4 [D80C5FE2] [27736067]
08 74,3 [DD944015] [95D6708D]
09 72,8 [E68D6AEB] [2E0DABA4]
10 95,0 [62A45574] [FE6B654A]
11 99,9 [B87337E6] [19E5C62E]

Chris Isaak - Heart Shaped World (1989)

Chris Isaak - Heart Shaped World (1989)

All thanks go to sergych

> Visit my blog <