Subcategories
Tags
Language
Tags

Chris Rea - King Of The Beach (2000) [Bonus Track Edition]

Posted By: Designol
Chris Rea - King Of The Beach (2000) [Bonus Track Edition]

Chris Rea - King Of The Beach (2000) [Bonus Track Edition]
EAC | FLAC | Image (Cue&Log) ~ 369 Mb | Mp3 (CBR320) ~ 137 Mb | Scans ~ 217 Mb
Soft Rock, Pop/Rock, Blues | Label: EastWest/Magnet | # 8573 85017 2 | Time: 01:00:05

A sequel of sorts to his earlier On the Beach, King of the Beach continues the laid-back mood of the earlier album but is (despite the goofy title) a more mature and unified work. It's one of his best albums and is a return to form after the film soundtrack La Passione and the more electronic sounds of The Road to Hell Part 2. Written primarily during a vacation in the Turks and Caicos Islands, it's replete with lots of beach and summer imagery in the titles ("King of the Beach," "All Summer Long," "Sandwriting," "Sail Away") as well as the lyrics, which were originally written as poems. A remix of "All Summer Long" was a big dance hit in Ibiza and other Mediterranean hot spots. A good album for a summer day, with a soulful mellowness flowing through the tracks.

Review by Rob Caldwell, Allmusic.com

Chris Rea - King Of The Beach (2000) [Bonus Track Edition]



Tracklist:

01. King Of The Beach (05:02)
02. All Summer Long (05:10)
03. Sail Away (04:49)
04. Still Beautiful (04:11)
05. The Bones Of Angels (04:17)
06. Guitar Street (04:45)
07. Who Do You Love (04:54)
08. The Memory Of A Good Friend (03:55)
09. Sandwriting (05:09)
10. Tamatave (05:19)
11. God Gave Me An Angel (03:01)
12. Waiting For A Blue Sky (05:02)
13. Mississippi (04:28)


Exact Audio Copy V1.3 from 2. September 2016

EAC extraction logfile from 3. November 2016, 18:26

Chris Rea / King Of The Beach

Used drive : PIONEER BD-RW BDR-206D Adapter: 1 ID: 0

Read mode : Secure
Utilize accurate stream : Yes
Defeat audio cache : Yes
Make use of C2 pointers : No

Read offset correction : 667
Overread into Lead-In and Lead-Out : No
Fill up missing offset samples with silence : Yes
Delete leading and trailing silent blocks : No
Null samples used in CRC calculations : Yes
Used interface : Native Win32 interface for Win NT & 2000

Used output format : User Defined Encoder
Selected bitrate : 896 kBit/s
Quality : High
Add ID3 tag : No
Command line compressor : C:\Program Files\Exact Audio Copy\Flac\flac.exe
Additional command line options : -V -8 -T "Date=%year%" -T "Genre=%genre%" %source%


TOC of the extracted CD

Track | Start | Length | Start sector | End sector
––––––––––––––––––––––––––––-
1 | 0:00.00 | 5:02.17 | 0 | 22666
2 | 5:02.17 | 5:10.03 | 22667 | 45919
3 | 10:12.20 | 4:49.12 | 45920 | 67606
4 | 15:01.32 | 4:11.50 | 67607 | 86481
5 | 19:13.07 | 4:17.13 | 86482 | 105769
6 | 23:30.20 | 4:45.25 | 105770 | 127169
7 | 28:15.45 | 4:54.10 | 127170 | 149229
8 | 33:09.55 | 3:56.00 | 149230 | 166929
9 | 37:05.55 | 5:09.40 | 166930 | 190144
10 | 42:15.20 | 5:19.00 | 190145 | 214069
11 | 47:34.20 | 3:01.12 | 214070 | 227656
12 | 50:35.32 | 5:02.23 | 227657 | 250329
13 | 55:37.55 | 4:28.02 | 250330 | 270431


Range status and errors

Selected range

Filename E:\Chris Rea - King Of The Beach.wav

Peak level 97.0 %
Extraction speed 7.7 X
Range quality 100.0 %
Test CRC A833DD16
Copy CRC A833DD16
Copy OK

No errors occurred


AccurateRip summary

Track 1 accurately ripped (confidence 7) [A7ABDB93] (AR v2)
Track 2 accurately ripped (confidence 7) [77C0BBE3] (AR v2)
Track 3 accurately ripped (confidence 7) [63C2F1BD] (AR v2)
Track 4 accurately ripped (confidence 7) [2D67D563] (AR v2)
Track 5 accurately ripped (confidence 7) [1DC3FCF7] (AR v2)
Track 6 accurately ripped (confidence 7) [716C18CF] (AR v2)
Track 7 accurately ripped (confidence 7) [4C785D78] (AR v2)
Track 8 accurately ripped (confidence 7) [59A9E80D] (AR v2)
Track 9 accurately ripped (confidence 7) [EBDA2AE9] (AR v2)
Track 10 accurately ripped (confidence 7) [34E9192B] (AR v2)
Track 11 accurately ripped (confidence 7) [9BFBE91D] (AR v2)
Track 12 accurately ripped (confidence 7) [DB756FFA] (AR v2)
Track 13 accurately ripped (confidence 7) [7CD53E73] (AR v2)

All tracks accurately ripped

End of status report

==== Log checksum 8BA0D9257E9A135848E6FC7DC432A1AC3DCBA3C11BA1368BE1CA4B26AB535609 ====

foobar2000 1.2 / Dynamic Range Meter 1.1.1
log date: 2016-11-04 05:46:05

––––––––––––––––––––––––––––––––––––––––
Analyzed: Chris Rea / King Of The Beach
––––––––––––––––––––––––––––––––––––––––

DR Peak RMS Duration Track
––––––––––––––––––––––––––––––––––––––––
DR12 -0.26 dB -13.96 dB 5:02 01-King Of The Beach
DR9 -0.26 dB -11.51 dB 5:10 02-All Summer Long
DR11 -0.26 dB -14.99 dB 4:49 03-Sail Away
DR11 -0.26 dB -13.10 dB 4:12 04-Still Beautiful
DR10 -0.26 dB -13.03 dB 4:17 05-The Bones Of Angels
DR9 -0.26 dB -12.17 dB 4:45 06-Guitar Street
DR10 -0.26 dB -12.88 dB 4:54 07-Who Do You Love
DR10 -0.26 dB -12.56 dB 3:56 08-The Memory Of A Good Friend
DR11 -0.26 dB -14.37 dB 5:10 09-Sandwriting
DR11 -0.26 dB -14.86 dB 5:19 10-Tamatave
DR11 -0.26 dB -14.41 dB 3:01 11-God Gave Me An Angel
DR9 -0.26 dB -11.68 dB 5:02 12-Waiting For A Blue Sky
DR12 -0.26 dB -15.16 dB 4:28 13-Mississippi
––––––––––––––––––––––––––––––––––––––––

Number of tracks: 13
Official DR value: DR10

Samplerate: 44100 Hz
Channels: 2
Bits per sample: 16
Bitrate: 859 kbps
Codec: FLAC
================================================================================

Chris Rea - King Of The Beach (2000) [Bonus Track Edition]

Chris Rea - King Of The Beach (2000) [Bonus Track Edition]

All thanks to original releaser - BOLiK_Ltd

More interesting music in My Blog