Subcategories

Chris Rea - The Very Best Of Chris Rea (2001) {2015, Reissue}

Posted By: popsakov
Chris Rea - The Very Best Of Chris Rea (2001) {2015, Reissue}

Chris Rea - The Very Best Of Chris Rea (2001) {2015, Reissue}
EAC Rip | FLAC (Img) + Cue + Log ~ 575 Mb | MP3 CBR320 ~ 218 Mb
Full Scans | RAR 5% Recovery
EastWest / Magnet / Warner Music Russia #2564608007
Soft Rock / Blues Rock

The Very Best of Chris Rea is the third compilation album by British singer-songwriter Chris Rea, released in 2001. The last track "Saudade" was originally written and recorded in 1994 as a tribute to the formula 1 racing driver Ayrton Senna who died in a crash at Imola on 1 May that year. The word Saudade in Portuguese language roughly means the feeling, emotions and euphoria of a certain moment in time. It reached #69 position in UK album charts, and was certified Gold by BPI in 2004.

***************

Chris Rea - The Very Best Of Chris Rea (2001) {2015, Reissue}

Track List:

01. The Road To Hell. Part 2 [4:31]
02. Fool (If You Think It’s Over) [4:05]
03. Let’s Dance [4:16]
04. You Can Go Your Own Way [3:57]
05. Julia [3:55]
06. Stainsby Girls [4:08]
07. Tell Me There’s A Heaven [6:02]
08. Josephine [3:36]
09. Steel River [6:11]
10. On The Beach [6:50]
11. I Can Hear Your Heartbeat [3:24]
12. All Summer Long [3:34]
13. The Blue Cafe [4:47]
14. Auberge [4:44]
15. Driving Home For Christmas [4:01]
16. Nothing To Fear [4:30]
17. Saudade. Part 1 & 2 (Tribute To Ayrton Senna) [6:48]

Exact Audio Copy V1.3 from 2. September 2016

EAC extraction logfile from 8. August 2019, 20:31

Chris Rea / The Very Best Of Chris Rea

Used drive : ASUS DRW-24D5MT Adapter: 1 ID: 1

Read mode : Secure
Utilize accurate stream : Yes
Defeat audio cache : Yes
Make use of C2 pointers : No

Read offset correction : 6
Overread into Lead-In and Lead-Out : No
Fill up missing offset samples with silence : Yes
Delete leading and trailing silent blocks : No
Null samples used in CRC calculations : Yes
Used interface : Installed external ASPI interface

Used output format : User Defined Encoder
Selected bitrate : 128 kBit/s
Quality : High
Add ID3 tag : No
Command line compressor : C:\Program Files (x86)\Exact Audio Copy\Flac\flac.exe
Additional command line options : -8 -V -T "TITLE=%title%" -T "ARTIST=%artist%" -T "ALBUMARTIST=%albumartist%" -T "ALBUM=%albumtitle%" -T "DATE=%year%" -T "TRACKNUMBER=%tracknr%" -T "TRACKTOTAL=%numtracks%" -T "GENRE=%genre%" -T "COMMENT=%comment%" -T "PERFORMER=%albuminterpret%" -T "COMPOSER=%composer%" %source% -o %dest%


TOC of the extracted CD

Track | Start | Length | Start sector | End sector
––––––––––––––––––––––––––––-
1 | 0:00.00 | 4:31.25 | 0 | 20349
2 | 4:31.25 | 4:05.25 | 20350 | 38749
3 | 8:36.50 | 4:16.00 | 38750 | 57949
4 | 12:52.50 | 3:56.50 | 57950 | 75699
5 | 16:49.25 | 3:55.25 | 75700 | 93349
6 | 20:44.50 | 4:08.25 | 93350 | 111974
7 | 24:53.00 | 6:02.12 | 111975 | 139136
8 | 30:55.12 | 3:36.13 | 139137 | 155349
9 | 34:31.25 | 6:11.37 | 155350 | 183211
10 | 40:42.62 | 6:50.25 | 183212 | 213986
11 | 47:33.12 | 3:23.63 | 213987 | 229274
12 | 50:57.00 | 3:33.50 | 229275 | 245299
13 | 54:30.50 | 4:47.00 | 245300 | 266824
14 | 59:17.50 | 4:44.25 | 266825 | 288149
15 | 64:02.00 | 4:01.12 | 288150 | 306236
16 | 68:03.12 | 4:30.00 | 306237 | 326486
17 | 72:33.12 | 6:47.63 | 326487 | 357074


Range status and errors

Selected range

Filename C:\Users\breaker65\Desktop\2001. The Very Best Of Chris Rea\Chris Rea - The Very Best Of Chris Rea.wav

Peak level 98.8 %
Extraction speed 2.1 X
Range quality 100.0 %
Test CRC ED42A224
Copy CRC ED42A224
Copy OK

No errors occurred


AccurateRip summary

Track 1 accurately ripped (confidence 16) [5DACF69D] (AR v2)
Track 2 accurately ripped (confidence 16) [F11587E7] (AR v2)
Track 3 accurately ripped (confidence 16) [76850FFE] (AR v2)
Track 4 accurately ripped (confidence 16) [C757DA10] (AR v2)
Track 5 accurately ripped (confidence 16) [37F4EB80] (AR v2)
Track 6 accurately ripped (confidence 16) [8C6CF985] (AR v2)
Track 7 accurately ripped (confidence 16) [7B0D6990] (AR v2)
Track 8 accurately ripped (confidence 16) [7741B002] (AR v2)
Track 9 accurately ripped (confidence 16) [04CEAEE4] (AR v2)
Track 10 accurately ripped (confidence 16) [0A4FFBBA] (AR v2)
Track 11 accurately ripped (confidence 16) [B0F7AF06] (AR v2)
Track 12 accurately ripped (confidence 16) [E3CC5418] (AR v2)
Track 13 accurately ripped (confidence 16) [0B07AF20] (AR v2)
Track 14 accurately ripped (confidence 16) [0DB8185B] (AR v2)
Track 15 accurately ripped (confidence 15) [48A0FC80] (AR v2)
Track 16 accurately ripped (confidence 16) [019F4803] (AR v2)
Track 17 accurately ripped (confidence 15) [DBED5E3A] (AR v2)

All tracks accurately ripped

End of status report

–– CUETools DB Plugin V2.1.6

[CTDB TOCID: QYZWCxNMkJVr3fa0ETu8rzOpa_Q-] found
Submit result: QYZWCxNMkJVr3fa0ETu8rzOpa_Q- has been confirmed
Track | CTDB Status
1 | (640/660) Accurately ripped
2 | (654/660) Accurately ripped
3 | (651/660) Accurately ripped
4 | (651/660) Accurately ripped
5 | (653/660) Accurately ripped
6 | (655/660) Accurately ripped
7 | (652/660) Accurately ripped
8 | (657/660) Accurately ripped
9 | (652/660) Accurately ripped
10 | (653/660) Accurately ripped
11 | (655/660) Accurately ripped
12 | (655/660) Accurately ripped
13 | (654/660) Accurately ripped
14 | (654/660) Accurately ripped
15 | (653/660) Accurately ripped
16 | (648/660) Accurately ripped
17 | (643/660) Accurately ripped


==== Log checksum A470BEB4E7CFC13C44111844B0967D29E8C2B0BA9A3E3F8345980A3CAF97E5B2 ====

[CUETools log; Date: 20.08.2019 15:00:29; Version: 2.1.6]
[CTDB TOCID: QYZWCxNMkJVr3fa0ETu8rzOpa_Q-] found.
Track | CTDB Status
1 | (644/664) Accurately ripped
2 | (658/664) Accurately ripped
3 | (655/664) Accurately ripped
4 | (655/664) Accurately ripped
5 | (657/664) Accurately ripped
6 | (659/664) Accurately ripped
7 | (656/664) Accurately ripped
8 | (661/664) Accurately ripped
9 | (656/664) Accurately ripped
10 | (657/664) Accurately ripped
11 | (659/664) Accurately ripped
12 | (659/664) Accurately ripped
13 | (658/664) Accurately ripped
14 | (658/664) Accurately ripped
15 | (657/664) Accurately ripped
16 | (652/664) Accurately ripped
17 | (646/664) Accurately ripped
[AccurateRip ID: 002f70f6-025d86ec-fe129911] found.
Track [ CRC | V2 ] Status
01 [1e615b28|5dacf69d] (000+016/408) Accurately ripped
02 [84b11f00|f11587e7] (000+016/411) Accurately ripped
03 [470117dd|76850ffe] (000+016/411) Accurately ripped
04 [5483f459|c757da10] (000+016/410) Accurately ripped
05 [81e3dace|37f4eb80] (000+016/412) Accurately ripped
06 [dbff2462|8c6cf985] (000+016/411) Accurately ripped
07 [6d3dffa8|7b0d6990] (000+016/410) Accurately ripped
08 [d57a61c9|7741b002] (000+016/411) Accurately ripped
09 [69d59eda|04ceaee4] (000+016/409) Accurately ripped
10 [7d96b5ab|0a4ffbba] (000+016/411) Accurately ripped
11 [df0a6e5b|b0f7af06] (000+016/409) Accurately ripped
12 [20bd05e6|e3cc5418] (000+016/408) Accurately ripped
13 [e02f345f|0b07af20] (000+016/408) Accurately ripped
14 [db57f061|0db8185b] (000+016/411) Accurately ripped
15 [95de5a90|48a0fc80] (000+015/411) Accurately ripped
16 [ba12a4ae|019f4803] (000+016/405) Accurately ripped
17 [450dc56c|dbed5e3a] (000+015/398) Accurately ripped
Offsetted by -6:
01 [614257f6] (185/408) Accurately ripped
02 [8ebc154c] (188/411) Accurately ripped
03 [6b6f384d] (188/411) Accurately ripped
04 [29bf9f95] (187/410) Accurately ripped
05 [57a47c4e] (189/412) Accurately ripped
06 [62c050dc] (188/411) Accurately ripped
07 [8da7fed2] (187/410) Accurately ripped
08 [a844d275] (188/411) Accurately ripped
09 [3122e8a0] (186/409) Accurately ripped
10 [e28a21e5] (188/411) Accurately ripped
11 [8eba99cd] (186/409) Accurately ripped
12 [20502e2a] (185/408) Accurately ripped
13 [3a229a69] (185/408) Accurately ripped
14 [07af1a5d] (188/411) Accurately ripped
15 [f34d9b58] (189/411) Accurately ripped
16 [1ebdf7b2] (184/405) Accurately ripped
17 [638203ec] (176/398) Accurately ripped
Offsetted by -675:
01 [024073af] (000/408) No match (V2 was not tested)
02 [ee825b66] (000/411) No match (V2 was not tested)
03 [c9665915] (000/411) No match (V2 was not tested)
04 [093cb437] (000/410) No match (V2 was not tested)
05 [f10ad38e] (000/412) No match (V2 was not tested)
06 [93e32fff] (000/411) No match (V2 was not tested)
07 [2bd2a19d] (000/410) No match (V2 was not tested)
08 [7770e55f] (000/411) No match (V2 was not tested)
09 [ff4c8a5d] (000/409) No match (V2 was not tested)
10 [da8fc528] (000/411) No match (V2 was not tested)
11 [93f585f4] (000/409) No match (V2 was not tested)
12 [f0e837c8] (000/408) No match (V2 was not tested)
13 [e7a58bc4] (000/408) No match (V2 was not tested)
14 [57a5e39f] (000/411) No match (V2 was not tested)
15 [25425274] (000/411) No match (V2 was not tested)
16 [f75c9ff0] (000/405) No match (V2 was not tested)
17 [27233cac] (000/398) No match (V2 was not tested)
Offsetted by -670:
01 [9fda4bae] (000/408) No match (V2 was not tested)
02 [e623e37c] (000/411) No match (V2 was not tested)
03 [d5b53e0d] (000/411) No match (V2 was not tested)
04 [0235a585] (000/410) No match (V2 was not tested)
05 [143fa24e] (000/412) No match (V2 was not tested)
06 [f8ece044] (000/411) No match (V2 was not tested)
07 [3b7a4cfa] (000/410) No match (V2 was not tested)
08 [c7c83225] (000/411) No match (V2 was not tested)
09 [ae8c2238] (000/409) No match (V2 was not tested)
10 [311a404d] (000/411) No match (V2 was not tested)
11 [d6e2b715] (000/409) No match (V2 was not tested)
12 [9bed963a] (000/408) No match (V2 was not tested)
13 [1cb00c11] (000/408) No match (V2 was not tested)
14 [8807eb4d] (000/411) No match (V2 was not tested)
15 [57659c78] (000/411) No match (V2 was not tested)
16 [f8cddac2] (000/405) No match (V2 was not tested)
17 [8dc25dec] (000/398) No match (V2 was not tested)
Offsetted by -12:
01 [a42354c4] (002/408) Accurately ripped
02 [98c70b98] (002/411) Accurately ripped
03 [8fdd58bd] (002/411) Accurately ripped
04 [fefb4ad1] (002/410) Accurately ripped
05 [2d651dce] (002/412) Accurately ripped
06 [e9817d56] (002/411) Accurately ripped
07 [ae11fdfc] (002/410) Accurately ripped
08 [7b0f4321] (002/411) Accurately ripped
09 [f8703266] (002/409) Accurately ripped
10 [477d8e1f] (002/411) Accurately ripped
11 [3e6ac53f] (002/409) Accurately ripped
12 [1fe3566e] (002/408) Accurately ripped
13 [94160073] (002/408) Accurately ripped
14 [34064459] (002/411) Accurately ripped
15 [50bcdc20] (002/411) Accurately ripped
16 [83694ab6] (000/405) No match (V2 was not tested)
17 [81f6426c] (002/398) Accurately ripped

Track Peak [ CRC32 ] [W/O NULL] [ LOG ]
– 98,8 [ED42A224] [634623B8] CRC32
01 98,8 [B7E0F4C2] [38828510]
02 98,8 [DE34DC43] [453C193F]
03 98,8 [466C14D3] [54B1AAAE]
04 98,8 [CD907C6C] [883FDED8]
05 98,8 [1961CA4A] [D0A0895A]
06 98,8 [D6808EF2] [E56063E3]
07 98,8 [C25EDE45] [AD891000]
08 98,8 [7EB2D64E] [E63ACA7B]
09 98,8 [3EFA100D] [E9B04FD4]
10 98,8 [DD1C3510] [EC4427AA]
11 98,8 [F73C493C] [A54391AB]
12 98,8 [E1D15940] [5DF00C92]
13 98,8 [714DA8F2] [34B78877]
14 98,8 [FAC974C3] [DA788912]
15 98,8 [8EE0EDB8] [E3F50779]
16 98,8 [7298C719] [9B380075]
17 98,8 [3DA67990] [2496A7E0]

Chris Rea - The Very Best Of Chris Rea (2001) {2015, Reissue}

All thanks go to breaker65

>>> Chris Rea in my Blog <<<

DOWNLOAD: