Subcategories

Chris Smither - Small Revelations (1997)

Posted By: Designol
Chris Smither - Small Revelations (1997)

Chris Smither - Small Revelations (1997)
EAC | FLAC | Tracks (Cue&Log) ~ 267 Mb | Mp3 (CBR320) ~ 122 Mb | Scans included | 00:35:57
Folk-Rock, Contemporary Blues, Folk-Blues | Label: HighTone | # HCD 8077

Chris Smither's reflective, lyrical songwriting, richly textured singing voice and bluesy acoustic-guitar playing serve him well on SMALL REVELATIONS. Smither is especially adept at country-inspired, toe-tapping tunes spiked with skeptical wit and wisdom, like "Winsome Smile" ("Listen to me now, you suffer from a sad misapprehension/That if she could read your mind she'd see just how it oughta be/But she's read it all by now/And your style don't get a grip on her attention.") Equally impressive are Smither's all-out blues tracks (including an outstanding cover of Robert Johnson's "Dust My Broom"), and his brooding, poignant near-ballads, especially the leisurely, contemplative title track. Smither once again proves himself worthy of his fine reputation, especially among fellow musicians, as a plain-speaking, original and supremely talented guitarist, singer and songwriter.

Allmusic.com

Chris Smither at Allmusic
Chris Smither Website
Chris Smither at Wiki

Tracklist:

01. Thanks to You (2:46)
02. Slow Surprise (2:49)
03. Hold On (4:05)
04. Cave Man (4:40)
05. Help Me Now (3:26)
06. Small Revelations (4:03)
07. Winsome Smile (3:47)
08. Dust My Broom (3:13)
09. Sportin' Life (3:09)
10. Hook, Line and Sinker (4:01)


Exact Audio Copy V1.3 from 2. September 2016

EAC extraction logfile from 16. August 2018, 12:53

Chris Smither / Small Revelations

Used drive : ASUS BW-12D1S-U Adapter: 1 ID: 1

Read mode : Secure
Utilize accurate stream : Yes
Defeat audio cache : Yes
Make use of C2 pointers : No

Read offset correction : 667
Overread into Lead-In and Lead-Out : No
Fill up missing offset samples with silence : Yes
Delete leading and trailing silent blocks : No
Null samples used in CRC calculations : Yes
Used interface : Native Win32 interface for Win NT & 2000
Gap handling : Appended to previous track

Used output format : User Defined Encoder
Selected bitrate : 1024 kBit/s
Quality : High
Add ID3 tag : No
Command line compressor : C:\Program Files (x86)\Exact Audio Copy\FLAC\FLAC.EXE
Additional command line options : -V -8 -T "Genre=%genre%" -T "Artist=%artist%" -T "Title=%title%" -T "Album=%albumtitle%" -T "Date=%year%" -T "Tracknumber=%tracknr%" -T "Comment=%comment%" %source%


TOC of the extracted CD

Track | Start | Length | Start sector | End sector
––––––––––––––––––––––––––––-
1 | 0:00.00 | 2:45.55 | 0 | 12429
2 | 2:45.55 | 2:49.15 | 12430 | 25119
3 | 5:34.70 | 4:05.25 | 25120 | 43519
4 | 9:40.20 | 4:39.52 | 43520 | 64496
5 | 14:19.72 | 3:25.60 | 64497 | 79931
6 | 17:45.57 | 4:02.68 | 79932 | 98149
7 | 21:48.50 | 3:46.50 | 98150 | 115149
8 | 25:35.25 | 3:12.42 | 115150 | 129591
9 | 28:47.67 | 3:08.53 | 129592 | 143744
10 | 31:56.45 | 4:00.45 | 143745 | 161789


Track 1

Filename E:\Torrents of Autumn\Smither, Chris [1997] Small Revelations (HDCD)\01. Thanks to You.wav

Pre-gap length 0:00:02.00

Peak level 98.7 %
Extraction speed 4.5 X
Track quality 100.0 %
Test CRC F8C33AA6
Copy CRC F8C33AA6
Accurately ripped (confidence 3) [B3323B9C] (AR v2)
Copy OK

Track 2

Filename E:\Torrents of Autumn\Smither, Chris [1997] Small Revelations (HDCD)\02. Slow Surprise.wav

Pre-gap length 0:00:02.18

Peak level 97.6 %
Extraction speed 4.8 X
Track quality 100.0 %
Test CRC D2F6F18E
Copy CRC D2F6F18E
Accurately ripped (confidence 3) [182E6526] (AR v2)
Copy OK

Track 3

Filename E:\Torrents of Autumn\Smither, Chris [1997] Small Revelations (HDCD)\03. Hold On.wav

Pre-gap length 0:00:03.13

Peak level 99.1 %
Extraction speed 4.9 X
Track quality 99.9 %
Test CRC CF958EFD
Copy CRC CF958EFD
Accurately ripped (confidence 3) [584D9DEF] (AR v2)
Copy OK

Track 4

Filename E:\Torrents of Autumn\Smither, Chris [1997] Small Revelations (HDCD)\04. Cave Man.wav

Pre-gap length 0:00:03.40

Peak level 97.9 %
Extraction speed 5.9 X
Track quality 100.0 %
Test CRC D72F55CA
Copy CRC D72F55CA
Accurately ripped (confidence 3) [DD3D4FD2] (AR v2)
Copy OK

Track 5

Filename E:\Torrents of Autumn\Smither, Chris [1997] Small Revelations (HDCD)\05. Help Me Now.wav

Pre-gap length 0:00:02.60

Peak level 98.3 %
Extraction speed 6.0 X
Track quality 100.0 %
Test CRC 36F79130
Copy CRC 36F79130
Accurately ripped (confidence 3) [F2237F9F] (AR v2)
Copy OK

Track 6

Filename E:\Torrents of Autumn\Smither, Chris [1997] Small Revelations (HDCD)\06. Small Revelations.wav

Pre-gap length 0:00:02.02

Peak level 97.3 %
Extraction speed 6.4 X
Track quality 100.0 %
Test CRC 482ECD55
Copy CRC 482ECD55
Accurately ripped (confidence 3) [AB50A036] (AR v2)
Copy OK

Track 7

Filename E:\Torrents of Autumn\Smither, Chris [1997] Small Revelations (HDCD)\07. Winsome Smile.wav

Pre-gap length 0:00:02.70

Peak level 98.7 %
Extraction speed 6.6 X
Track quality 100.0 %
Test CRC B7690B5C
Copy CRC B7690B5C
Accurately ripped (confidence 3) [15AD886C] (AR v2)
Copy OK

Track 8

Filename E:\Torrents of Autumn\Smither, Chris [1997] Small Revelations (HDCD)\08. Dust My Broom.wav

Pre-gap length 0:00:01.48

Peak level 99.5 %
Extraction speed 5.8 X
Track quality 99.9 %
Test CRC 560C256A
Copy CRC 560C256A
Accurately ripped (confidence 3) [470F0D1E] (AR v2)
Copy OK

Track 9

Filename E:\Torrents of Autumn\Smither, Chris [1997] Small Revelations (HDCD)\09. Sportin' Life.wav

Pre-gap length 0:00:03.12

Peak level 98.0 %
Extraction speed 6.8 X
Track quality 100.0 %
Test CRC 2D09FABA
Copy CRC 2D09FABA
Accurately ripped (confidence 3) [71F803E8] (AR v2)
Copy OK

Track 10

Filename E:\Torrents of Autumn\Smither, Chris [1997] Small Revelations (HDCD)\10. Hook, Line and Sinker.wav

Pre-gap length 0:00:01.23

Peak level 98.6 %
Extraction speed 7.3 X
Track quality 100.0 %
Test CRC F72C50EE
Copy CRC F72C50EE
Accurately ripped (confidence 3) [5C62711C] (AR v2)
Copy OK


All tracks accurately ripped

No errors occurred

End of status report

–– CUETools DB Plugin V2.1.6

[CTDB TOCID: O2gY4HtheEkhCSV1BOSV4W8BvNc-] found
Submit result: O2gY4HtheEkhCSV1BOSV4W8BvNc- has been confirmed
Track | CTDB Status
1 | (34/35) Accurately ripped
2 | (35/35) Accurately ripped
3 | (34/35) Accurately ripped
4 | (34/35) Accurately ripped
5 | (34/35) Accurately ripped
6 | (34/35) Accurately ripped
7 | (35/35) Accurately ripped
8 | (35/35) Accurately ripped
9 | (34/35) Accurately ripped
10 | (35/35) Accurately ripped


==== Log checksum 33665F888CCC72347D31162F1A05CD8FB1E51B9C5B8FB1F1EB4228D8FBF9A401 ====

foobar2000 1.2 / Dynamic Range Meter 1.1.1
log date: 2018-08-18 16:15:57

––––––––––––––––––––––––––––––––––––––––
Analyzed: Chris Smither / Small Revelations
––––––––––––––––––––––––––––––––––––––––

DR Peak RMS Duration Track
––––––––––––––––––––––––––––––––––––––––
DR8 -0.11 dB -9.28 dB 2:46 01-Thanks to You
DR9 -0.21 dB -11.70 dB 2:49 02-Slow Surprise
DR9 -0.08 dB -9.98 dB 4:05 03-Hold On
DR10 -0.18 dB -12.50 dB 4:40 04-Cave Man
DR9 -0.14 dB -9.93 dB 3:26 05-Help Me Now
DR10 -0.23 dB -12.12 dB 4:03 06-Small Revelations
DR9 -0.11 dB -9.92 dB 3:47 07-Winsome Smile
DR8 -0.04 dB -9.60 dB 3:13 08-Dust My Broom
DR10 -0.17 dB -13.30 dB 3:09 09-Sportin' Life
DR9 -0.11 dB -11.92 dB 4:01 10-Hook, Line and Sinker
––––––––––––––––––––––––––––––––––––––––

Number of tracks: 10
Official DR value: DR9

Samplerate: 44100 Hz
Channels: 2
Bits per sample: 16
Bitrate: 734 kbps
Codec: FLAC
================================================================================

Chris Smither - Small Revelations (1997)

Chris Smither - Small Revelations (1997)