Subcategories

Christian Tetzlaff, David Zinman & Tonhalle Orchestra Zurich - Beethoven: Violin Concerto, Violin Romances (2006)

Posted By: tirexiss
Christian Tetzlaff, David Zinman & Tonhalle Orchestra Zurich - Beethoven: Violin Concerto, Violin Romances (2006)

Christian Tetzlaff, David Zinman & Tonhalle Orchestra Zurich - Beethoven: Violin Concerto, Violin Romances (2006)
EAC | APE (image+.cue, log) | Covers Included | 55:46 | 251 MB
Genre: Classical | Label: Arte Nova Classics | Catalog: 769940

Christian Tetzlaff is a brilliant violinist, one whose technique is equaled by his intelligence. He recorded a very respectable Beethoven Violin Concerto with Michael Gielen, last available on Point Classics in so-so sound. This newcomer is finer still, an interpretation with real personality and a point of view. It's a reading of high contrasts in which the music's antithesis between energetic outbursts (particularly in the first movement) and lyrical effusiveness comes to the fore. Zinman establishes this dichotomy right from the beginning: tempos are swift, accents are sharp, and when Tetzlaff enters, the polarity between solo and orchestra swiftly establishes itself.

In this context, Tetzlaff's use of Beethoven's own cadenza from the piano concerto version of the piece, recast for solo violin, proves an inspired choice, carrying the drama straight through to the end of the movement. The Larghetto finds Tetzlaff offering tenderness and real "Innigkeit" without a shred of excessive sentimentality; and as throughout the performance his exchanges with the orchestra's woodwind section are just lovely. Even in the rambunctious finale Tetzlaff displays remarkable variety in his phrasing of the main theme, at first a touch subdued, as if still shrugging off the previous movement's legato dreaminess, but then frisky and buoyant. It's a remarkably comprehensive conception of the piece, and the two Romances, the logical coupling, seldom have sounded more elegant. Great sonics make this a version that, like Zinman's recording of the Triple Concerto, really will make you listen to the music with fresh ears. – David Hurwitz

Christian Tetzlaff, David Zinman & Tonhalle Orchestra Zurich - Beethoven: Violin Concerto, Violin Romances (2006)

Track List:

Concerto for Violin and Orchestra in D major op.61
01. I. Allegro ma non troppo (22:50)
02. II. Larghetto (08:52)
03. III. Rondo (09:18)
Romance for Violin and Orchestra in G major op.40
04. Adagio - Allegro con brio (06:25)
Romance for Violin and Orchestra in F major op.50
05. Adagio cantabile (08:18)

Performers:
Christian Tetzlaff : Violin
David Zinman & Tonhalle Orchestra Zurich

Exact Audio Copy V0.99 prebeta 5 from 4. May 2009

EAC extraction logfile from 18. October 2011, 12:02

C. Tetzlaff, D. Zinman & Tonhalle Orchestra Zurich / Beethoven : Violin Concerto & Violin Romances

Used drive : TSSTcorpCDDVDW SE-S224Q Adapter: 2 ID: 0

Read mode : Secure
Utilize accurate stream : Yes
Defeat audio cache : Yes
Make use of C2 pointers : No

Read offset correction : 6
Overread into Lead-In and Lead-Out : No
Fill up missing offset samples with silence : Yes
Delete leading and trailing silent blocks : No
Null samples used in CRC calculations : Yes
Used interface : Installed external ASPI interface

Used output format : Monkey's Audio Lossless Encoder v3.99 DLL
Sample format : Normal Lossless Compression


TOC of the extracted CD

Track | Start | Length | Start sector | End sector
––––––––––––––––––––––––––––-
1 | 0:00.00 | 22:50.40 | 0 | 102789
2 | 22:50.40 | 8:52.66 | 102790 | 142755
3 | 31:43.31 | 9:18.43 | 142756 | 184648
4 | 41:01.74 | 6:25.67 | 184649 | 213590
5 | 47:27.66 | 8:18.09 | 213591 | 250949


Range status and errors

Selected range

Filename E:\ICE\B.VC.CT.DZ\C. Tetzlaff, D. Zinman & Tonhalle Orchestra Zurich - Beethoven Violin Concerto & Violin Romances.ape

Peak level 97.3 %
Range quality 100.0 %
Test CRC 5638A459
Copy CRC 5638A459
Copy OK

No errors occurred


AccurateRip summary

Track 1 accurately ripped (confidence 3) [254AC332]
Track 2 accurately ripped (confidence 3) [53DB8543]
Track 3 accurately ripped (confidence 3) [F6CC3DD4]
Track 4 accurately ripped (confidence 3) [AB1F0C04]
Track 5 accurately ripped (confidence 3) [33CCF103]

All tracks accurately ripped

End of status report

Thanks to the Original ripper (unknown)!

Download: