Subcategories

Christoph Eschenbach: The Early Recordings (2011) (6 CD Box Set)

Posted By: murena
Christoph Eschenbach: The Early Recordings (2011) (6 CD Box Set)

Christoph Eschenbach: The Early Recordings (2011) (6 CD Box Set)
EAC Rip | FLAC (Image+.cue, log) | 05:30:33 | Covers included | 1,12 Gb
Genre: Classical / Label: Brilliant Classics

Born in 1941, and currently chief conductor of the Orchestre de Paris, Christoph Eschenbach is one of today’s foremost conductor-pianists. This fascinating retrospective focuses on his brilliant early career as a pianist, when his searching musical intelligence, formidable technique and enthusiastic engagement with the music of his, and our, time produced many recordings that have stood the test of time.

Ates Orga’s detailed booklet notes offer a personal account from the man himself of his troubled start in life as an orphan, without the power of speech, learning to love and communicate through music. His quite fierce style is shaped by his admiration of great German intellectual musicians such as Edwin Fischer and Wilhelm Furtwängler, and finds an ideal analogue in the works of Beethoven, such as the Third and Fifth Piano Concertos, and the mighty ‘Hammerklavier’ Sonata included in this set. Equally his refinement, evident nowadays in the French music he conducts in Paris and in his recordings with the Philadelphia orchestra, is reflected in his early portrayals of the romantic genius of Chopin (the Préludes) and Schumann (Kinderszenen).

His long friendship with Hans Werner Henze led the great German composer to write the Piano Concerto No.2 for Eschenbach, and this vast, Shakespeare-inspired work remains Henze at his boldest and most compelling, like Eschenbach himself, soaked in the German artistic tradition but finding new outgrowths from it.

Of appeal to connoisseurs of the piano and to new-music enthusiasts Will receive coverage in the serious musical press.

Christoph Eschenbach: The Early Recordings (2011) (6 CD Box Set)


Tracklist:

Disc: 1
1. Piano Concerto No. 3 in C minor, Op. 37: Allegro con brio
2. Piano Concerto No. 3 in C minor, Op. 37: Largo
3. Piano Concerto No. 3 in C minor, Op. 37: Rondo, allegro
4. Piano Concerto No. 5 in E flat major ('Emperor'), Op. 73: Allegro
5. Piano Concerto No. 5 in E flat major ('Emperor'), Op. 73: Adagio un poco mosso
6. Piano Concerto No. 5 in E flat major ('Emperor'), Op. 73: Rondo, allegro

Exact Audio Copy V0.99 prebeta 5 from 4. May 2009

EAC extraction logfile from 10. October 2010, 12:37

Christoph Eschenbach / Eschenbach - The Early Recordings - CD1

Used drive : HL-DT-STDVDRAM GSA-4083N Adapter: 1 ID: 0

Read mode : Secure
Utilize accurate stream : Yes
Defeat audio cache : Yes
Make use of C2 pointers : No

Read offset correction : 667
Overread into Lead-In and Lead-Out : No
Fill up missing offset samples with silence : Yes
Delete leading and trailing silent blocks : No
Null samples used in CRC calculations : No
Used interface : Native Win32 interface for Win NT & 2000

Used output format : User Defined Encoder
Selected bitrate : 768 kBit/s
Quality : High
Add ID3 tag : No
Command line compressor : C:\Program Files\Exact Audio Copy\FLAC\FLAC.EXE
Additional command line options : -6 -V -T "ARTIST=%a" -T "TITLE=%t" -T "ALBUM=%g" -T "DATE=%y" -T "TRACKNUMBER=%n" -T "GENRE=%m" -T "COMMENT=%e" %s -o %d


TOC of the extracted CD

Track | Start | Length | Start sector | End sector
––––––––––––––––––––––––––––-
1 | 0:00.00 | 17:34.60 | 0 | 79109
2 | 17:34.60 | 11:17.00 | 79110 | 129884
3 | 28:51.60 | 9:29.15 | 129885 | 172574
4 | 38:21.00 | 20:15.55 | 172575 | 263754
5 | 58:36.55 | 9:21.15 | 263755 | 305844
6 | 67:57.70 | 10:29.05 | 305845 | 353024


Range status and errors

Selected range

Filename F:\Music\Eschenbach - The Early Recordings\Eschenbach - The Early Recordings - CD1.wav

Peak level 100.0 %
Range quality 100.0 %
Copy CRC B65FA68B
Copy OK

No errors occurred

End of status report


Disc: 2
1. Piano Sonata No. 29 in B flat major ('Hammerklavier'), Op. 106: Allegro
2. Piano Sonata No. 29 in B flat major ('Hammerklavier'), Op. 106: Scherzo, assai vivace
3. Piano Sonata No. 29 in B flat major ('Hammerklavier'), Op. 106: Adagio sostenuto, appassionato e con molto sentimento
4. Piano Sonata No. 29 in B flat major ('Hammerklavier'), Op. 106: Largo-allegro risoluto

Exact Audio Copy V0.99 prebeta 5 from 4. May 2009

EAC extraction logfile from 10. October 2010, 12:55

Christoph Eschenbach / Eschenbach - The Early Recordings - CD2

Used drive : HL-DT-STDVDRAM GSA-4083N Adapter: 1 ID: 0

Read mode : Secure
Utilize accurate stream : Yes
Defeat audio cache : Yes
Make use of C2 pointers : No

Read offset correction : 667
Overread into Lead-In and Lead-Out : No
Fill up missing offset samples with silence : Yes
Delete leading and trailing silent blocks : No
Null samples used in CRC calculations : No
Used interface : Native Win32 interface for Win NT & 2000

Used output format : User Defined Encoder
Selected bitrate : 768 kBit/s
Quality : High
Add ID3 tag : No
Command line compressor : C:\Program Files\Exact Audio Copy\FLAC\FLAC.EXE
Additional command line options : -6 -V -T "ARTIST=%a" -T "TITLE=%t" -T "ALBUM=%g" -T "DATE=%y" -T "TRACKNUMBER=%n" -T "GENRE=%m" -T "COMMENT=%e" %s -o %d


TOC of the extracted CD

Track | Start | Length | Start sector | End sector
––––––––––––––––––––––––––––-
1 | 0:00.00 | 11:31.53 | 0 | 51877
2 | 11:31.53 | 2:42.58 | 51878 | 64085
3 | 14:14.36 | 24:21.60 | 64086 | 173720
4 | 38:36.21 | 11:28.59 | 173721 | 225379


Range status and errors

Selected range

Filename F:\Music\Eschenbach - The Early Recordings\Eschenbach - The Early Recordings - CD2.wav

Peak level 93.1 %
Range quality 100.0 %
Copy CRC 2EEF894A
Copy OK

No errors occurred

End of status report


Disc: 3
1. Preludes (24) for piano, Op. 28, CT. 166-189: No. 1 in C, agitato
2. Preludes (24) for piano, Op. 28, CT. 166-189: No. 2 in A minor, lento
3. Preludes (24) for piano, Op. 28, CT. 166-189: No. 3 in G, vivace
4. Preludes (24) for piano, Op. 28, CT. 166-189: No. 4 in E minor, largo
5. Preludes (24) for piano, Op. 28, CT. 166-189: No. 5 in D, allegro molto
6. Preludes (24) for piano, Op. 28, CT. 166-189: No. 6 in B minor, lento assai
7. Preludes (24) for piano, Op. 28, CT. 166-189: No. 7 in A, andantino
8. Preludes (24) for piano, Op. 28, CT. 166-189: No. 8 in F sharp minor, molto agitato
9. Preludes (24) for piano, Op. 28, CT. 166-189: No. 9 in E, largo
10. Preludes (24) for piano, Op. 28, CT. 166-189: No. 10 in C sharp minor, allegro molto
11. Preludes (24) for piano, Op. 28, CT. 166-189: No. 11 in B, vivace
12. Preludes (24) for piano, Op. 28, CT. 166-189: No. 12 in G sharp minor, presto
13. Preludes (24) for piano, Op. 28, CT. 166-189: No. 13 in F sharp, lento
14. Preludes (24) for piano, Op. 28, CT. 166-189: No. 14 in E flat minor, allegro
15. Preludes (24) for piano, Op. 28, CT. 166-189: No. 15 in D flat, sostenuto
16. Preludes (24) for piano, Op. 28, CT. 166-189: No. 16 in B flat minor, presto con fuoco
17. Preludes (24) for piano, Op. 28, CT. 166-189: No. 17 in A flat, allegretto
18. Preludes (24) for piano, Op. 28, CT. 166-189: No. 18 in F minor, allegro molto
19. Preludes (24) for piano, Op. 28, CT. 166-189: No. 19 in E flat, vivace
20. Preludes (24) for piano, Op. 28, CT. 166-189: No. 20 in C minor, largo
21. Preludes (24) for piano, Op. 28, CT. 166-189: No. 21 in B flat, cantabile
22. Preludes (24) for piano, Op. 28, CT. 166-189: No. 22 in G minor, molto agitato
23. Preludes (24) for piano, Op. 28, CT. 166-189: No. 23 in F, moderato
24. Preludes (24) for piano, Op. 28, CT. 166-189: No. 24 in D minor, allegro appassionato
25. Prelude for piano No. 25 in C sharp minor, Op. 45, CT. 190
26. Prelude for piano No. 26 in A flat major ('Presto con leggierezza'), KK IVb/7, CT. 191 (B. 86)
27. Kinderszenen (Scenes from Childhood) for piano, Op. 15: Von fremden Ländern und Menschen
28. Kinderszenen (Scenes from Childhood) for piano, Op. 15: Kuriöse Geschichte
29. Kinderszenen (Scenes from Childhood) for piano, Op. 15: Hasche-Mann
30. Kinderszenen (Scenes from Childhood) for piano, Op. 15: Bittendes Kind
31. Kinderszenen (Scenes from Childhood) for piano, Op. 15: Glückes genug
32. Kinderszenen (Scenes from Childhood) for piano, Op. 15: Wichtige Begebenheit
33. Kinderszenen (Scenes from Childhood) for piano, Op. 15: Träumerei
34. Kinderszenen (Scenes from Childhood) for piano, Op. 15: Am Kamin
35. Kinderszenen (Scenes from Childhood) for piano, Op. 15: Ritter vom Steckenpferd
36. Kinderszenen (Scenes from Childhood) for piano, Op. 15: Fast zu ernst
37. Kinderszenen (Scenes from Childhood) for piano, Op. 15: Fürchtenmachen
38. Kinderszenen (Scenes from Childhood) for piano, Op. 15: Kind im Einschlummern
39. Kinderszenen (Scenes from Childhood) for piano, Op. 15: Der Dichter spricht

Exact Audio Copy V0.99 prebeta 5 from 4. May 2009

EAC extraction logfile from 10. October 2010, 13:29

Christoph Eschenbach / Eschenbach - The Early Recordings - CD3

Used drive : HL-DT-STDVDRAM GSA-4083N Adapter: 1 ID: 0

Read mode : Secure
Utilize accurate stream : Yes
Defeat audio cache : Yes
Make use of C2 pointers : No

Read offset correction : 667
Overread into Lead-In and Lead-Out : No
Fill up missing offset samples with silence : Yes
Delete leading and trailing silent blocks : No
Null samples used in CRC calculations : No
Used interface : Native Win32 interface for Win NT & 2000

Used output format : User Defined Encoder
Selected bitrate : 768 kBit/s
Quality : High
Add ID3 tag : No
Command line compressor : C:\Program Files\Exact Audio Copy\FLAC\FLAC.EXE
Additional command line options : -6 -V -T "ARTIST=%a" -T "TITLE=%t" -T "ALBUM=%g" -T "DATE=%y" -T "TRACKNUMBER=%n" -T "GENRE=%m" -T "COMMENT=%e" %s -o %d


TOC of the extracted CD

Track | Start | Length | Start sector | End sector
––––––––––––––––––––––––––––-
1 | 0:00.00 | 0:47.38 | 0 | 3562
2 | 0:47.38 | 2:29.41 | 3563 | 14778
3 | 3:17.04 | 0:59.43 | 14779 | 19246
4 | 4:16.47 | 1:58.00 | 19247 | 28096
5 | 6:14.47 | 0:35.69 | 28097 | 30790
6 | 6:50.41 | 2:18.71 | 30791 | 41211
7 | 9:09.37 | 1:03.54 | 41212 | 45990
8 | 10:13.16 | 1:45.34 | 45991 | 53899
9 | 11:58.50 | 1:42.10 | 53900 | 61559
10 | 13:40.60 | 0:32.04 | 61560 | 63963
11 | 14:12.64 | 0:36.49 | 63964 | 66712
12 | 14:49.38 | 1:12.45 | 66713 | 72157
13 | 16:02.08 | 3:44.22 | 72158 | 88979
14 | 19:46.30 | 0:35.44 | 88980 | 91648
15 | 20:21.74 | 5:34.27 | 91649 | 116725
16 | 25:56.26 | 1:06.72 | 116726 | 121747
17 | 27:03.23 | 4:03.45 | 121748 | 140017
18 | 31:06.68 | 0:58.16 | 140018 | 144383
19 | 32:05.09 | 1:19.45 | 144384 | 150353
20 | 33:24.54 | 1:54.53 | 150354 | 158956
21 | 35:19.32 | 2:08.38 | 158957 | 168594
22 | 37:27.70 | 0:46.71 | 168595 | 172115
23 | 38:14.66 | 1:00.50 | 172116 | 176665
24 | 39:15.41 | 2:39.73 | 176666 | 188663
25 | 41:55.39 | 5:58.39 | 188664 | 215552
26 | 47:54.03 | 0:50.47 | 215553 | 219349
27 | 48:44.50 | 1:48.03 | 219350 | 227452
28 | 50:32.53 | 1:12.24 | 227453 | 232876
29 | 51:45.02 | 0:30.60 | 232877 | 235186
30 | 52:15.62 | 1:10.02 | 235187 | 240438
31 | 53:25.64 | 1:15.64 | 240439 | 246127
32 | 54:41.53 | 0:44.10 | 246128 | 249437
33 | 55:25.63 | 3:27.02 | 249438 | 264964
34 | 58:52.65 | 1:10.02 | 264965 | 270216
35 | 60:02.67 | 0:42.02 | 270217 | 273368
36 | 60:44.69 | 2:25.02 | 273369 | 284245
37 | 63:09.71 | 1:49.02 | 284246 | 292422
38 | 64:58.73 | 2:28.02 | 292423 | 303524
39 | 67:27.00 | 1:53.47 | 303525 | 312046


Range status and errors

Selected range

Filename F:\Music\Eschenbach - The Early Recordings\Eschenbach - The Early Recordings - CD3.wav

Peak level 96.1 %
Range quality 100.0 %
Copy CRC BF6F84BD
Copy OK

No errors occurred

End of status report


Disc: 4
1. Piano Sonata No. 20 in A major, D. 959: Allegro
2. Piano Sonata No. 20 in A major, D. 959: Andantino
3. Piano Sonata No. 20 in A major, D. 959: Scherzo, allegro vivace
4. Piano Sonata No. 20 in A major, D. 959: Rondo, allegretto

Exact Audio Copy V0.99 prebeta 5 from 4. May 2009

EAC extraction logfile from 10. October 2010, 13:44

Christoph Eschenbach / Eschenbach - The Early Recordings - CD4

Used drive : HL-DT-STDVDRAM GSA-4083N Adapter: 1 ID: 0

Read mode : Secure
Utilize accurate stream : Yes
Defeat audio cache : Yes
Make use of C2 pointers : No

Read offset correction : 667
Overread into Lead-In and Lead-Out : No
Fill up missing offset samples with silence : Yes
Delete leading and trailing silent blocks : No
Null samples used in CRC calculations : No
Used interface : Native Win32 interface for Win NT & 2000

Used output format : User Defined Encoder
Selected bitrate : 768 kBit/s
Quality : High
Add ID3 tag : No
Command line compressor : C:\Program Files\Exact Audio Copy\FLAC\FLAC.EXE
Additional command line options : -6 -V -T "ARTIST=%a" -T "TITLE=%t" -T "ALBUM=%g" -T "DATE=%y" -T "TRACKNUMBER=%n" -T "GENRE=%m" -T "COMMENT=%e" %s -o %d


TOC of the extracted CD

Track | Start | Length | Start sector | End sector
––––––––––––––––––––––––––––-
1 | 0:00.00 | 15:23.02 | 0 | 69226
2 | 15:23.02 | 7:36.02 | 69227 | 103428
3 | 22:59.04 | 5:14.02 | 103429 | 126980
4 | 28:13.06 | 12:18.02 | 126981 | 182332


Range status and errors

Selected range

Filename F:\Music\Eschenbach - The Early Recordings\Eschenbach - The Early Recordings - CD4.wav

Peak level 99.9 %
Range quality 100.0 %
Copy CRC 43585AEE
Copy OK

No errors occurred

End of status report


Disc: 5
1. Piano Sonata No. 21 in B flat major, D. 960: Molto moderato
2. Piano Sonata No. 21 in B flat major, D. 960: Andante sostenuto
3. Piano Sonata No. 21 in B flat major, D. 960: Scherzo, allegro vivace con delicatezza
4. Piano Sonata No. 21 in B flat major, D. 960: Allegro ma non troppo

Exact Audio Copy V0.99 prebeta 5 from 4. May 2009

EAC extraction logfile from 10. October 2010, 14:00

Christoph Eschenbach / Eschenbach - The Early Recordings - CD5

Used drive : HL-DT-STDVDRAM GSA-4083N Adapter: 1 ID: 0

Read mode : Secure
Utilize accurate stream : Yes
Defeat audio cache : Yes
Make use of C2 pointers : No

Read offset correction : 667
Overread into Lead-In and Lead-Out : No
Fill up missing offset samples with silence : Yes
Delete leading and trailing silent blocks : No
Null samples used in CRC calculations : No
Used interface : Native Win32 interface for Win NT & 2000

Used output format : User Defined Encoder
Selected bitrate : 768 kBit/s
Quality : High
Add ID3 tag : No
Command line compressor : C:\Program Files\Exact Audio Copy\FLAC\FLAC.EXE
Additional command line options : -6 -V -T "ARTIST=%a" -T "TITLE=%t" -T "ALBUM=%g" -T "DATE=%y" -T "TRACKNUMBER=%n" -T "GENRE=%m" -T "COMMENT=%e" %s -o %d


TOC of the extracted CD

Track | Start | Length | Start sector | End sector
––––––––––––––––––––––––––––-
1 | 0:00.00 | 19:26.06 | 0 | 87455
2 | 19:26.06 | 10:37.42 | 87456 | 135272
3 | 30:03.48 | 4:19.35 | 135273 | 154732
4 | 34:23.08 | 8:58.18 | 154733 | 195100


Range status and errors

Selected range

Filename F:\Music\Eschenbach - The Early Recordings\Eschenbach - The Early Recordings - CD5.wav

Peak level 93.6 %
Range quality 100.0 %
Copy CRC 46188D06
Copy OK

No errors occurred

End of status report


Disc: 6
1. Piano Concerto No. 2: Moderato
2. Piano Concerto No. 2: Vivace-meno mosso-tempo
3. Piano Concerto No. 2: Moderato-
4. Piano Concerto No. 2: Vivace-
5. Piano Concerto No. 2: Lento-
6. Piano Concerto No. 2: Vivace

Exact Audio Copy V0.99 prebeta 5 from 4. May 2009

EAC extraction logfile from 10. October 2010, 14:30

Christoph Eschenbach / Eschenbach - The Early Recordings - CD6

Used drive : HL-DT-STDVDRAM GSA-4083N Adapter: 1 ID: 0

Read mode : Secure
Utilize accurate stream : Yes
Defeat audio cache : Yes
Make use of C2 pointers : No

Read offset correction : 667
Overread into Lead-In and Lead-Out : No
Fill up missing offset samples with silence : Yes
Delete leading and trailing silent blocks : No
Null samples used in CRC calculations : No
Used interface : Native Win32 interface for Win NT & 2000

Used output format : User Defined Encoder
Selected bitrate : 768 kBit/s
Quality : High
Add ID3 tag : No
Command line compressor : C:\Program Files\Exact Audio Copy\FLAC\FLAC.EXE
Additional command line options : -6 -V -T "ARTIST=%a" -T "TITLE=%t" -T "ALBUM=%g" -T "DATE=%y" -T "TRACKNUMBER=%n" -T "GENRE=%m" -T "COMMENT=%e" %s -o %d


TOC of the extracted CD

Track | Start | Length | Start sector | End sector
––––––––––––––––––––––––––––-
1 | 0:00.00 | 14:26.70 | 0 | 65019
2 | 14:26.70 | 13:59.72 | 65020 | 128016
3 | 28:26.67 | 6:56.35 | 128017 | 159251
4 | 35:23.27 | 1:35.48 | 159252 | 166424
5 | 36:59.00 | 3:47.17 | 166425 | 183466
6 | 40:46.17 | 8:31.58 | 183467 | 221849


Range status and errors

Selected range

Filename F:\Music\Eschenbach - The Early Recordings\Eschenbach - The Early Recordings - CD6.wav

Peak level 99.9 %
Range quality 100.0 %
Copy CRC C958B8A5
Copy OK

No errors occurred

End of status report


Christoph Eschenbach: The Early Recordings (2011) (6 CD Box Set)


Thanks to the original ripper.