Subcategories

Christophe Rousset, Les Talens Lyriques - Antonio Salieri: La Grotta di Trofonio (2006)

Posted By: ArlegZ
Christophe Rousset, Les Talens Lyriques - Antonio Salieri: La Grotta di Trofonio (2006)

Christophe Rousset, Les Talens Lyriques - Salieri: La Grotta di Trofonio (2006)
EAC | FLAC | Image (Cue & Log) ~ 1.05 Gb | Total time: 75:33+62:15+39:08 (bonus) | Scans included
Classical | Label: Ambroisie | AMB 9986 | Recorded: 2005

Now unfairly stigmatised (due to Pushkin and the film Amadeus) as Mozart’s sinister Nemesis, Antonio Salieri (1750-1825) enjoyed the more successful career as an opera composer. His comedy Trofonio’s Cave, written to a clever libretto by Giambattista Casti, was staged at Vienna’s Burgtheater in October 1785, just a few months before Figaro debuted there, and kept its place in the repertory for 30 years. If posterity gave the palm to Mozart, his contemporaries preferred Salieri. And indeed the Italian’s attractive score to this text describing the effects of entering a magic cave upon two pairs of lovers – one quiet and earnest, the other noisy hedonists – is full of good things. There’s a genuine melodic gift on display, and Salieri’s scoring is consistently inventive. More surprising are the pre-echoes in the work of Don Giovanni (1787) and especially Così fan tutte (1790). The music for the magician Trofonio and his spirits is striking and much of the remainder appealingly lively. This is an extremely worthwhile revival, presented orchestrally in the vivid colours of Les Talens Lyriques under the invigorating direction of Christophe Rousset, and with a strong cast of young singers who are all musically and dramatically alert.
– George Hall

Performer:
Aristone - Olivier Lallouette
Ofelia - Raffaella Milanesi
Dori - Marie Arnet
Artemidoro - Nikolaï Schukoff
Plistene - Mario Cassi
Trofonio - Carlo Lepore
Chœur de l’Opéra de Lausanne
Les Talens Lyriques
Conductor - Christophe Rousset

Track List:
CD1:
01. Sinfonia
02. Atto I. Mie care figliuole…
03. Figlie mie, m'intendeste
04. Orsù già compresi
05. Ofelia, io so che sbesso
06. D'un dolce amor la face
07. Ma veggio Artemidoro che qua sen vien
08. Il diletto che in petto mi sento
09. Evviva!
10. Da una fonte islesso
11. Io credo Artemidoro, che come è tuo costume…
12. Ne lo stato conjugale
13. Spiriti invisibili che ite per l'aere…
14. Ma v'è chi qua s'avanza
15. Di questo bosco ombroso
16. V'è alcun, fra quelle fronde
17. Ah trovar fra queste piante
18. Oh, Oh! chi è quì, che stassi ad osservarmi?
19. Cieli! che fu? d'un moto
20. Evviva la gioja
21. Già degl'incanti miei
22. Numi! qual mai s'oprò metamorfosi in me? / Vieni, o Maestro, e duce!
23. Così cangiar l'uom dee d'un mio cenno
24. Duetto. È un piacer col caro amante… Mentre, o dolce mio tesoro
25. Duetto. Che fa Plistene, perchè non viene?… Ciochè più apprezzasi tutto è follia.
26. Del giardin per i viali le mie figlie troverò… Che confusioni strane!… In un momento
CD2:
01. Atto II. Panzienza figlie mie
02. Se il tuo sposo è assai brioso
03. Eppur malgrado il ragionar del Padre
04. Un bocconcin d'amante
05. Forse il contegno, e il ragionar che tenni con Dori
06. E in casa altrui… Per questo muso
07. Voce confusa e tronca
08. Che fù, che m'avvenne!… / Forse qualche vapor
09. Sognai, o sogno ancor?… / Certo io provai poc'anzi
10. Costante, e ognor l'istessa
11. Questo magico abituro
12. Ancor d'Artemidoro il cangiamento… Più che io penso al caso di Plistene
13. Venite, o Donne, meco… Un galantuom mi sembra… Selvatico non par
14. Né posso ancor trovarle!
15. Ma perchè in ordine il tutto vada
16. L'allegra Dori ecco che fuor sen viene
17. La ra la la ra la ra… Che Filosofo buffon!
18. Dell'antro mio cosa ti parve Ofelia?
19. La Ra La La Ra La Ra…
20. Ofelia, alfin ti trovo
21. Quel muso arcigno, e burbero… Il tuo natio carattere
22. Non veggio più né figlie mie, né i sposi
23. Ofelia!… Via: va là, faccia d'Astrologo
24. Trofonio, Trofonio, filosofo greco
25. Da l'antro uscite… Pronte seguiamo… Lieti prendiamo il fausto augurio
26. Sperar poss'io… / Quartetto dei giovani. Tu sei 'l mio bene


Exact Audio Copy V1.3 from 2. September 2016

EAC extraction logfile from 7. February 2020, 10:00

Christophe Rousset / Salieri - La grotta di Trofonio CD1

Used drive : HL-DT-STBD-RE WH16NS40 Adapter: 1 ID: 0

Read mode : Secure
Utilize accurate stream : Yes
Defeat audio cache : Yes
Make use of C2 pointers : No

Read offset correction : 6
Overread into Lead-In and Lead-Out : No
Fill up missing offset samples with silence : Yes
Delete leading and trailing silent blocks : No
Null samples used in CRC calculations : Yes
Used interface : Native Win32 interface for Win NT & 2000

Used output format : User Defined Encoder
Selected bitrate : 1024 kBit/s
Quality : High
Add ID3 tag : No
Command line compressor : C:\Program Files (x86)\Exact Audio Copy\FLAC\FLAC.EXE
Additional command line options : -6 -V -T "ARTIST=%artist%" -T "TITLE=%title%" -T "ALBUM=%albumtitle%" -T "DATE=%year%" -T "TRACKNUMBER=%tracknr%" -T "GENRE=%genre%" -T "COMMENT=%comment%" -T "BAND=%albuminterpret%" -T "ALBUMARTIST=%albuminterpret%" -T "COMPOSER=%composer%" %haslyrics%–tag-from-file=LYRICS="%lyricsfile%"%haslyrics% -T "DISCNUMBER=%cdnumber%" -T "TOTALDISCS=%totalcds%" -T "TOTALTRACKS=%numtracks%" %hascover%–picture="%coverfile%"%hascover% %source% -o %dest%


TOC of the extracted CD

Track | Start | Length | Start sector | End sector
––––––––––––––––––––––––––––-
1 | 0:00.00 | 4:53.63 | 0 | 22037
2 | 4:53.63 | 3:33.64 | 22038 | 38076
3 | 8:27.52 | 2:00.05 | 38077 | 47081
4 | 10:27.57 | 1:08.23 | 47082 | 52204
5 | 11:36.05 | 1:06.15 | 52205 | 57169
6 | 12:42.20 | 5:52.25 | 57170 | 83594
7 | 18:34.45 | 1:02.60 | 83595 | 88304
8 | 19:37.30 | 2:36.57 | 88305 | 100061
9 | 22:14.12 | 2:08.63 | 100062 | 109724
10 | 24:23.00 | 4:39.15 | 109725 | 130664
11 | 29:02.15 | 3:34.54 | 130665 | 146768
12 | 32:36.69 | 2:51.17 | 146769 | 159610
13 | 35:28.11 | 6:50.13 | 159611 | 190373
14 | 42:18.24 | 0:20.30 | 190374 | 191903
15 | 42:38.54 | 5:19.68 | 191904 | 215896
16 | 47:58.47 | 1:10.00 | 215897 | 221146
17 | 49:08.47 | 2:28.45 | 221147 | 232291
18 | 51:37.17 | 0:45.57 | 232292 | 235723
19 | 52:22.74 | 1:52.10 | 235724 | 244133
20 | 54:15.09 | 0:34.24 | 244134 | 246707
21 | 54:49.33 | 0:20.19 | 246708 | 248226
22 | 55:09.52 | 4:43.11 | 248227 | 269462
23 | 59:52.63 | 0:26.02 | 269463 | 271414
24 | 60:18.65 | 5:28.27 | 271415 | 296041
25 | 65:47.17 | 2:36.55 | 296042 | 307796
26 | 68:23.72 | 7:09.13 | 307797 | 339984


Range status and errors

Selected range

Filename C:\Users\Grant\Desktop\Christophe Rousset - Salieri - La grotta di Trofonio CD1.wav

Peak level 96.6 %
Extraction speed 8.8 X
Range quality 99.9 %
Test CRC C57CC447
Copy CRC C57CC447
Copy OK

No errors occurred


AccurateRip summary

Track 1 accurately ripped (confidence 9) [0CC93143] (AR v2)
Track 2 accurately ripped (confidence 9) [668AD8C7] (AR v2)
Track 3 accurately ripped (confidence 9) [01343349] (AR v2)
Track 4 accurately ripped (confidence 9) [9805D1CC] (AR v2)
Track 5 accurately ripped (confidence 9) [E2A744C2] (AR v2)
Track 6 accurately ripped (confidence 9) [726C3B70] (AR v2)
Track 7 accurately ripped (confidence 9) [2781DD2A] (AR v2)
Track 8 accurately ripped (confidence 9) [EB4E03EC] (AR v2)
Track 9 accurately ripped (confidence 9) [011FB5E1] (AR v2)
Track 10 accurately ripped (confidence 9) [39C51779] (AR v2)
Track 11 accurately ripped (confidence 9) [0C954B6A] (AR v2)
Track 12 accurately ripped (confidence 9) [D3AA7DF4] (AR v2)
Track 13 accurately ripped (confidence 9) [28E9E18F] (AR v2)
Track 14 accurately ripped (confidence 9) [6AB7B31D] (AR v2)
Track 15 accurately ripped (confidence 9) [E8595E00] (AR v2)
Track 16 accurately ripped (confidence 9) [8D0BE7BC] (AR v2)
Track 17 accurately ripped (confidence 9) [3BEE58F3] (AR v2)
Track 18 accurately ripped (confidence 9) [C1E32664] (AR v2)
Track 19 accurately ripped (confidence 9) [FC4EA281] (AR v2)
Track 20 accurately ripped (confidence 9) [97B9B130] (AR v2)
Track 21 accurately ripped (confidence 9) [20D51ECE] (AR v2)
Track 22 accurately ripped (confidence 9) [BC07E82E] (AR v2)
Track 23 accurately ripped (confidence 9) [D6200429] (AR v2)
Track 24 accurately ripped (confidence 9) [35D2E2DB] (AR v2)
Track 25 accurately ripped (confidence 9) [FFE340FB] (AR v2)
Track 26 accurately ripped (confidence 9) [B55925D4] (AR v2)

All tracks accurately ripped

End of status report

–– CUETools DB Plugin V2.1.6

[CTDB TOCID: O6b1XQWjbe7SXrMEjGYa5MzCj48-] found
Submit result: O6b1XQWjbe7SXrMEjGYa5MzCj48- has been confirmed
Track | CTDB Status
1 | (15/16) Accurately ripped
2 | (16/16) Accurately ripped
3 | (16/16) Accurately ripped
4 | (16/16) Accurately ripped
5 | (16/16) Accurately ripped
6 | (16/16) Accurately ripped
7 | (16/16) Accurately ripped
8 | (16/16) Accurately ripped
9 | (16/16) Accurately ripped
10 | (16/16) Accurately ripped
11 | (16/16) Accurately ripped
12 | (16/16) Accurately ripped
13 | (16/16) Accurately ripped
14 | (16/16) Accurately ripped
15 | (16/16) Accurately ripped
16 | (16/16) Accurately ripped
17 | (16/16) Accurately ripped
18 | (16/16) Accurately ripped
19 | (16/16) Accurately ripped
20 | (16/16) Accurately ripped
21 | (16/16) Accurately ripped
22 | (16/16) Accurately ripped
23 | (16/16) Accurately ripped
24 | (16/16) Accurately ripped
25 | (16/16) Accurately ripped
26 | (16/16) Accurately ripped


==== Log checksum B52D145EFDCCC46E9BA365CEAEEE13954914055D0540B72587314A1A6532B65A ====


Exact Audio Copy V1.3 from 2. September 2016

EAC extraction logfile from 7. February 2020, 10:20

Christophe Rousset / Salieri - La grotta di Trofonio CD2

Used drive : HL-DT-STBD-RE WH16NS40 Adapter: 1 ID: 0

Read mode : Secure
Utilize accurate stream : Yes
Defeat audio cache : Yes
Make use of C2 pointers : No

Read offset correction : 6
Overread into Lead-In and Lead-Out : No
Fill up missing offset samples with silence : Yes
Delete leading and trailing silent blocks : No
Null samples used in CRC calculations : Yes
Used interface : Native Win32 interface for Win NT & 2000

Used output format : User Defined Encoder
Selected bitrate : 1024 kBit/s
Quality : High
Add ID3 tag : No
Command line compressor : C:\Program Files (x86)\Exact Audio Copy\FLAC\FLAC.EXE
Additional command line options : -6 -V -T "ARTIST=%artist%" -T "TITLE=%title%" -T "ALBUM=%albumtitle%" -T "DATE=%year%" -T "TRACKNUMBER=%tracknr%" -T "GENRE=%genre%" -T "COMMENT=%comment%" -T "BAND=%albuminterpret%" -T "ALBUMARTIST=%albuminterpret%" -T "COMPOSER=%composer%" %haslyrics%–tag-from-file=LYRICS="%lyricsfile%"%haslyrics% -T "DISCNUMBER=%cdnumber%" -T "TOTALDISCS=%totalcds%" -T "TOTALTRACKS=%numtracks%" %hascover%–picture="%coverfile%"%hascover% %source% -o %dest%


TOC of the extracted CD

Track | Start | Length | Start sector | End sector
––––––––––––––––––––––––––––-
1 | 0:00.00 | 1:06.31 | 0 | 4980
2 | 1:06.31 | 4:42.25 | 4981 | 26155
3 | 5:48.56 | 0:43.29 | 26156 | 29409
4 | 6:32.10 | 4:11.44 | 29410 | 48278
5 | 10:43.54 | 1:35.28 | 48279 | 55431
6 | 12:19.07 | 0:51.74 | 55432 | 59330
7 | 13:11.06 | 0:32.48 | 59331 | 61778
8 | 13:43.54 | 2:42.59 | 61779 | 73987
9 | 16:26.38 | 5:04.39 | 73988 | 96826
10 | 21:31.02 | 0:12.52 | 96827 | 97778
11 | 21:43.54 | 1:12.53 | 97779 | 103231
12 | 22:56.32 | 1:49.47 | 103232 | 111453
13 | 24:46.04 | 4:09.29 | 111454 | 130157
14 | 28:55.33 | 1:11.54 | 130158 | 135536
15 | 30:07.12 | 3:05.55 | 135537 | 149466
16 | 33:12.67 | 1:48.31 | 149467 | 157597
17 | 35:01.23 | 1:35.15 | 157598 | 164737
18 | 36:36.38 | 0:45.71 | 164738 | 168183
19 | 37:22.34 | 0:22.64 | 168184 | 169897
20 | 37:45.23 | 0:21.07 | 169898 | 171479
21 | 38:06.30 | 4:32.25 | 171480 | 191904
22 | 42:38.55 | 1:34.41 | 191905 | 198995
23 | 44:13.21 | 2:10.45 | 198996 | 208790
24 | 46:23.66 | 8:17.07 | 208791 | 246072
25 | 54:40.73 | 2:46.15 | 246073 | 258537
26 | 57:27.13 | 4:47.26 | 258538 | 280088


Range status and errors

Selected range

Filename C:\Users\Grant\Desktop\Christophe Rousset - Salieri - La grotta di Trofonio CD2.wav

Peak level 96.6 %
Extraction speed 7.7 X
Range quality 100.0 %
Test CRC 97BB5EF8
Copy CRC 97BB5EF8
Copy OK

No errors occurred


AccurateRip summary

Track 1 accurately ripped (confidence 9) [535700A7] (AR v2)
Track 2 accurately ripped (confidence 9) [1EECCAF4] (AR v2)
Track 3 accurately ripped (confidence 9) [5AC4F19B] (AR v2)
Track 4 accurately ripped (confidence 9) [C4B05F85] (AR v2)
Track 5 accurately ripped (confidence 9) [9951AF07] (AR v2)
Track 6 accurately ripped (confidence 9) [1B261B3A] (AR v2)
Track 7 accurately ripped (confidence 9) [1FE78B49] (AR v2)
Track 8 accurately ripped (confidence 9) [9B1990F3] (AR v2)
Track 9 accurately ripped (confidence 9) [C29B1ED6] (AR v2)
Track 10 accurately ripped (confidence 9) [A4E9200A] (AR v2)
Track 11 accurately ripped (confidence 9) [5533B8DF] (AR v2)
Track 12 accurately ripped (confidence 9) [F65E1603] (AR v2)
Track 13 accurately ripped (confidence 9) [8E68E902] (AR v2)
Track 14 accurately ripped (confidence 8) [624B5501] (AR v2)
Track 15 accurately ripped (confidence 9) [06B81BFE] (AR v2)
Track 16 accurately ripped (confidence 9) [4A211EA5] (AR v2)
Track 17 accurately ripped (confidence 9) [F7A75635] (AR v2)
Track 18 accurately ripped (confidence 9) [734F6529] (AR v2)
Track 19 accurately ripped (confidence 9) [B8876FB2] (AR v2)
Track 20 accurately ripped (confidence 9) [B3B9D8CF] (AR v2)
Track 21 accurately ripped (confidence 9) [6EA98861] (AR v2)
Track 22 accurately ripped (confidence 9) [8B92ED74] (AR v2)
Track 23 accurately ripped (confidence 9) [3C7EC90D] (AR v2)
Track 24 accurately ripped (confidence 9) [364F0756] (AR v2)
Track 25 accurately ripped (confidence 9) [14700F0B] (AR v2)
Track 26 accurately ripped (confidence 9) [99CEC0B0] (AR v2)

All tracks accurately ripped

End of status report

–– CUETools DB Plugin V2.1.6

[CTDB TOCID: VxaCeUpFwEzvNZvhg7qnzb_2aJ4-] found
Submit result: VxaCeUpFwEzvNZvhg7qnzb_2aJ4- has been confirmed
Track | CTDB Status
1 | (16/16) Accurately ripped
2 | (16/16) Accurately ripped
3 | (16/16) Accurately ripped
4 | (16/16) Accurately ripped
5 | (16/16) Accurately ripped
6 | (16/16) Accurately ripped
7 | (16/16) Accurately ripped
8 | (16/16) Accurately ripped
9 | (16/16) Accurately ripped
10 | (16/16) Accurately ripped
11 | (16/16) Accurately ripped
12 | (16/16) Accurately ripped
13 | (16/16) Accurately ripped
14 | (16/16) Accurately ripped
15 | (16/16) Accurately ripped
16 | (16/16) Accurately ripped
17 | (16/16) Accurately ripped
18 | (16/16) Accurately ripped
19 | (16/16) Accurately ripped
20 | (16/16) Accurately ripped
21 | (16/16) Accurately ripped
22 | (16/16) Accurately ripped
23 | (16/16) Accurately ripped
24 | (16/16) Accurately ripped
25 | (16/16) Accurately ripped
26 | (16/16) Accurately ripped


==== Log checksum 95185CDA8B7D301A3E83633D16D362B7AFFC15332348FB524D7332AE755B7FF8 ====

Christophe Rousset, Les Talens Lyriques - Antonio Salieri: La Grotta di Trofonio (2006)

Thanks to the original releaser