Subcategories

Chuck Berry - Johnny B. Goode: His Complete '50s Chess Recordings (2007)

Posted By: uff
Chuck Berry - Johnny B. Goode: His Complete '50s Chess Recordings (2007)

Chuck Berry - Johnny B. Goode: His Complete '50s Chess Recordings (2007)
Rock & Roll | 4cd | EAC Rip | Ape + Cue + Log | covers
Geffen, B0009473-02 | rel: 2007 | 1360Mb

John Lennon once said that if you were going to give another name to rock & roll you might as well call it Chuck Berry – a phrase that has been repeated to exhaustion precisely because it is no exaggeration. More than any other single musician, Berry defined the sound, style, and attitude of what rock & roll is, pushing guitars and cars to the forefront, constructing a world of soda shops and jukeboxes that resided just down the road a piece, finding an endless world within three chords. Fats Domino may have started the big wheel rolling, the Everly Brothers invented the power chord, Buddy Holly married pop with tough rockabilly, Little Richard had the manic energy, and Elvis Presley broke down the barriers, but Chuck Berry was the one that created the culture. How he did it is at long last chronicled in detail on Hip-O Select's Johnny B. Goode: His Complete '50s Chess Recordings, a four-CD set containing all his singles from the '50s (which include most of his biggest hits), album tracks, and rarities, including demos and unreleased recordings. Berry, of course, had another decade of vital recordings on Chess ahead of him (and an often-overlooked series of worthy recordings for the label in the '70s), but within these '50s sessions is where the heart of his legacy lies, as this is when he created rock & roll out of jump blues, country boogie, juke joint R&B, Harry Belafonte calypso, and Nat King Cole crooning.
Listening to Johnny B. Goode: His Complete '50s Chess Recordings is an entirely different experience than The Great 28 or any other hit-heavy compilation where all the brilliant singles sound so much of a piece that they give the impression that they were all cut at roughly the same time. Those who learned Berry's music through these compilations – and there are generations of listeners who did – may be surprised that certain hits like "No Particular Place to Go" or "You Never Can Tell" arrived well into the '60s and so are absent here, perhaps jarringly so. What "Johnny B. Goode" does a superb job of is putting Berry's music in context, illustrating what happened when by methodically going through every existing recording in the Chess vaults, including alternate takes, instrumental jams, a few live tracks, a single by the Ecuadors featuring Chuck on guitar, and a handful of unreleased cuts. Unlike Hip-O Select's similar Bo Diddley I'm a Man: The Chess Masters 1955-1958 there are no major unreleased songs (I'm a Man had Bo's original "Love Is Strange"); instead, this has a plethora of alternates, all sequenced in succession, which would give this the feel of an excavation if the music itself wasn't so energetic and enjoyable.
Many of the alternate takes here have seen the light of day elsewhere, usually on the Rock 'N' Roll Rarities or Missing Berries series (a heavy dose of these were also first unearthed on the 1974 LP Chuck Berry's Golden Decade, Vol. 3), but the value of "Johnny B. Goode" is in having all of this music in one place – not just for the sake of completists who need to have everything an artist cut, but to hear how the artist developed. That is true here, as Berry gets more confident as the years pass, but the remarkable thing about "Johnny B. Goode" is that it shows how Chuck emerged almost fully formed with "Maybellene" and then continued to mine that same vein of blues, hillbilly, jazz, and R&B for years. His wit sharpened quickly, while his music jelled so the boundaries between his influences evaporated, but the only major introduction to come later in the set is his signature opening guitar riff, debuting on "Johnny B. Goode." Indeed, it's a bit of a shock to realize that it took him so long to nail this defining musical turnaround, but that may be the biggest revelation on this set. Instead of being filled surprises, Johnny B. Goode engenders a deeper appreciation of Berry's art.
Hearing the successive alternate takes pile up after each other, it's easy to appreciate Chuck's verbal dexterity, how he spins from one scenario to another on "Reelin' and Rockin'," suggesting just how quickly the words came to him. This, in turn, makes it easier to appreciate the potency of his poetry, but comparing this rapid-fire humor to the finely crafted details of "Memphis Tennessee," "Brown Eyed Handsome Man," and "No Money Down," or the vivid teenage renderings of "School Day" and "Sweet Little Sixteen" and "Almost Grown" demonstrate just how carefully crafted his lyrics were. Similarly, Johnny B. Goode: His Complete '50s Chess Recordings also offers an understanding of how rich and varied his musical gifts were. Listening to all the recordings in a row emphasizes how deep the blues ran within his music, and nowhere is that truer than on lengthy unreleased instrumentals, simply titled "Long Fast Jam" and "Long Slow Jam," where Chuck, longtime pianist Johnnie Johnson, bassist Willie Dixon, and drummer Jasper Thomas lay back and play for over 11 minutes for each cut. As Berry's brevity always seemed key to his brilliance – his singles always were succinct, never lasting longer than they should – it might seem that such prolonged jams would be flabby, but they're mesmerizing, particularly in how they showcase Johnson's fluid, rolling piano. The blues is at the core of Berry's rock & roll and he never abandoned it, even if he enthusiastically turned it inside out.
As Johnny B. Goode shows, Berry hit upon his formula early – the first disc alone contains "Thirty Days," "You Can't Catch Me," "Brown Eyed Handsome Man," "Roll Over Beethoven," "Too Much Monkey Business," and "School Day," while the second has "Rock & Roll Music," "Sweet Little Sixteen," "Reelin' and Rockin'," "Johnny B. Goode," and "Around and Around," classics and standards one and all – and he was savvy enough to know not to fix something that wasn't broken and so he didn't. He continued to refurbish and ever so slightly expand his formula into the '60s, creating some of his greatest music in the years to come – – and with any luck, Hip-O Select will document that in future releases – but Berry's '50s recordings for Chess prove one of the greatest bursts of creativity in American music. This is not only the foundation of Chuck's music, but rock & roll and pop culture of the 20th century, and it's thrilling to finally have it all as a complete box set. ~Allmusic

Track listing
cd1:
01. Maybellene (2:21)
02. Wee Wee Hours (3:05)
03. Thirty Days (To Come Back Home) (2:25)
04. Together (We Will Always Be) (2:37)
05. You Can't Catch Me (2:44)
06. Rolli Polli (instrumental) (2:50)
07. Down Bound Train (2:50)
08. Berry Pickin' (instrumental) (2:32)
09. No Money Down (2:58)
10. I've Changed (3:07)
11. Drifting Heart (2:49)
12. Brown Eyed Handsome Man (2:17)
13. Roll Over Beethoven (2:24)
14. Too Much Monkey Business (2:55)
15. Maybellene (live) (2:06)
16. Roll Over Beethoven (live) (2:44)
17. Havana Moon (3:08)
18. Rock And Roll Music (demo) (2:40)
19. Untitled Instrumental (2:23)
20. Deep Feeling (instrumental) (2:20)
21. School Day (Ring! Ring! Goes The Bell) (2:43)
22. Low Feeling (instrumental) (3:10)
23. La Jaunda (Espanol) (3:12)
24. Blue Feeling (instrumental) (3:02)
25. How You've Changed (2:48)
26. Oh Baby Doll (2:36)

cd2:
01. Rock And Roll Music (alternate) (2:26)
02. Rock And Roll Music (2:33)
03. 13 Question Method (early version) (2:40)
04. How High The Moon (instrumental) (3:09)
05. Sweet Little Sixteen (demo) (3:08)
06. Sweet Little Sixteen (take 3) (3:12)
07. Sweet Little Sixteen (take 11) (3:08)
08. Sweet Little Sixteen (original master) (3:17)
09. Sweet Little Sixteen (sped up originally released version) (3:02)
10. Rock At The Philharmonic (instrumental) (3:24)
11. Guitar Boogie (instrumental) (2:20)
12. Night Beat (take 3) (instrumental) (2:58)
13. Night Beat (instrumental) (2:44)
14. Time Was (slow version, take 4) (2:37)
15. Time Was (slow version) (2:02)
16. Reelin' And Rockin' (take 1) (3:38)
17. Reelin' And Rockin' (takes 7/8) (3:47)
18. Reelin' And Rockin' (3:16)
19. Chuckwalk (instrumental) (2:28)
20. Johnny B. Goode (alt. take 2/3) (3:21)
21. Johnny B. Goode (2:41)
22. Around And Around (overdub take 2) (2:49)
23. Around And Around (overdub take 3) (2:42)
24. Around And Around (2:43)
25. Ingo (overdub take 3) (instrumental) (2:57)
26. Ingo (instrumental) (2:30)

cd3:
01. It Don't Take But a Few Minutes (2:28)
02. Blues For Hawaiians (instrumental) (3:24)
03. Beautiful Delilah (alternate takes 15/16) (2:32)
04. Beautiful Delilah (take 6) (2:09)
05. 21 Blues (2:11)
06. 21 (2:26)
07. 21 (take 14) (2:38)
08. Vacation Time (2:54)
09. Oh Yeah (2:35)
10. Hey Pedro (1:56)
11. Time Was (fast version) (2:29)
12. House Of Blue Lights (2:28)
13. Carol (2:49)
14. Jo Jo Gunne (2:46)
15. Memphis Tennessee (2:14)
16. Anthony Boy (1:54)
17. Sweet Little Rock 'n' Roller (alternate take 5) (2:27)
18. Sweet Little Rock 'n' Roller (take 11A) (2:22)
19. Long Fast Jam (instrumental) (11:34)
20. Long Slow Jam (instrumental) (11:13)
21. Merry Christmas Baby (3:14)
22. Merry Christmas Baby (alternate) (3:00)
23. Run Rudolph Run (2:43)

cd4:
01. Little Queenie (take 8) (2:31)
02. Little Queenie (2:42)
03. That's My Desire (2:19)
04. Do You Love Me (alternate) (2:24)
05. Do You Love Me (2:36)
06. Almost Grown (take 14) (2:34)
07. Almost Grown (take 28) (2:55)
08. Almost Grown (2:21)
09. Back In The U.S.A. (2:28)
10. Blue On Blue (alternate a/k/a Upchuck) (instrumental) (3:10)
11. Blue On Blue (instrumental) (2:59)
12. Betty Jean (alternate take 14) (2:27)
13. Betty Jean (alternate take 17) (2:40)
14. Betty Jean (2:31)
15. County Line (2:17)
16. Childhood Sweetheart (alternate) (3:12)
17. Childhood Sweetheart (2:44)
18. One O'clock Jump (instrumental) (3:08)
19. I Just Want To Make Love To You (take 3) (2:18)
20. I Just Want to Make Love to You (2:13)
21. Broken Arrow (take 21) (2:45)
22. Broken Arrow (2:28)
23. Let It Rock (alternate mix) (1:58)
24. Let It Rock (1:48)
25. Too Pooped To Pop (take 4A) (2:38)
26. Too Pooped to Pop (2:36)
27. Ecuadors - Say You'll Be Mine (2:18)
28. Ecuadors - Let Me Sleep Woman (2:24)


Exact Audio Copy V0.99 prebeta 5 from 4. May 2009

EAC extraction logfile from 7. November 2009, 0:44

Chuck Berry / Johnny B. Goode: His Complete '50's Chess Recordings Disc 1

Used drive : BENQ DVD DD DW1640 Adapter: 1 ID: 1

Read mode : Secure
Utilize accurate stream : Yes
Defeat audio cache : Yes
Make use of C2 pointers : No

Read offset correction : 618
Overread into Lead-In and Lead-Out : No
Fill up missing offset samples with silence : Yes
Delete leading and trailing silent blocks : No
Null samples used in CRC calculations : Yes
Used interface : Installed external ASPI interface

Used output format : Internal WAV Routines
Sample format : 44.100 Hz; 16 Bit; Stereo


TOC of the extracted CD

Track | Start | Length | Start sector | End sector
––––––––––––––––––––––––––––-
1 | 0:00.00 | 2:21.68 | 0 | 10642
2 | 2:21.68 | 3:05.00 | 10643 | 24517
3 | 5:26.68 | 2:25.27 | 24518 | 35419
4 | 7:52.20 | 2:37.56 | 35420 | 47250
5 | 10:30.01 | 2:44.24 | 47251 | 59574
6 | 13:14.25 | 2:50.38 | 59575 | 72362
7 | 16:04.63 | 2:50.55 | 72363 | 85167
8 | 18:55.43 | 2:32.02 | 85168 | 96569
9 | 21:27.45 | 2:58.48 | 96570 | 109967
10 | 24:26.18 | 3:07.05 | 109968 | 123997
11 | 27:33.23 | 2:49.38 | 123998 | 136710
12 | 30:22.61 | 2:17.68 | 136711 | 147053
13 | 32:40.54 | 2:24.13 | 147054 | 157866
14 | 35:04.67 | 2:55.60 | 157867 | 171051
15 | 38:00.52 | 2:06.55 | 171052 | 180556
16 | 40:07.32 | 2:44.12 | 180557 | 192868
17 | 42:51.44 | 3:08.30 | 192869 | 206998
18 | 45:59.74 | 2:40.68 | 206999 | 219066
19 | 48:40.67 | 2:23.42 | 219067 | 229833
20 | 51:04.34 | 2:20.18 | 229834 | 240351
21 | 53:24.52 | 2:43.28 | 240352 | 252604
22 | 56:08.05 | 3:10.04 | 252605 | 266858
23 | 59:18.09 | 3:12.70 | 266859 | 281328
24 | 62:31.04 | 3:02.24 | 281329 | 295002
25 | 65:33.28 | 2:48.07 | 295003 | 307609
26 | 68:21.35 | 2:36.27 | 307610 | 319336


Range status and errors

Selected range

Filename C:\My Music\Chuck Berry - Johnny B. Goode His Complete '50's Chess Recordings Disc 1\Chuck Berry - Johnny B. Goode His Complete '50's Chess Recordings Disc 1.wav

Peak level 100.0 %
Range quality 100.0 %
Copy CRC 931B433F
Copy OK

No errors occurred

End of status report

Exact Audio Copy V0.99 prebeta 5 from 4. May 2009

EAC extraction logfile from 7. November 2009, 13:11

Chuck Berry / Johnny B. Goode: His Complete '50's Chess Recordings Disc 2

Used drive : BENQ DVD DD DW1640 Adapter: 1 ID: 1

Read mode : Secure
Utilize accurate stream : Yes
Defeat audio cache : Yes
Make use of C2 pointers : No

Read offset correction : 618
Overread into Lead-In and Lead-Out : No
Fill up missing offset samples with silence : Yes
Delete leading and trailing silent blocks : No
Null samples used in CRC calculations : Yes
Used interface : Installed external ASPI interface

Used output format : Internal WAV Routines
Sample format : 44.100 Hz; 16 Bit; Stereo


TOC of the extracted CD

Track | Start | Length | Start sector | End sector
––––––––––––––––––––––––––––-
1 | 0:00.00 | 2:26.46 | 0 | 10995
2 | 2:26.46 | 2:33.15 | 10996 | 22485
3 | 4:59.61 | 2:40.50 | 22486 | 34535
4 | 7:40.36 | 3:09.20 | 34536 | 48730
5 | 10:49.56 | 3:08.55 | 48731 | 62885
6 | 13:58.36 | 3:12.41 | 62886 | 77326
7 | 17:11.02 | 3:08.57 | 77327 | 91483
8 | 20:19.59 | 3:17.47 | 91484 | 106305
9 | 23:37.31 | 3:02.18 | 106306 | 119973
10 | 26:39.49 | 3:24.00 | 119974 | 135273
11 | 30:03.49 | 2:20.67 | 135274 | 145840
12 | 32:24.41 | 2:58.58 | 145841 | 159248
13 | 35:23.24 | 2:44.65 | 159249 | 171613
14 | 38:08.14 | 2:37.17 | 171614 | 183405
15 | 40:45.31 | 2:02.13 | 183406 | 192568
16 | 42:47.44 | 3:38.06 | 192569 | 208924
17 | 46:25.50 | 3:47.29 | 208925 | 225978
18 | 50:13.04 | 3:16.45 | 225979 | 240723
19 | 53:29.49 | 2:28.27 | 240724 | 251850
20 | 55:58.01 | 3:21.50 | 251851 | 266975
21 | 59:19.51 | 2:41.00 | 266976 | 279050
22 | 62:00.51 | 2:49.46 | 279051 | 291771
23 | 64:50.22 | 2:42.62 | 291772 | 303983
24 | 67:33.09 | 2:43.23 | 303984 | 316231
25 | 70:16.32 | 2:57.32 | 316232 | 329538
26 | 73:13.64 | 2:30.19 | 329539 | 340807


Range status and errors

Selected range

Filename C:\My Music\Chuck Berry - Johnny B. Goode His Complete '50's Chess Recordings Disc 2\Chuck Berry - Johnny B. Goode His Complete '50's Chess Recordings Disc 2.wav

Peak level 100.0 %
Range quality 100.0 %
Copy CRC 76DD1CFD
Copy OK

No errors occurred

End of status report
–-

Exact Audio Copy V0.99 prebeta 5 from 4. May 2009

EAC extraction logfile from 7. November 2009, 15:39

Chuck Berry / Johnny B. Goode: His Complete '50's Chess Recordings Disc 3

Used drive : BENQ DVD DD DW1640 Adapter: 1 ID: 1

Read mode : Secure
Utilize accurate stream : Yes
Defeat audio cache : Yes
Make use of C2 pointers : No

Read offset correction : 618
Overread into Lead-In and Lead-Out : No
Fill up missing offset samples with silence : Yes
Delete leading and trailing silent blocks : No
Null samples used in CRC calculations : Yes
Used interface : Installed external ASPI interface

Used output format : Internal WAV Routines
Sample format : 44.100 Hz; 16 Bit; Stereo


TOC of the extracted CD

Track | Start | Length | Start sector | End sector
––––––––––––––––––––––––––––-
1 | 0:00.00 | 2:28.59 | 0 | 11158
2 | 2:28.59 | 3:24.67 | 11159 | 26525
3 | 5:53.51 | 2:32.08 | 26526 | 37933
4 | 8:25.59 | 2:09.72 | 37934 | 47680
5 | 10:35.56 | 2:11.50 | 47681 | 57555
6 | 12:47.31 | 2:26.43 | 57556 | 68548
7 | 15:13.74 | 2:38.12 | 68549 | 80410
8 | 17:52.11 | 2:54.08 | 80411 | 93468
9 | 20:46.19 | 2:35.15 | 93469 | 105108
10 | 23:21.34 | 1:56.62 | 105109 | 113870
11 | 25:18.21 | 2:29.03 | 113871 | 125048
12 | 27:47.24 | 2:28.12 | 125049 | 136160
13 | 30:15.36 | 2:49.10 | 136161 | 148845
14 | 33:04.46 | 2:46.68 | 148846 | 161363
15 | 35:51.39 | 2:14.00 | 161364 | 171413
16 | 38:05.39 | 1:54.27 | 171414 | 179990
17 | 39:59.66 | 2:27.50 | 179991 | 191065
18 | 42:27.41 | 2:22.60 | 191066 | 201775
19 | 44:50.26 | 11:34.51 | 201776 | 253876
20 | 56:25.02 | 11:13.52 | 253877 | 304403
21 | 67:38.54 | 3:14.02 | 304404 | 318955
22 | 70:52.56 | 3:00.63 | 318956 | 332518
23 | 73:53.44 | 2:43.57 | 332519 | 344800


Range status and errors

Selected range

Filename C:\My Music\Chuck Berry - Johnny B. Goode His Complete '50's Chess Recordings Disc 3\Chuck Berry - Johnny B. Goode His Complete '50's Chess Recordings Disc 3.wav

Peak level 100.0 %
Range quality 100.0 %
Copy CRC 1B053A2E
Copy OK

No errors occurred

End of status report
–-

Exact Audio Copy V0.99 prebeta 5 from 4. May 2009

EAC extraction logfile from 7. November 2009, 17:11

Chuck Berry / Johnny B. Goode: His Complete '50's Chess Recordings Disc 4

Used drive : BENQ DVD DD DW1640 Adapter: 1 ID: 1

Read mode : Secure
Utilize accurate stream : Yes
Defeat audio cache : Yes
Make use of C2 pointers : No

Read offset correction : 618
Overread into Lead-In and Lead-Out : No
Fill up missing offset samples with silence : Yes
Delete leading and trailing silent blocks : No
Null samples used in CRC calculations : Yes
Used interface : Installed external ASPI interface

Used output format : Internal WAV Routines
Sample format : 44.100 Hz; 16 Bit; Stereo


TOC of the extracted CD

Track | Start | Length | Start sector | End sector
––––––––––––––––––––––––––––-
1 | 0:00.00 | 2:31.09 | 0 | 11333
2 | 2:31.09 | 2:42.65 | 11334 | 23548
3 | 5:13.74 | 2:19.25 | 23549 | 33998
4 | 7:33.24 | 2:24.07 | 33999 | 44805
5 | 9:57.31 | 2:36.47 | 44806 | 56552
6 | 12:34.03 | 2:34.71 | 56553 | 68173
7 | 15:08.74 | 2:55.15 | 68174 | 81313
8 | 18:04.14 | 2:21.15 | 81314 | 91903
9 | 20:25.29 | 2:28.70 | 91904 | 103073
10 | 22:54.24 | 3:10.18 | 103074 | 117341
11 | 26:04.42 | 2:59.66 | 117342 | 130832
12 | 29:04.33 | 2:27.34 | 130833 | 141891
13 | 31:31.67 | 2:40.30 | 141892 | 153921
14 | 34:12.22 | 2:31.67 | 153922 | 165313
15 | 36:44.14 | 2:17.45 | 165314 | 175633
16 | 39:01.59 | 3:12.60 | 175634 | 190093
17 | 42:14.44 | 2:44.43 | 190094 | 202436
18 | 44:59.12 | 3:08.50 | 202437 | 216586
19 | 48:07.62 | 2:18.38 | 216587 | 226974
20 | 50:26.25 | 2:13.40 | 226975 | 236989
21 | 52:39.65 | 2:45.24 | 236990 | 249388
22 | 55:25.14 | 2:28.44 | 249389 | 260532
23 | 57:53.58 | 1:58.00 | 260533 | 269382
24 | 59:51.58 | 1:48.14 | 269383 | 277496
25 | 61:39.72 | 2:38.05 | 277497 | 289351
26 | 64:18.02 | 2:36.12 | 289352 | 301063
27 | 66:54.14 | 2:18.68 | 301064 | 311481
28 | 69:13.07 | 2:24.73 | 311482 | 322354


Range status and errors

Selected range

Filename C:\My Music\Chuck Berry - Johnny B. Goode His Complete '50's Chess Recordings Disc 4\Chuck Berry - Johnny B. Goode His Complete '50's Chess Recordings Disc 4.wav

Peak level 99.9 %
Range quality 100.0 %
Copy CRC FF7A3F99
Copy OK

No errors occurred

End of status report


[CUETools log; Date: 2017. 06. 05. 22:11:33; Version: 2.1.6]
[CTDB TOCID: Cue.Z9TDpj.IGX.vEiyakd95Nq4-] found.
Track | CTDB Status
1 | (19/19) Accurately ripped
2 | (19/19) Accurately ripped
3 | (19/19) Accurately ripped
4 | (19/19) Accurately ripped
5 | (19/19) Accurately ripped
6 | (19/19) Accurately ripped
7 | (19/19) Accurately ripped
8 | (19/19) Accurately ripped
9 | (19/19) Accurately ripped
10 | (19/19) Accurately ripped
11 | (19/19) Accurately ripped
12 | (19/19) Accurately ripped
13 | (19/19) Accurately ripped
14 | (19/19) Accurately ripped
15 | (19/19) Accurately ripped
16 | (19/19) Accurately ripped
17 | (19/19) Accurately ripped
18 | (19/19) Accurately ripped
19 | (18/19) Accurately ripped
20 | (19/19) Accurately ripped
21 | (19/19) Accurately ripped
22 | (19/19) Accurately ripped
23 | (19/19) Accurately ripped
24 | (19/19) Accurately ripped
25 | (19/19) Accurately ripped
26 | (19/19) Accurately ripped
[AccurateRip ID: 004129f3-04c1f904-7b10a11a] found.
Track [ CRC | V2 ] Status
01 [41a85fd1|75a78289] (00+00/30) No match
02 [c1a86a51|d327f9dd] (00+00/30) No match
03 [40cb949f|144713f6] (00+00/30) No match
04 [4034bb49|9b61f5e6] (00+00/30) No match
05 [7fc40e4f|6fb909f5] (00+00/30) No match
06 [c1436eb8|6dff765e] (00+00/30) No match
07 [a550d9bd|a7f6927a] (00+00/30) No match
08 [1047381e|a2c578d2] (00+00/30) No match
09 [191ff73c|4c28fee8] (00+00/30) No match
10 [01330ac3|643ada37] (00+00/30) No match
11 [112137e6|75046f36] (00+00/30) No match
12 [c402d683|105f97e9] (00+00/30) No match
13 [cf02a762|11df4624] (00+00/30) No match
14 [45c9685f|9900d060] (00+00/29) No match
15 [4489b79d|45066304] (00+00/29) No match
16 [71f536f3|be8d3890] (00+00/30) No match
17 [02d87e11|6e8a8eb3] (00+00/30) No match
18 [cf8aff7b|986b7bd8] (00+00/30) No match
19 [2e8d4c27|edd72315] (00+00/30) No match
20 [0f300bfc|a8e1a411] (00+00/30) No match
21 [c6c62d79|2aab8546] (00+00/30) No match
22 [963614ee|dbda2a7f] (00+00/30) No match
23 [97457285|0a0c4a0e] (00+00/30) No match
24 [93b4f4a3|c96772b7] (00+00/30) No match
25 [c1f5257e|a94f102c] (00+00/30) No match
26 [3148b4e5|70b62cb2] (00+00/30) No match
Offsetted by 66:
01 [462cc12d] (12/30) Accurately ripped
02 [7ea25df3] (12/30) Accurately ripped
03 [3747f88b] (12/30) Accurately ripped
04 [8569f625] (12/30) Accurately ripped
05 [52f2f74f] (12/30) Accurately ripped
06 [1dadb024] (12/30) Accurately ripped
07 [657337a5] (12/30) Accurately ripped
08 [2303eb4a] (12/30) Accurately ripped
09 [34349640] (12/30) Accurately ripped
10 [18fe5417] (12/30) Accurately ripped
11 [2a49e5de] (12/30) Accurately ripped
12 [763c1527] (12/30) Accurately ripped
13 [9c7cb280] (12/30) Accurately ripped
14 [ea04ed13] (12/29) Accurately ripped
15 [9110eb5d] (12/29) Accurately ripped
16 [f74ffe51] (12/30) Accurately ripped
17 [0a1fe4af] (12/30) Accurately ripped
18 [20c9754f] (12/30) Accurately ripped
19 [a61d551f] (12/30) Accurately ripped
20 [093a1646] (12/30) Accurately ripped
21 [17b974ad] (12/30) Accurately ripped
22 [b7a5ebd8] (12/30) Accurately ripped
23 [5a66307f] (12/30) Accurately ripped
24 [ddaa4ee1] (12/30) Accurately ripped
25 [96321c08] (12/30) Accurately ripped
26 [e91f151b] (12/30) Accurately ripped

Track Peak [ CRC32 ] [W/O NULL] [ LOG ]
– 100,0 [931B433F] [8ED84AB3] CRC32
01 89,3 [E5B1B832] [830448F7]
02 98,4 [E09FD200] [B6B6ED16]
03 95,8 [E0984001] [99B8B1ED]
04 99,4 [53E1E0FF] [B490EAD2]
05 88,0 [20E7B627] [0E33E298]
06 99,9 [1F17CBC7] [572F355E]
07 94,8 [EC4929B5] [F90A114C]
08 93,0 [5C77E7F8] [E964C7EF]
09 100,0 [7E9E61C6] [56170E57]
10 93,8 [530E4FF8] [72B37CCD]
11 95,2 [6353072C] [95AF7569]
12 62,1 [1EF336D4] [AC2A205C]
13 75,0 [79A22842] [01E9132B]
14 85,8 [F5131459] [5205C006]
15 94,0 [49BE5A7B] [BB40988F]
16 95,7 [BBBE054B] [F948760C]
17 98,8 [5C11D18B] [99276093]
18 96,2 [77255F69] [E34CE0F2]
19 98,4 [001C9162] [61B327E9]
20 94,3 [BF6358AB] [C0172407]
21 88,0 [1D6B0E54] [ADE21C8E]
22 100,0 [0AF1DDC3] [93765245]
23 99,4 [7D2E11BC] [C663EF2E]
24 94,9 [FA416680] [E5365CCC]
25 99,2 [431FDE1B] [5FFBB4B5]
26 86,9 [A514A301] [E99A272B]

–-
[CUETools log; Date: 2017. 06. 05. 22:16:48; Version: 2.1.6]
[CTDB TOCID: ANefGNVhg.4ekQ2YEgxxvKonpkA-] found.
Track | CTDB Status
1 | (16/17) Accurately ripped
2 | (16/17) Accurately ripped
3 | (16/17) Accurately ripped
4 | (16/17) Accurately ripped
5 | (16/17) Accurately ripped
6 | (16/17) Accurately ripped
7 | (16/17) Accurately ripped
8 | (16/17) Accurately ripped
9 | (16/17) Accurately ripped
10 | (16/17) Accurately ripped
11 | (16/17) Accurately ripped
12 | (16/17) Accurately ripped
13 | (16/17) Accurately ripped
14 | (16/17) Accurately ripped
15 | (16/17) Accurately ripped
16 | (16/17) Accurately ripped
17 | (16/17) Accurately ripped
18 | (16/17) Accurately ripped
19 | (16/17) Accurately ripped
20 | (16/17) Accurately ripped
21 | (16/17) Accurately ripped
22 | (16/17) Accurately ripped
23 | (16/17) Accurately ripped
24 | (16/17) Accurately ripped
25 | (16/17) Accurately ripped
26 | (16/17) Accurately ripped
[AccurateRip ID: 00467918-052790f9-5511c01a] found.
Track [ CRC | V2 ] Status
01 [3c3f9502|b9e29324] (00+00/28) No match
02 [84bea67e|4474cbe1] (00+00/28) No match
03 [6de04336|f6913d67] (00+00/28) No match
04 [294eb1d5|b4be10fd] (00+00/28) No match
05 [fca2566c|6f36fd75] (00+00/28) No match
06 [b937b7a4|1407de61] (00+00/28) No match
07 [4990839f|82756fed] (00+00/28) No match
08 [04f28316|59d24828] (00+00/28) No match
09 [757c2b9b|1e525be3] (00+00/28) No match
10 [660baee9|62955d34] (00+00/28) No match
11 [94e01408|24c1d02b] (00+00/28) No match
12 [3928c400|35e666d9] (00+00/28) No match
13 [bfc3c02f|e44ea1c5] (00+00/28) No match
14 [04474142|9770246f] (00+00/28) No match
15 [c9e7175c|cb052fdd] (00+00/28) No match
16 [85233988|f2889780] (00+00/28) No match
17 [183aa9f1|3d1fd6a2] (00+00/29) No match
18 [33e06f80|a29265fe] (00+00/29) No match
19 [9e50b8e2|f148a656] (00+00/29) No match
20 [12b03747|5a9816fa] (00+00/28) No match
21 [5f569c5b|222a62b3] (00+00/28) No match
22 [beb3fd20|136fc609] (00+00/28) No match
23 [c3ed6b6a|2fb88c9d] (00+00/28) No match
24 [601330b8|a1456d4a] (00+00/28) No match
25 [e401e571|a4fa5f28] (00+00/28) No match
26 [3df3dbf0|e43a2482] (00+00/27) No match
Offsetted by 66:
01 [b3deca5a] (11/28) Accurately ripped
02 [58d4048a] (11/28) Accurately ripped
03 [8eeebf6a] (11/28) Accurately ripped
04 [72ee3d35] (11/28) Accurately ripped
05 [a52d1abe] (11/28) Accurately ripped
06 [7288127b] (11/28) Accurately ripped
07 [251d9240] (11/28) Accurately ripped
08 [b6111e5e] (11/28) Accurately ripped
09 [9693d971] (11/28) Accurately ripped
10 [2c3a3d91] (11/28) Accurately ripped
11 [e8a67a76] (11/28) Accurately ripped
12 [efca23da] (11/28) Accurately ripped
13 [0884c15f] (11/28) Accurately ripped
14 [a88d29bf] (11/28) Accurately ripped
15 [1d8aa3f5] (11/28) Accurately ripped
16 [0e95993c] (11/28) Accurately ripped
17 [d3742bd3] (11/29) Accurately ripped
18 [a09b1978] (11/29) Accurately ripped
19 [6bbb379c] (11/29) Accurately ripped
20 [c6c6171f] (11/28) Accurately ripped
21 [3d78812b] (11/28) Accurately ripped
22 [6186b307] (11/28) Accurately ripped
23 [3e53f34f] (11/28) Accurately ripped
24 [d66bd8d8] (11/28) Accurately ripped
25 [2195b061] (11/28) Accurately ripped
26 [424b9929] (11/27) Accurately ripped

Track Peak [ CRC32 ] [W/O NULL] [ LOG ]
– 100,0 [76DD1CFD] [2A2200EB] CRC32
01 94,7 [27F92F0D] [01D60DFF]
02 96,3 [55F79C77] [A027D0BE]
03 95,0 [31FCDB1F] [AE1BC287]
04 95,5 [1CFF6ABE] [2C79759E]
05 94,9 [EA8AAD6F] [EA6A5D3F]
06 94,1 [3B4AC8CA] [0DA84A3A]
07 94,5 [BC5F8548] [01B42812]
08 95,3 [00F80765] [8EA07799]
09 92,9 [09703FF6] [855C1C21]
10 92,6 [B5EBE811] [87ED72E5]
11 93,2 [6FB7D68F] [267DE38C]
12 93,1 [BC329121] [3ADA7C95]
13 96,1 [5E2A6870] [B93F3411]
14 93,9 [4C28C125] [795AF1F8]
15 96,3 [90EB253A] [D3114494]
16 90,3 [15AC7C76] [93A85646]
17 97,1 [9CDFE7D2] [D75B657D]
18 98,3 [A2A4AAD6] [39002B54]
19 93,8 [435A2893] [4C5C721F]
20 100,0 [44D1A845] [A47479D1]
21 87,0 [00F0B28E] [55E3240D]
22 87,1 [D0910EC1] [05DEFFCB]
23 87,5 [061E918C] [8BDE1B15]
24 88,3 [5D59F494] [3B3B83AE]
25 84,1 [4CDBD56A] [DCE2AAE8]
26 87,8 [898F6CC8] [2B2066F3]




[CUETools log; Date: 2017. 06. 05. 22:19:44; Version: 2.1.6]
[CTDB TOCID: PeF8uE1e0skMMPvMP3Hx2KUya7E-] found.
Track | CTDB Status
1 | (16/18) Accurately ripped
2 | (16/18) Accurately ripped
3 | (16/18) Accurately ripped
4 | (16/18) Accurately ripped
5 | (16/18) Accurately ripped
6 | (16/18) Accurately ripped
7 | (16/18) Accurately ripped
8 | (16/18) Accurately ripped
9 | (16/18) Accurately ripped
10 | (16/18) Accurately ripped
11 | (16/18) Accurately ripped
12 | (16/18) Accurately ripped
13 | (16/18) Accurately ripped
14 | (16/18) Accurately ripped
15 | (16/18) Accurately ripped
16 | (16/18) Accurately ripped
17 | (16/18) Accurately ripped
18 | (16/18) Accurately ripped
19 | (16/18) Accurately ripped
20 | (16/18) Accurately ripped
21 | (16/18) Accurately ripped
22 | (16/18) Accurately ripped
23 | (16/18) Accurately ripped
[AccurateRip ID: 003598a9-03991cb2-4b11f517] found.
Track [ CRC | V2 ] Status
01 [c026205e|afb8cd95] (00+00/29) No match
02 [fe8c6af3|999bde50] (00+00/29) No match
03 [de790b52|6a7ef1da] (00+00/29) No match
04 [6e2ed384|27053838] (00+00/29) No match
05 [00deb760|d9e468ad] (00+00/29) No match
06 [a597e6f6|3d0046e6] (00+00/29) No match
07 [f67feaf8|a0f2dbb0] (00+00/29) No match
08 [18bdb380|2b04dc2d] (00+00/29) No match
09 [1af562fd|ad5b65b7] (00+00/29) No match
10 [56f81cd9|729f1fb4] (00+00/29) No match
11 [888b4e4e|d9290616] (00+00/29) No match
12 [3753da96|62ac8c5b] (00+00/29) No match
13 [6a15374c|4b44b369] (00+00/29) No match
14 [fdfbe85f|035f9f82] (00+00/29) No match
15 [43e3206a|6e0e5a60] (00+00/29) No match
16 [7c001148|2a16add4] (00+00/29) No match
17 [a31a536f|5796bfc5] (00+00/29) No match
18 [bb3a8af0|0d300b12] (00+00/29) No match
19 [50e1a1a7|4dfa0e74] (00+00/28) No match
20 [f69a6e8b|023a396e] (00+00/29) No match
21 [bc4ad417|613248a9] (00+00/29) No match
22 [9ae0e411|f3648c0a] (00+00/29) No match
23 [5b18ef00|6ddf69f1] (00+00/28) No match
Offsetted by 66:
01 [9c8e94f4] (11/29) Accurately ripped
02 [92d011d1] (11/29) Accurately ripped
03 [ec3c8956] (11/29) Accurately ripped
04 [b5932ee8] (11/29) Accurately ripped
05 [5fb892b2] (11/29) Accurately ripped
06 [6d06f04a] (11/29) Accurately ripped
07 [45ea042a] (11/29) Accurately ripped
08 [55d719a0] (11/29) Accurately ripped
09 [92e19ef5] (11/29) Accurately ripped
10 [2855ef0d] (11/29) Accurately ripped
11 [3686baa0] (11/29) Accurately ripped
12 [9eaa529a] (11/29) Accurately ripped
13 [cf828c22] (11/29) Accurately ripped
14 [834c2af7] (11/29) Accurately ripped
15 [c306da1c] (11/29) Accurately ripped
16 [ffe7401c] (11/29) Accurately ripped
17 [881be687] (11/29) Accurately ripped
18 [1feddd26] (11/29) Accurately ripped
19 [6b6caf87] (11/28) Accurately ripped
20 [9b5b6725] (11/29) Accurately ripped
21 [4ecf1239] (11/29) Accurately ripped
22 [165e5d91] (11/29) Accurately ripped
23 [054ae11a] (11/28) Accurately ripped

Track Peak [ CRC32 ] [W/O NULL] [ LOG ]
– 100,0 [1B053A2E] [A3FD12EE] CRC32
01 92,2 [55D2FCC2] [C8A0E927]
02 97,7 [01D279A6] [CDB7B1B9]
03 94,1 [503F9ED0] [AD65DDD8]
04 96,4 [131ED278] [0F039F6A]
05 97,1 [36B788F0] [4A9AC0D8]
06 97,3 [BE452B16] [266C0BA4]
07 95,9 [228F9979] [9C211808]
08 95,5 [7F45510C] [11C010F2]
09 97,8 [F0931330] [646FE834]
10 94,6 [B78108AD] [936358A2]
11 98,7 [8C30C8BF] [C4844B78]
12 97,5 [327A2BCB] [77512959]
13 96,3 [CA5BC0F0] [04C3A26B]
14 99,9 [65A0AF22] [05CE1DE4]
15 97,8 [DFF1FC3F] [71F3C937]
16 99,9 [98F5EC41] [4B735465]
17 94,6 [B06383CB] [AEAF476D]
18 95,7 [275E89E0] [9586F8EE]
19 90,5 [0A3636FF] [D1C4E591]
20 88,5 [0B22B32B] [74AA7219]
21 100,0 [A7387C08] [B972BA55]
22 95,9 [F1EF41D4] [B35DE511]
23 97,7 [4FDD7A9D] [FD4814F4]
–-

[CUETools log; Date: 2017. 06. 05. 22:20:47; Version: 2.1.6]
[CTDB TOCID: vkM2IlvqzCDf1r8M6SuouOxQHJg-] found.
Track | CTDB Status
1 | (15/16) Accurately ripped
2 | (15/16) Accurately ripped
3 | (15/16) Accurately ripped
4 | (15/16) Accurately ripped
5 | (15/16) Accurately ripped
6 | (15/16) Accurately ripped
7 | (15/16) Accurately ripped
8 | (15/16) Accurately ripped
9 | (15/16) Accurately ripped
10 | (15/16) Accurately ripped
11 | (15/16) Accurately ripped
12 | (15/16) Accurately ripped
13 | (15/16) Accurately ripped
14 | (15/16) Accurately ripped
15 | (15/16) Accurately ripped
16 | (15/16) Accurately ripped
17 | (15/16) Accurately ripped
18 | (15/16) Accurately ripped
19 | (15/16) Accurately ripped
20 | (15/16) Accurately ripped
21 | (15/16) Accurately ripped
22 | (15/16) Accurately ripped
23 | (15/16) Accurately ripped
24 | (15/16) Accurately ripped
25 | (15/16) Accurately ripped
26 | (15/16) Accurately ripped
27 | (15/16) Accurately ripped
28 | (15/16) Accurately ripped
[AccurateRip ID: 00488976-05aa2bba-9510ca1c] found.
Track [ CRC | V2 ] Status
01 [57456fe3|7e9b3586] (00+00/29) No match
02 [bf28f554|0fe7107a] (00+00/29) No match
03 [bb9c3505|f5773a6e] (00+00/29) No match
04 [340c53ce|bc8b96a7] (00+00/29) No match
05 [4c5d1417|c3894d54] (00+00/29) No match
06 [3ec8e66e|c7bdc928] (00+00/29) No match
07 [47c70d50|8941b62d] (00+00/29) No match
08 [acdf7b15|397f6afa] (00+00/29) No match
09 [feb23cd3|0a532012] (00+00/29) No match
10 [8f2608af|1e0833b1] (00+00/29) No match
11 [19acd039|21930c44] (00+00/29) No match
12 [4f17a15d|962ebeba] (00+00/29) No match
13 [4e507f30|66960fcf] (00+00/29) No match
14 [cc000d01|63621957] (00+00/29) No match
15 [bb632de6|d7f67345] (00+00/29) No match
16 [9cf10926|5b59874c] (00+00/29) No match
17 [76c56890|0698587c] (00+00/29) No match
18 [f58920ac|deeae3b8] (00+00/29) No match
19 [0e5024bb|6c979240] (00+00/29) No match
20 [cdf2aeea|4333427a] (00+00/29) No match
21 [684bfd98|20762146] (00+00/29) No match
22 [a44d22c0|fec454b3] (00+00/28) No match
23 [1465b312|29e3b4e0] (00+00/29) No match
24 [d95e0c60|9de60a37] (00+00/29) No match
25 [5f627a00|3ed63d17] (00+00/29) No match
26 [0701e438|1a54b4ef] (00+00/28) No match
27 [9386f358|eb2d7ea5] (00+00/28) No match
28 [2a7e38b3|de347567] (00+00/28) No match
Offsetted by 66:
01 [fbf27c0b] (11/29) Accurately ripped
02 [6817e6ea] (11/29) Accurately ripped
03 [985aae3d] (11/29) Accurately ripped
04 [b6afe106] (11/29) Accurately ripped
05 [17ef0e9b] (11/29) Accurately ripped
06 [7eecb18c] (11/29) Accurately ripped
07 [33e6cad8] (11/29) Accurately ripped
08 [61c7efd3] (11/29) Accurately ripped
09 [51f66799] (11/29) Accurately ripped
10 [4a8a4003] (11/29) Accurately ripped
11 [431ccbfd] (11/29) Accurately ripped
12 [0f94c4a1] (11/29) Accurately ripped
13 [e1eee72a] (11/29) Accurately ripped
14 [db21e5cd] (11/29) Accurately ripped
15 [88bcd01c] (11/29) Accurately ripped
16 [72973202] (11/29) Accurately ripped
17 [f48e3314] (11/29) Accurately ripped
18 [5f438292] (11/29) Accurately ripped
19 [537b7381] (11/29) Accurately ripped
20 [1bfbfd28] (11/29) Accurately ripped
21 [01fe0223] (11/29) Accurately ripped
22 [bec7ee29] (11/28) Accurately ripped
23 [9815ff44] (11/29) Accurately ripped
24 [8ba26e7c] (11/29) Accurately ripped
25 [b4cdcbf8] (11/29) Accurately ripped
26 [9c93f2ac] (11/28) Accurately ripped
27 [1592ca5e] (11/28) Accurately ripped
28 [2cd5951d] (11/28) Accurately ripped

Track Peak [ CRC32 ] [W/O NULL] [ LOG ]
– 99,9 [FF7A3F99] [B424F3D9] CRC32
01 98,1 [B13E2E3B] [16B45145]
02 91,1 [1E33D9DE] [19794C9F]
03 99,9 [66C76D06] [CE7C2938]
04 95,6 [4B5B6361] [6F4A1B3C]
05 96,4 [F14B437C] [3AD0EE29]
06 98,2 [BBA6AD6E] [A70A0FA2]
07 94,8 [00483953] [2BC725AD]
08 90,5 [64E05956] [BE67AC2A]
09 90,5 [BC7B43B8] [4E5FF061]
10 99,1 [BB67AD42] [4B2792C0]
11 94,6 [869E7329] [3FEFA432]
12 98,3 [EF692BB4] [EE956DC2]
13 95,7 [B7BC54E1] [43D6D085]
14 92,9 [8A92D121] [68FD8835]
15 94,6 [52266E66] [1D22F2D7]
16 96,7 [A34D191E] [17C689D5]
17 94,2 [802AD8E0] [AE3CA4F6]
18 92,3 [9C4FD1D0] [FA339F66]
19 97,1 [A2607A4B] [7934CAB7]
20 99,9 [AB0D3A0E] [7F097ECD]
21 94,0 [286E9D58] [1BD5D952]
22 94,7 [2A48B621] [A23B9C91]
23 93,7 [A1EF15B7] [3DFCB118]
24 91,9 [F6367D87] [A6FEF5D2]
25 90,7 [63E4E105] [E54DC3A1]
26 90,0 [C64C19EE] [076F1890]
27 93,7 [69F5508A] [B172E8F3]
28 96,1 [6794FC2B] [2B3BA922]


Thx to alx_s