Subcategories

Cindy Bullens - Somewhere Between Heaven and Earth (1999) {Blue Lobster}

Posted By: shamanicus
Cindy Bullens - Somewhere Between Heaven and Earth (1999) {Blue Lobster}

Cindy Bullens - Somewhere Between Heaven and Earth (1999)
EAC Rip | FLAC (tracks+.cue, log) | Artwork (600dpi, png) | 586 mb | MP3 CBR 320kbps | RAR | 360 mb
Pop, Rock | Label: Blue Lobster - BL001

Somewhere Between Heaven and Earth is a heart-rendered requiem for Bullens' young daughter who died of cancer in 1996, though it's largely about hope for the living. The singer/songwriter, who debuted in 1979 with Desire Wire, recorded this tribute with the help of a few friends. Bonnie Raitt and Beth Nielsen Chapman sing along on the soulful anthem "Gotta Believe in Something," and Bryan Adams guests on the title track; Lucinda Williams, Benmont Tench, and Rodney Crowell also contribute. Bullens' voice and guitar simply chime with hope throughout the album. She has never sounded better.
Denise Sullivan


Cindy Bullens - Somewhere Between Heaven and Earth (1999) {Blue Lobster}


Tracklist:

01. In Better Hands
02. The Lights of Paris
03. I Gotta Believe In Something
04. Somewhere Between Heaven and Earth
05. A Thousand Shades of Grey
06. Water On The Moon
07. Boxing With God
08. The End Of Wishful Thinking
09. As Long As You Love (Scarlet Wings)
10. Better Than I've Ever Been

Cindy Bullens - Somewhere Between Heaven and Earth (1999) {Blue Lobster}


Exact Audio Copy V1.0 beta 3 from 29. August 2011

EAC extraction logfile from 7. April 2016, 0:30

Cindy Bullens / Somewhere Between Heaven and Earth

Used drive : hp DVD A DH16ABSH Adapter: 0 ID: 0

Read mode : Secure
Utilize accurate stream : Yes
Defeat audio cache : Yes
Make use of C2 pointers : No

Read offset correction : 6
Overread into Lead-In and Lead-Out : No
Fill up missing offset samples with silence : Yes
Delete leading and trailing silent blocks : No
Null samples used in CRC calculations : Yes
Used interface : Native Win32 interface for Win NT & 2000
Gap handling : Appended to previous track

Used output format : User Defined Encoder
Selected bitrate : 896 kBit/s
Quality : High
Add ID3 tag : No
Command line compressor : C:\Program Files (x86)\Exact Audio Copy\Flac\flac.exe
Additional command line options : -8 -V -T "ARTIST=%artist%" -T "TITLE=%title%" -T "ALBUM=%albumtitle%" -T "DATE=%year%" -T "TRACKNUMBER=%tracknr%" -T "TOTALTRACKS=%numtracks%" -T "GENRE=%genre%" -T "ALBUMARTIST=%albumartist%" -T "ALBUM ARTIST=%albumartist%" -T "COMMENT=EAC Secure Mode, Test & Copy, AccurateRip, FLAC -8" %source%


TOC of the extracted CD

Track | Start | Length | Start sector | End sector
––––––––––––––––––––––––––––-
1 | 0:00.00 | 4:55.07 | 0 | 22131
2 | 4:55.07 | 5:31.45 | 22132 | 47001
3 | 10:26.52 | 6:09.23 | 47002 | 74699
4 | 16:36.00 | 4:36.20 | 74700 | 95419
5 | 21:12.20 | 4:36.07 | 95420 | 116126
6 | 25:48.27 | 4:40.05 | 116127 | 137131
7 | 30:28.32 | 5:44.60 | 137132 | 162991
8 | 36:13.17 | 4:14.70 | 162992 | 182111
9 | 40:28.12 | 5:46.63 | 182112 | 208124
10 | 46:15.00 | 4:20.30 | 208125 | 227654


Track 1

Filename C:\EAC\Cindy Bullens - Somewhere Between Heaven and Earth (1999) [FLAC] {Blue Lobster BL001}\01 - In Better Hands.wav

Pre-gap length 0:00:02.00

Peak level 94.1 %
Extraction speed 3.5 X
Track quality 100.0 %
Test CRC FA8CD395
Copy CRC FA8CD395
Cannot be verified as accurate (confidence 4) [D81E5101], AccurateRip returned [F6DD31CC] (AR v2)
Copy OK

Track 2

Filename C:\EAC\Cindy Bullens - Somewhere Between Heaven and Earth (1999) [FLAC] {Blue Lobster BL001}\02 - The Lights of Paris.wav

Pre-gap length 0:00:00.12

Peak level 94.3 %
Extraction speed 4.0 X
Track quality 100.0 %
Test CRC 990AF5EF
Copy CRC 990AF5EF
Cannot be verified as accurate (confidence 4) [C144CBD7], AccurateRip returned [342A8F6F] (AR v2)
Copy OK

Track 3

Filename C:\EAC\Cindy Bullens - Somewhere Between Heaven and Earth (1999) [FLAC] {Blue Lobster BL001}\03 - I Gotta Believe In Something.wav

Pre-gap length 0:00:00.02

Peak level 100.0 %
Extraction speed 4.6 X
Track quality 100.0 %
Test CRC 84526589
Copy CRC 84526589
Cannot be verified as accurate (confidence 4) [A33D2710], AccurateRip returned [33222799] (AR v2)
Copy OK

Track 4

Filename C:\EAC\Cindy Bullens - Somewhere Between Heaven and Earth (1999) [FLAC] {Blue Lobster BL001}\04 - Somewhere Between Heaven and Earth.wav

Peak level 99.9 %
Extraction speed 4.8 X
Track quality 100.0 %
Test CRC F6C6628E
Copy CRC F6C6628E
Cannot be verified as accurate (confidence 4) [77583759], AccurateRip returned [9FC9EDE7] (AR v2)
Copy OK

Track 5

Filename C:\EAC\Cindy Bullens - Somewhere Between Heaven and Earth (1999) [FLAC] {Blue Lobster BL001}\05 - A Thousand Shades of Grey.wav

Peak level 99.9 %
Extraction speed 5.1 X
Track quality 100.0 %
Test CRC 62D057BA
Copy CRC 62D057BA
Cannot be verified as accurate (confidence 4) [BF3DDA94], AccurateRip returned [4697576E] (AR v2)
Copy OK

Track 6

Filename C:\EAC\Cindy Bullens - Somewhere Between Heaven and Earth (1999) [FLAC] {Blue Lobster BL001}\06 - Water On The Moon.wav

Pre-gap length 0:00:00.45

Peak level 99.9 %
Extraction speed 5.3 X
Track quality 100.0 %
Test CRC 7F96C82A
Copy CRC 7F96C82A
Cannot be verified as accurate (confidence 4) [4336E3AB], AccurateRip returned [E1BFD4E9] (AR v2)
Copy OK

Track 7

Filename C:\EAC\Cindy Bullens - Somewhere Between Heaven and Earth (1999) [FLAC] {Blue Lobster BL001}\07 - Boxing With God.wav

Pre-gap length 0:00:00.42

Peak level 99.9 %
Extraction speed 5.8 X
Track quality 100.0 %
Test CRC 83CC93B8
Copy CRC 83CC93B8
Cannot be verified as accurate (confidence 4) [B88F4D32], AccurateRip returned [DF4FEA27] (AR v2)
Copy OK

Track 8

Filename C:\EAC\Cindy Bullens - Somewhere Between Heaven and Earth (1999) [FLAC] {Blue Lobster BL001}\08 - The End Of Wishful Thinking.wav

Peak level 99.9 %
Extraction speed 4.7 X
Track quality 99.9 %
Test CRC B8D2F5EB
Copy CRC B8D2F5EB
Cannot be verified as accurate (confidence 4) [74D6CAD1], AccurateRip returned [64A11618] (AR v2)
Copy OK

Track 9

Filename C:\EAC\Cindy Bullens - Somewhere Between Heaven and Earth (1999) [FLAC] {Blue Lobster BL001}\09 - As Long As You Love (Scarlet Wings).wav

Peak level 99.9 %
Extraction speed 6.3 X
Track quality 100.0 %
Test CRC 0FB1452B
Copy CRC 0FB1452B
Cannot be verified as accurate (confidence 4) [B235AD78], AccurateRip returned [0F1D1497] (AR v2)
Copy OK

Track 10

Filename C:\EAC\Cindy Bullens - Somewhere Between Heaven and Earth (1999) [FLAC] {Blue Lobster BL001}\10 - Better Than I've Ever Been.wav

Peak level 99.9 %
Extraction speed 6.3 X
Track quality 100.0 %
Test CRC 5D24C20D
Copy CRC 5D24C20D
Cannot be verified as accurate (confidence 4) [1DF21EAD], AccurateRip returned [9C5D81F7] (AR v2)
Copy OK


No tracks could be verified as accurate
You may have a different pressing from the one(s) in the database

No errors occurred

End of status report

==== Log checksum E6981070241D60DC2B9B80F29CB032E2A5710F88DAF09044B5C4CDA3BFCB396E ====


Thanks to the Original customer.