Subcategories

Cindy Blackman - Someday... (2001) **[RE-UP]**

Posted By: TestTickles
Cindy Blackman - Someday... (2001) **[RE-UP]**

Cindy Blackman - Someday… (2001)
EAC Rip | FLAC with CUE and log | scans | 343 mb
MP3 CBR 320kbps | RAR | 150 mb
Genre: jazz

While she became known in the early 1990's as the live drummer for Lenny Kravitz, Cindy Blackman had already released music on her own. Someday… is her fifth album released in 2001 featuring J.D. Allen (tenor sax), Carlton Holmes (piano, Fender Rhodes, keyboards), and George Mitchell (bass).

Cindy Blackman - Someday... (2001) **[RE-UP]**

1. My Funny Valentine
2. Call To The Ancestors (1st Interlude)
3. Someday My Prince Will Come
4. Walkin'
5. Heaven Sent
6. Call To The Ancestors (2nd Interlude)
7. Eternal Justice
8. Peebow's Vibe
9. Glass Slippers
10. Paradise Island
11. Call To The Ancestors (Main Theme)

EAC extraction logfile from 10. November 2005, 21:18 for CD
Cindy Blackman / Someday…

Used drive : LITE-ON DVDRW SOHW-1633S Adapter: 0 ID: 0
Read mode : Secure with NO C2, accurate stream, disable cache
Read offset correction : 12
Overread into Lead-In and Lead-Out : No

Used output format : Internal WAV Routines
44.100 Hz; 16 Bit; Stereo

Other options :
Fill up missing offset samples with silence : Yes
Delete leading and trailing silent blocks : No
Installed external ASPI interface


Track 1
Filename C:\FLAC\Cindy Blackman - Someday… (2001) [FLAC]\01 - My Funny

Valentine.wav

Pre-gap length 0:00:02.15

Peak level 99.0 %
Track quality 100.0 %
Test CRC CD193AC9
Copy CRC CD193AC9
Copy OK

Track 2
Filename C:\FLAC\Cindy Blackman - Someday… (2001) [FLAC]\02 - Call To The

Ancestors (1st Interlude).wav

Pre-gap length 0:00:01.20

Peak level 89.9 %
Track quality 99.8 %
Test CRC A9DFEBF6
Copy CRC A9DFEBF6
Copy OK

Track 3
Filename C:\FLAC\Cindy Blackman - Someday… (2001) [FLAC]\03 - Someday My Prince

Will Come.wav

Pre-gap length 0:00:01.66

Peak level 96.4 %
Track quality 100.0 %
Test CRC C9548B86
Copy CRC C9548B86
Copy OK

Track 4
Filename C:\FLAC\Cindy Blackman - Someday… (2001) [FLAC]\04 - Walkin'.wav

Pre-gap length 0:00:01.31

Peak level 99.2 %
Track quality 100.0 %
Test CRC 53927FE6
Copy CRC 53927FE6
Copy OK

Track 5
Filename C:\FLAC\Cindy Blackman - Someday… (2001) [FLAC]\05 - Heaven Sent.wav

Pre-gap length 0:00:01.50

Peak level 62.5 %
Track quality 100.0 %
Test CRC 81FC4CEE
Copy CRC 81FC4CEE
Copy OK

Track 6
Filename C:\FLAC\Cindy Blackman - Someday… (2001) [FLAC]\06 - Call To The

Ancestors (2nd Interlude).wav

Pre-gap length 0:00:01.05

Peak level 90.7 %
Track quality 100.0 %
Test CRC 04DB9564
Copy CRC 04DB9564
Copy OK

Track 7
Filename C:\FLAC\Cindy Blackman - Someday… (2001) [FLAC]\07 - Eternal

Justice.wav

Pre-gap length 0:00:03.23

Peak level 99.3 %
Track quality 100.0 %
Test CRC F5F3F58E
Copy CRC F5F3F58E
Copy OK

Track 8
Filename C:\FLAC\Cindy Blackman - Someday… (2001) [FLAC]\08 - Peebow's Vibe.wav

Pre-gap length 0:00:01.04

Peak level 97.9 %
Track quality 100.0 %
Test CRC 8989ED5A
Copy CRC 8989ED5A
Copy OK

Track 9
Filename C:\FLAC\Cindy Blackman - Someday… (2001) [FLAC]\09 - Glass

Slippers.wav

Pre-gap length 0:00:01.66

Peak level 95.8 %
Track quality 100.0 %
Test CRC 4F924814
Copy CRC 4F924814
Copy OK

Track 10
Filename C:\FLAC\Cindy Blackman - Someday… (2001) [FLAC]\10 - Paradise

Island.wav

Pre-gap length 0:00:01.33

Peak level 99.4 %
Track quality 100.0 %
Test CRC 2DCFC791
Copy CRC 2DCFC791
Copy OK

Track 11
Filename C:\FLAC\Cindy Blackman - Someday… (2001) [FLAC]\11 - Call To The

Ancestors (Main Theme).wav

Pre-gap length 0:00:03.32

Peak level 96.6 %
Track quality 100.0 %
Test CRC 8F3DDB6F
Copy CRC 8F3DDB6F
Copy OK

No errors occured


End of status report


Cindy Blackman - Someday... (2001) **[RE-UP]**