Subcategories

Clarence 'Gatemouth' Brown - No Looking Back (1992)

Posted By: Designol
Clarence 'Gatemouth' Brown - No Looking Back (1992)

Clarence 'Gatemouth' Brown - No Looking Back (1992)
EAC | FLAC | Image (Cue&Log) ~ 231 Mb | Mp3 (CBR320) ~ 117 Mb | Scans included | 00:41:33
Modern Electric Texas Blues, Jazz-Blues, Cajun | Label: Alligator | # ALCD 4804

Clarence "Gatemouth" Brown was one of the most jazz-oriented of bluesmen, a colorful guitarist and a primitive but swinging fiddler. On this release he includes many instrumental sections in his performances including four all-out boppish jazz jams ("Digging New Ground," "C-Jam Blues," "The Peeper" and the stomping "We're Outta Here"). Brown's vocals, which feature consistently intelligent lyrics ("Better Off With The Blues" is particularly memorable), are part of the music rather than the entire show; he even gives his obscure backup horns chances to solo. The set is a particularly strong example of Gatemouth Brown's music with each of the 11 selections (except perhaps for "I Will Be Your Friend," a poppish vocal duet with Michelle Shocked) being well worth hearing.

Review by Scott Yanow, Allmusic.com

While not as incisive or witty as some of Clarence "Gatemouth" Brown's other recordings, No Looking Back contains the work of a mature artist, from the introspective lyrics of "Better Off with the Blues" and "My Own Prison" to the swinging fiddle on "Stop Time." Still, there's not quite enough of what makes Brown what he is; that is, one of the finest genre-bending players of our time. On the other hand, the material's solid, and the jazz jams of "Digging New Ground" and "C-Jam Blues" show that Brown's as at home in the jazz realm as in the blues. The only real misstep here is the pop duet "I Will Be Your Friend" with Michelle Shocked, which can only be described as odd.

Review by Genevieve Williams

Clarence 'Gatemouth' Brown at Allmusic
Clarence 'Gatemouth' Brown at Wiki

Tracklist:

01. Better Off With The Blues (4:10)
02. Digging New Ground (3:50)
03. Dope (3:21)
04. My Own Prison (3:25)
05. Stop Time (3:31)
06. C-Jam Blues (3:10)
07. Straighten Up (4:21)
08. The Peeper (4:30)
09. Alligator Eating Dog (4:13)
10. I Will Be Your Friend (3:14)
11. We're Outta Here (3:48)


Exact Audio Copy V1.0 beta 3 from 29. August 2011

Отчёт EAC об извлечении, выполненном 4. ноября 2014, 16:54

Clarence 'Gatemouth' Brown / No Looking Back

Дисковод: SONY CD-RW CRX230ED Adapter: 0 ID: 1

Режим чтения : Достоверность
Использование точного потока : Да
Отключение кэша аудио : Да
Использование указателей C2 : Нет

Коррекция смещения при чтении : 6
Способность читать области Lead-in и Lead-out : Нет
Заполнение пропущенных сэмплов тишиной : Да
Удаление блоков с тишиной в начале и конце : Нет
При вычислениях CRC использовались нулевые сэмплы : Да
Интерфейс : Встроенный Win32-интерфейс для Win NT/2000

Выходной формат : Внутренние WAV-операции
Формат сэмплов : 44.100 Гц; 16 бит; стерео


TOC извлечённого CD

Трек | Старт | Длительность | Начальный сектор | Конечный сектор
––––––––––––––––––––––––––––––––––-
1 | 0:00.00 | 4:10.07 | 0 | 18756
2 | 4:10.07 | 3:49.55 | 18757 | 35986
3 | 7:59.62 | 3:21.13 | 35987 | 51074
4 | 11:21.00 | 3:25.32 | 51075 | 66481
5 | 14:46.32 | 3:31.03 | 66482 | 82309
6 | 18:17.35 | 3:10.15 | 82310 | 96574
7 | 21:27.50 | 4:20.42 | 96575 | 116116
8 | 25:48.17 | 4:30.20 | 116117 | 136386
9 | 30:18.37 | 4:12.38 | 136387 | 155324
10 | 34:31.00 | 3:13.67 | 155325 | 169866
11 | 37:44.67 | 3:48.05 | 169867 | 186971


Характеристики диапазона извлечения и сообщения об ошибках

Выбранный диапазон

Имя файла F:\MusicCD\Torrent\Clarence 'Gatemouth' Brown - No Looking Back\Clarence 'Gatemouth' Brown - No Looking Back.wav

Пиковый уровень 99.9 %
Скорость извлечения 7.2 X
Качество диапазона 99.9 %
CRC теста 3F650138
CRC копии 3F650138
Копирование… OK

Ошибок не произошло


AccurateRip: сводка

Трек 1 точность не определена (достоверность 14) [FDCEEBB1], AccurateRip вернул [9BADDD56] (AR v2)
Трек 2 точность не определена (достоверность 14) [3DFBCC96], AccurateRip вернул [4219A300] (AR v2)
Трек 3 точность не определена (достоверность 14) [4CFA15BA], AccurateRip вернул [43ECFD43] (AR v2)
Трек 4 точность не определена (достоверность 14) [EC54AE82], AccurateRip вернул [667A0DF3] (AR v2)
Трек 5 точность не определена (достоверность 14) [BCFC80F1], AccurateRip вернул [28D0962D] (AR v2)
Трек 6 точность не определена (достоверность 14) [5A420292], AccurateRip вернул [33D82AC3] (AR v2)
Трек 7 точность не определена (достоверность 14) [567DF87E], AccurateRip вернул [70D21236] (AR v2)
Трек 8 точность не определена (достоверность 14) [7A1B9FA5], AccurateRip вернул [F6C6541E] (AR v2)
Трек 9 точность не определена (достоверность 14) [E9A2D9C0], AccurateRip вернул [403857F4] (AR v2)
Трек 10 точность не определена (достоверность 14) [B54F5D81], AccurateRip вернул [34749B68] (AR v2)
Трек 11 точность не определена (достоверность 14) [8BD34785], AccurateRip вернул [3F38CBAE] (AR v2)

Ни один трек не прошёл проверки на точность
В вашей базе может быть иной вариант штамповки диска

Конец отчёта

==== Контрольная сумма отчёта F8C8A8F8A5287E1B07A43ADE7117152B76F9DB4CEA08EF97BE41DA81ADB2DBC1 ====

[CUETools log; Date: 03.11.2017 19:33:59; Version: 2.1.4]
[CTDB TOCID: J3LXrzMf0jm9AJYgMj9xjnu4z_U-] found.
Track | CTDB Status
1 | (14/14) Accurately ripped
2 | (14/14) Accurately ripped
3 | (14/14) Accurately ripped
4 | (14/14) Accurately ripped
5 | (14/14) Accurately ripped
6 | (14/14) Accurately ripped
7 | (14/14) Accurately ripped
8 | (14/14) Accurately ripped
9 | (14/14) Accurately ripped
10 | (14/14) Accurately ripped
11 | (14/14) Accurately ripped
[AccurateRip ID: 001106ce-00939cd5-9a09bc0b] found.
Track [ CRC | V2 ] Status
01 [fea1d2f3|fdceebb1] (00+00/31) No match
02 [1476ce24|3dfbcc96] (00+00/31) No match
03 [54c1a639|4cfa15ba] (00+00/32) No match
04 [bd507643|ec54ae82] (00+00/32) No match
05 [6756fad0|bcfc80f1] (00+00/31) No match
06 [d1b1448b|5a420292] (00+00/31) No match
07 [3c1d9523|567df87e] (00+00/32) No match
08 [ae5ef73e|7a1b9fa5] (00+00/32) No match
09 [5308fa34|e9a2d9c0] (00+00/31) No match
10 [62a67317|b54f5d81] (00+00/32) No match
11 [c6ef991a|8bd34785] (00+00/32) No match
Offsetted by -457:
01 [9baddd56] (14/31) Accurately ripped
02 [4219a300] (14/31) Accurately ripped
03 [43ecfd43] (14/32) Accurately ripped
04 [667a0df3] (14/32) Accurately ripped
05 [28d0962d] (14/31) Accurately ripped
06 [33d82ac3] (14/31) Accurately ripped
07 [70d21236] (14/32) Accurately ripped
08 [f6c6541e] (14/32) Accurately ripped
09 [403857f4] (14/31) Accurately ripped
10 [34749b68] (14/32) Accurately ripped
11 [3f38cbae] (14/32) Accurately ripped

Track Peak [ CRC32 ] [W/O NULL] [ LOG ]
– 99,9 [3F650138] [2C3FEFD6] CRC32
01 96,2 [D14762C2] [D3A416AA]
02 80,9 [0642129F] [10FB11C7]
03 81,6 [DC2D380E] [DE19E88A]
04 78,3 [65F083CE] [9C88A029]
05 97,6 [A2AD37D9] [2158BA9C]
06 83,0 [514E2942] [E91650FF]
07 78,3 [43C88C67] [5487820A]
08 87,6 [F0CE9C95] [A3E4459C]
09 99,9 [1F7FCADB] [45F40D54]
10 82,1 [BDB3923C] [BE480BC2]
11 85,2 [3B3AEE38] [6815B8BC]

foobar2000 1.2 / Dynamic Range Meter 1.1.1
log date: 2017-11-09 23:59:37

––––––––––––––––––––––––––––––––––––––––
Analyzed: Clarence 'Gatemouth' Brown / No Looking Back
––––––––––––––––––––––––––––––––––––––––

DR Peak RMS Duration Track
––––––––––––––––––––––––––––––––––––––––
DR16 -0.33 dB -20.22 dB 4:10 01-Better Off With The Blues
DR15 -1.83 dB -20.10 dB 3:50 02-Digging New Ground
DR16 -1.76 dB -21.34 dB 3:21 03-Dope
DR17 -2.12 dB -21.13 dB 3:25 04-My Own Prison
DR14 -0.20 dB -18.22 dB 3:31 05-Stop Time
DR15 -1.62 dB -20.12 dB 3:10 06-C-Jam Blues
DR15 -2.12 dB -20.21 dB 4:21 07-Straighten Up
DR15 -1.15 dB -18.30 dB 4:30 08-The Peeper
DR16 0.00 dB -19.69 dB 4:13 09-Alligator Eating Dog
DR14 -1.71 dB -18.95 dB 3:14 10-I Will Be Your Friend
DR15 -1.39 dB -19.88 dB 3:48 11-We're Outta Here
––––––––––––––––––––––––––––––––––––––––

Number of tracks: 11
Official DR value: DR15

Samplerate: 44100 Hz
Channels: 2
Bits per sample: 16
Bitrate: 703 kbps
Codec: FLAC
================================================================================

Clarence 'Gatemouth' Brown - No Looking Back (1992)

Clarence 'Gatemouth' Brown - No Looking Back (1992)