Subcategories

VA - Classic Country Music: A Smithsonian Collection Volume 1-4 (1990) 4CD Set

Posted By: Designol
VA - Classic Country Music: A Smithsonian Collection Volume 1-4 (1990) 4CD Set

VA - Classic Country Music: A Smithsonian Collection Volume 1-4 (1990) 4CD Set
EAC | FLAC | Tracks (Cue&Log) ~ 1.53 Gb (incl 5%) | Mp3 (CBR320/Stereo) ~ 722 Mb (incl 5%) | Scans ~152 Mb
Genre: Country, Bluegrass, Folk, Country Gospel, Country Rock, Honky Tonk | Label: Smithsonian Folkways, BMG | # RD 042-1 | Time: 05:00:28

Classic Country Music: A Smithsonian Collection was a multi-volume set of recordings released by the Smithsonian Institution. Released in 1990, the collection contains 100 tracks deemed to be significantly important to the history of country music.

Wiki


VA - Classic Country Music: A Smithsonian Collection Volume 1-4 (1990) 4CD Set

VA - Classic Country Music: A Smithsonian Collection, Volume 1
EAC | FLAC | Tracks (Cue&Log) ~ 320 Mb (incl 5%) | Mp3 (CBR320/Stereo) ~ 180 Mb (incl 5%)
Label: Smithsonian Folkways, BMG | # RD 042-1 | Time: 01:15:09

An absolutely indispensable series, Smithsonian's Classic Country line of discs covers the music with great care and historical savvy. This first volume kicks things off with 25 tracks ranging from early string band sides (Gid Tanner & His Skillet Lickers) and the first country classics (the Carter Family, Jimmie Rodgers), to the mountain genius of Roy Acuff and popular cowboy-centric hits by Gene Autry, Tex Ritter, and the Sons of the Pioneers. And hinting at things to come, the collection wraps things up with a taste of Bob Wills' Western swing and Ernest Tubb's early honky tonk. So, from the '20s through the '40s, and with a bevy of milestones to hear along the way, this ride through hillbilly history is not to be missed.

Review by Stephen Cook, Allmusic.com

Tracklist:

01. Gid Tanner and his Skillet Lickers - Soldier's Joy (02:58)
02. Uncle Dave Macon and his Fruit Jar Drinkers - Jordan is a Hard Road to Travel (03:09)
03. Bradley Kincaid - Barbara Allen (03:23)
04. Vernon Dalhart - The Prisoner's Song (03:07)
05. Carter Family - Wildwood Flower (03:11)
06. Jimmie Rodgers - Waiting for a Train (02:47)
07. Jimmie Rodgers - Mule Skinner Blues (Blue Yodel No. 8) (03:02)
08. Riley Puckett - Ragged But Right (02:58)
09. Carter Family - Can the Circle Be Unbroken (03:10)
10. Gene Autry and Jimmy Long - Silver Haired Daddy of Mine (02:49)
11. Shelton Brothers - Just Because (03:01)
12. Milton Brown and his Brownies - St. Louis Blues (03:24)
13. W. Lee O'Daniel and his Light Crust Doughboys with Leon Huff - My Mary (03:14)
14. Roy Acuff and his Crazy Tennesseeans - Great Speckled Bird (02:55)
15. Bill Boyd and his Cowboy Ramblers - Under the Double Eagle (02:52)
16. Patsy Montana and the Prairie Ramblers - I Want to Be a Cowboy's Sweetheart (03:12)
17. Gene Autry - South of the Border (02:51)
18. Sons of the Pioneers - Tumbling Tumbleweeds (03:14)
19. Sons of the Pioneers - Cool Water (02:45)
20. Tex Ritter - Rye Whiskey (03:11)
21. Bob Wills and his Texas Playboys - Steel Guitar Rag (02:52)
22. Bob Wills and his Texas Playboys - New San Antonio Rose (02:43)
23. Ernest Tubb - Walking the Floor Over You (02:38)
24. Ted Daffan's Texans - Born to Lose (02:45)
25. Jimmie Davis - You Are My Sunshine (02:49)


Exact Audio Copy V1.0 beta 1 from 15. November 2010

EAC extraction logfile from 21. January 2011, 19:07

Various / Classic Country Music: A Smithsonian Collection Volume 1

Used drive : HL-DT-STDVD-ROM GDRH20N Adapter: 1 ID: 1

Read mode : Secure
Utilize accurate stream : Yes
Defeat audio cache : Yes
Make use of C2 pointers : No

Read offset correction : 102
Overread into Lead-In and Lead-Out : No
Fill up missing offset samples with silence : Yes
Delete leading and trailing silent blocks : No
Null samples used in CRC calculations : Yes
Used interface : Native Win32 interface for Win NT & 2000
Gap handling : Appended to previous track

Used output format : User Defined Encoder
Selected bitrate : 768 kBit/s
Quality : High
Add ID3 tag : No
Command line compressor : C:\Program Files\Exact Audio Copy\FLAC\FLAC.EXE
Additional command line options : -V -8 -T "artist=%a" -T "title=%t" -T "album=%g" -T "date=%y" -T "tracknumber=%n" -T "genre=%m" %s


TOC of the extracted CD

Track | Start | Length | Start sector | End sector
––––––––––––––––––––––––––––-
1 | 0:00.00 | 2:58.20 | 0 | 13369
2 | 2:58.20 | 3:09.02 | 13370 | 27546
3 | 6:07.22 | 3:23.28 | 27547 | 42799
4 | 9:30.50 | 3:07.50 | 42800 | 56874
5 | 12:38.25 | 3:11.40 | 56875 | 71239
6 | 15:49.65 | 2:47.02 | 71240 | 83766
7 | 18:36.67 | 3:02.08 | 83767 | 97424
8 | 21:39.00 | 2:58.50 | 97425 | 110824
9 | 24:37.50 | 3:10.02 | 110825 | 125076
10 | 27:47.52 | 2:49.38 | 125077 | 137789
11 | 30:37.15 | 3:01.30 | 137790 | 151394
12 | 33:38.45 | 3:24.27 | 151395 | 166721
13 | 37:02.72 | 3:14.48 | 166722 | 181319
14 | 40:17.45 | 2:55.12 | 181320 | 194456
15 | 43:12.57 | 2:52.30 | 194457 | 207386
16 | 46:05.12 | 3:12.23 | 207387 | 221809
17 | 49:17.35 | 2:51.12 | 221810 | 234646
18 | 52:08.47 | 3:14.35 | 234647 | 249231
19 | 55:23.07 | 2:45.60 | 249232 | 261666
20 | 58:08.67 | 3:11.28 | 261667 | 276019
21 | 61:20.20 | 2:52.62 | 276020 | 288981
22 | 64:13.07 | 2:43.13 | 288982 | 301219
23 | 66:56.20 | 2:38.55 | 301220 | 313124
24 | 69:35.00 | 2:45.37 | 313125 | 325536
25 | 72:20.37 | 2:49.33 | 325537 | 338244


Track 1

Filename D:\Classic Country Music- A Smithsonian Collection Volume 1 (1991)\01 - Gid Tanner and his Skillet Lickers - Soldier's Joy.wav

Pre-gap length 0:00:02.00

Peak level 98.9 %
Extraction speed 6.2 X
Track quality 100.0 %
Test CRC 60756A86
Copy CRC 60756A86
Accurately ripped (confidence 4) [695CC1F1]
Copy OK

Track 2

Filename D:\Classic Country Music- A Smithsonian Collection Volume 1 (1991)\02 - Uncle Dave Macon and his Fruit Jar Drinkers - Jordan is a Hard Road to Travel.wav

Pre-gap length 0:00:01.66

Peak level 99.7 %
Extraction speed 6.7 X
Track quality 100.0 %
Test CRC 20A57E41
Copy CRC 20A57E41
Accurately ripped (confidence 4) [19E0BE75]
Copy OK

Track 3

Filename D:\Classic Country Music- A Smithsonian Collection Volume 1 (1991)\03 - Bradley Kincaid - Barbara Allen.wav

Pre-gap length 0:00:01.82

Peak level 87.3 %
Extraction speed 7.2 X
Track quality 100.0 %
Test CRC DD2CF406
Copy CRC DD2CF406
Accurately ripped (confidence 4) [1D3BB545]
Copy OK

Track 4

Filename D:\Classic Country Music- A Smithsonian Collection Volume 1 (1991)\04 - Vernon Dalhart - The Prisoner's Song.wav

Pre-gap length 0:00:02.17

Peak level 87.8 %
Extraction speed 7.6 X
Track quality 100.0 %
Test CRC B5F5F2E2
Copy CRC B5F5F2E2
Accurately ripped (confidence 4) [949932C4]
Copy OK

Track 5

Filename D:\Classic Country Music- A Smithsonian Collection Volume 1 (1991)\05 - Carter Family - Wildwood Flower.wav

Pre-gap length 0:00:02.26

Peak level 82.4 %
Extraction speed 8.0 X
Track quality 100.0 %
Test CRC 18D6F172
Copy CRC 18D6F172
Accurately ripped (confidence 4) [AD128B47]
Copy OK

Track 6

Filename D:\Classic Country Music- A Smithsonian Collection Volume 1 (1991)\06 - Jimmie Rodgers - Waiting for a Train.wav

Pre-gap length 0:00:02.40

Peak level 100.0 %
Extraction speed 6.9 X
Track quality 99.9 %
Test CRC FD7DE1C1
Copy CRC FD7DE1C1
Accurately ripped (confidence 4) [CDEFD63C]
Copy OK

Track 7

Filename D:\Classic Country Music- A Smithsonian Collection Volume 1 (1991)\07 - Jimmie Rodgers - Mule Skinner Blues (Blue Yodel No. 8).wav

Pre-gap length 0:00:01.96

Peak level 100.0 %
Extraction speed 8.6 X
Track quality 100.0 %
Test CRC CDCB4504
Copy CRC CDCB4504
Accurately ripped (confidence 4) [AB7805B1]
Copy OK

Track 8

Filename D:\Classic Country Music- A Smithsonian Collection Volume 1 (1991)\08 - Riley Puckett - Ragged But Right.wav

Pre-gap length 0:00:02.26

Peak level 86.9 %
Extraction speed 7.6 X
Track quality 99.9 %
Test CRC 1B7E5AC9
Copy CRC 1B7E5AC9
Accurately ripped (confidence 4) [E23628F8]
Copy OK

Track 9

Filename D:\Classic Country Music- A Smithsonian Collection Volume 1 (1991)\09 - Carter Family - Can the Circle Be Unbroken.wav

Pre-gap length 0:00:02.37

Peak level 82.3 %
Extraction speed 9.2 X
Track quality 100.0 %
Test CRC EB7BB7A4
Copy CRC EB7BB7A4
Accurately ripped (confidence 4) [EAAF040D]
Copy OK

Track 10

Filename D:\Classic Country Music- A Smithsonian Collection Volume 1 (1991)\10 - Gene Autry and Jimmy Long - Silver Haired Daddy of Mine.wav

Pre-gap length 0:00:01.82

Peak level 84.8 %
Extraction speed 9.3 X
Track quality 100.0 %
Test CRC 8EF90628
Copy CRC 8EF90628
Accurately ripped (confidence 4) [7A67FC58]
Copy OK

Track 11

Filename D:\Classic Country Music- A Smithsonian Collection Volume 1 (1991)\11 - Shelton Brothers - Just Because.wav

Pre-gap length 0:00:01.97

Peak level 84.2 %
Extraction speed 9.8 X
Track quality 100.0 %
Test CRC 83C21B2C
Copy CRC 83C21B2C
Accurately ripped (confidence 4) [83CDFFFC]
Copy OK

Track 12

Filename D:\Classic Country Music- A Smithsonian Collection Volume 1 (1991)\12 - Milton Brown and his Brownies - St. Louis Blues.wav

Pre-gap length 0:00:02.10

Peak level 94.5 %
Extraction speed 10.2 X
Track quality 100.0 %
Test CRC F6A41C90
Copy CRC F6A41C90
Accurately ripped (confidence 4) [44A23B95]
Copy OK

Track 13

Filename D:\Classic Country Music- A Smithsonian Collection Volume 1 (1991)\13 - W. Lee O'Daniel and his Light Crust Doughboys with Leon Huff - My Mary.wav

Pre-gap length 0:00:02.13

Peak level 84.7 %
Extraction speed 10.5 X
Track quality 100.0 %
Test CRC 80F61B84
Copy CRC 80F61B84
Accurately ripped (confidence 4) [F53A32E1]
Copy OK

Track 14

Filename D:\Classic Country Music- A Smithsonian Collection Volume 1 (1991)\14 - Roy Acuff and his Crazy Tennesseeans - Great Speckled Bird.wav

Pre-gap length 0:00:01.77

Peak level 81.1 %
Extraction speed 10.3 X
Track quality 100.0 %
Test CRC 52E1F36B
Copy CRC 52E1F36B
Accurately ripped (confidence 4) [F83F2532]
Copy OK

Track 15

Filename D:\Classic Country Music- A Smithsonian Collection Volume 1 (1991)\15 - Bill Boyd and his Cowboy Ramblers - Under the Double Eagle.wav

Pre-gap length 0:00:02.00

Peak level 81.3 %
Extraction speed 10.7 X
Track quality 100.0 %
Test CRC C23EC6D2
Copy CRC C23EC6D2
Accurately ripped (confidence 4) [A2627A8B]
Copy OK

Track 16

Filename D:\Classic Country Music- A Smithsonian Collection Volume 1 (1991)\16 - Patsy Montana and the Prairie Ramblers - I Want to Be a Cowboy's Sweetheart.wav

Pre-gap length 0:00:02.09

Peak level 87.4 %
Extraction speed 11.1 X
Track quality 100.0 %
Test CRC 9B3D64B4
Copy CRC 9B3D64B4
Accurately ripped (confidence 4) [A47E22A7]
Copy OK

Track 17

Filename D:\Classic Country Music- A Smithsonian Collection Volume 1 (1991)\17 - Gene Autry - South of the Border.wav

Pre-gap length 0:00:02.50

Peak level 81.1 %
Extraction speed 11.1 X
Track quality 100.0 %
Test CRC 374BD7E5
Copy CRC 374BD7E5
Accurately ripped (confidence 4) [DA96D7E9]
Copy OK

Track 18

Filename D:\Classic Country Music- A Smithsonian Collection Volume 1 (1991)\18 - Sons of the Pioneers - Tumbling Tumbleweeds.wav

Pre-gap length 0:00:01.93

Peak level 80.7 %
Extraction speed 11.6 X
Track quality 100.0 %
Test CRC 8BA8A053
Copy CRC 8BA8A053
Accurately ripped (confidence 4) [90D3AEB0]
Copy OK

Track 19

Filename D:\Classic Country Music- A Smithsonian Collection Volume 1 (1991)\19 - Sons of the Pioneers - Cool Water.wav

Pre-gap length 0:00:02.06

Peak level 96.0 %
Extraction speed 11.6 X
Track quality 100.0 %
Test CRC A07DC2DA
Copy CRC A07DC2DA
Accurately ripped (confidence 4) [8B9F869C]
Copy OK

Track 20

Filename D:\Classic Country Music- A Smithsonian Collection Volume 1 (1991)\20 - Tex Ritter - Rye Whiskey.wav

Pre-gap length 0:00:01.82

Peak level 83.9 %
Extraction speed 12.1 X
Track quality 100.0 %
Test CRC 85093B78
Copy CRC 85093B78
Accurately ripped (confidence 4) [044D0E4E]
Copy OK

Track 21

Filename D:\Classic Country Music- A Smithsonian Collection Volume 1 (1991)\21 - Bob Wills and his Texas Playboys - Steel Guitar Rag.wav

Pre-gap length 0:00:01.97

Peak level 75.9 %
Extraction speed 12.1 X
Track quality 100.0 %
Test CRC 6E34037D
Copy CRC 6E34037D
Accurately ripped (confidence 4) [44050BF7]
Copy OK

Track 22

Filename D:\Classic Country Music- A Smithsonian Collection Volume 1 (1991)\22 - Bob Wills and his Texas Playboys - New San Antonio Rose.wav

Pre-gap length 0:00:01.93

Peak level 95.3 %
Extraction speed 12.0 X
Track quality 100.0 %
Test CRC 2FEE4B84
Copy CRC 2FEE4B84
Accurately ripped (confidence 4) [76ADB226]
Copy OK

Track 23

Filename D:\Classic Country Music- A Smithsonian Collection Volume 1 (1991)\23 - Ernest Tubb - Walking the Floor Over You.wav

Pre-gap length 0:00:02.10

Peak level 89.3 %
Extraction speed 10.4 X
Track quality 99.9 %
Test CRC 3F05B441
Copy CRC 3F05B441
Accurately ripped (confidence 4) [56F7D811]
Copy OK

Track 24

Filename D:\Classic Country Music- A Smithsonian Collection Volume 1 (1991)\24 - Ted Daffan's Texans - Born to Lose.wav

Pre-gap length 0:00:02.24

Peak level 91.5 %
Extraction speed 12.4 X
Track quality 100.0 %
Test CRC CAC6998F
Copy CRC CAC6998F
Accurately ripped (confidence 4) [8729FCF3]
Copy OK

Track 25

Filename D:\Classic Country Music- A Smithsonian Collection Volume 1 (1991)\25 - Jimmie Davis - You Are My Sunshine.wav

Pre-gap length 0:00:01.26

Peak level 68.7 %
Extraction speed 12.6 X
Track quality 100.0 %
Test CRC 044AA423
Copy CRC 044AA423
Accurately ripped (confidence 4) [1E975F34]
Copy OK


All tracks accurately ripped

No errors occurred

End of status report

==== Log checksum ADE9DCD63599613496BDC1B770F6FC6FDDF16EB31CFB75E49FBCE6A4C8554819 ====


––––––––––––––––––––––––––––––––––––––––––


VA - Classic Country Music: A Smithsonian Collection Volume 1-4 (1990) 4CD Set

VA - Classic Country Music: A Smithsonian Collection, Volume 2
EAC | FLAC | Tracks (Cue&Log) ~ 355 Mb (incl 5%) | Mp3 (CBR320/Stereo) ~ 178 Mb (incl 5%)
Label: Smithsonian Folkways, BMG | # RD 042-2 | Time: 01:14:03

Classic Country Music, Vol. 2 has a good cross-section of honky tonk, cowboy and traditional country cuts from the '50s, including tracks from Hank Williams, Kitty Wells, Webb Pierce, Al Dexter, Moon Mullican, Gene Autry, Hank Thompson, Floyd Tillman, and Left Frizzell.

Review by Thom Owens, Allmusic.com

Tracklist:

01. Al Dexter and his Troopers - Pistol Packin' Mama (02:48)
02. Elton Britt - There's a Star-Spangled Banner Waving Somewhere (02:42)
03. Eddy Arnold - The Cattle Call (03:09)
04. Roy Acuff and his Smoky Mountain Boys - Wabash Cannon Ball (02:39)
05. Blue Sky Boys - Kentucky (02:46)
06. Moon Mullican and his Showboys - New Pretty Blonde (03:01)
07. Maddox Brothers and Rose - Philadelphia Lawyer (03:02)
08. Merle Travis - I Am a Pilgrim (02:54)
09. Bill Monroe and his Blue Grass Boys - It's Mighty Dark to Travel (02:56)
10. Flatt & Scruggs and the Foggy Mountain Boys - Randy Lynn Rag (02:06)
11. Floyd Tillman - Slipping Around (02:48)
12. Molly O'Day with the Cumberland Mountain Folks] - The Tramp on the Street (02:50)
13. Hank Snow and his Rainbow Ranch Boys - I'm Movin' On (02:55)
14. Jimmie Dickens - Take an Old Cold Tater (02:51)
15. Pee Wee King and his Golden West Cowboys - Tennessee Waltz (03:03)
16. Red Foley - Peace in the Valley (03:16)
17. Hank Williams - Lovesick Blues (02:45)
18. Hank Williams - Your Cheating Heart (02:44)
19. Lefty Frizzell - I Love You a Thousand Ways (02:47)
20. Hank Thompson and his Brazos Valley Boys] - The Wild Side of Life (02:45)
21. Kitty Wells - It Wasn't God Who Made Honky Tonk Angels (02:33)
22. Webb Pierce - Slowly (02:33)
23. Chet Atkins - Country Gentleman (02:18)
24. Eddy Arnold - I Really Don't Want to Know (02:35)
25. Tennessee Ernie Ford - Sixteen Tons (02:37)
26. Elvis Presley - Blue Moon of Kentucky (02:06)
27. Everly Brothers - Bye Bye Love (02:21)


Exact Audio Copy V1.0 beta 1 from 15. November 2010

EAC extraction logfile from 21. January 2011, 19:29

Various / Classic Country Music: A Smithsonian Collection [Disc 2]

Used drive : HL-DT-STDVD-ROM GDRH20N Adapter: 1 ID: 1

Read mode : Secure
Utilize accurate stream : Yes
Defeat audio cache : Yes
Make use of C2 pointers : No

Read offset correction : 102
Overread into Lead-In and Lead-Out : No
Fill up missing offset samples with silence : Yes
Delete leading and trailing silent blocks : No
Null samples used in CRC calculations : Yes
Used interface : Native Win32 interface for Win NT & 2000
Gap handling : Appended to previous track

Used output format : User Defined Encoder
Selected bitrate : 768 kBit/s
Quality : High
Add ID3 tag : No
Command line compressor : C:\Program Files\Exact Audio Copy\FLAC\FLAC.EXE
Additional command line options : -V -8 -T "artist=%a" -T "title=%t" -T "album=%g" -T "date=%y" -T "tracknumber=%n" -T "genre=%m" %s


TOC of the extracted CD

Track | Start | Length | Start sector | End sector
––––––––––––––––––––––––––––-
1 | 0:00.00 | 2:48.55 | 0 | 12654
2 | 2:48.55 | 2:42.30 | 12655 | 24834
3 | 5:31.10 | 3:09.30 | 24835 | 39039
4 | 8:40.40 | 2:39.15 | 39040 | 50979
5 | 11:19.55 | 2:46.67 | 50980 | 63496
6 | 14:06.47 | 3:01.23 | 63497 | 77094
7 | 17:07.70 | 3:02.25 | 77095 | 90769
8 | 20:10.20 | 2:54.40 | 90770 | 103859
9 | 23:04.60 | 2:56.00 | 103860 | 117059
10 | 26:00.60 | 2:06.72 | 117060 | 126581
11 | 28:07.57 | 2:48.38 | 126582 | 139219
12 | 30:56.20 | 2:50.50 | 139220 | 152019
13 | 33:46.70 | 2:55.20 | 152020 | 165164
14 | 36:42.15 | 2:51.45 | 165165 | 178034
15 | 39:33.60 | 3:03.32 | 178035 | 191791
16 | 42:37.17 | 3:16.08 | 191792 | 206499
17 | 45:53.25 | 2:45.22 | 206500 | 218896
18 | 48:38.47 | 2:44.05 | 218897 | 231201
19 | 51:22.52 | 2:47.43 | 231202 | 243769
20 | 54:10.20 | 2:45.22 | 243770 | 256166
21 | 56:55.42 | 2:33.68 | 256167 | 267709
22 | 59:29.35 | 2:33.65 | 267710 | 279249
23 | 62:03.25 | 2:18.17 | 279250 | 289616
24 | 64:21.42 | 2:35.68 | 289617 | 301309
25 | 66:57.35 | 2:37.40 | 301310 | 313124
26 | 69:35.00 | 2:06.32 | 313125 | 322606
27 | 71:41.32 | 2:21.50 | 322607 | 333231


Track 1

Filename D:\Classic Country Music- A Smithsonian Collection [Disc 2] ()\01 - Al Dexter and his Troopers - Pistol Packin' Mama.wav

Pre-gap length 0:00:02.00

Peak level 96.2 %
Extraction speed 6.0 X
Track quality 100.0 %
Test CRC 89E7D8BB
Copy CRC 89E7D8BB
Accurately ripped (confidence 4) [18A37A61]
Copy OK

Track 2

Filename D:\Classic Country Music- A Smithsonian Collection [Disc 2] ()\02 - Elton Britt - There's a Star-Spangled Banner Waving Somewhere.wav

Pre-gap length 0:00:00.77

Peak level 82.3 %
Extraction speed 6.4 X
Track quality 100.0 %
Test CRC 5E510042
Copy CRC 5E510042
Accurately ripped (confidence 4) [A42FA3DE]
Copy OK

Track 3

Filename D:\Classic Country Music- A Smithsonian Collection [Disc 2] ()\03 - Eddy Arnold - The Cattle Call.wav

Pre-gap length 0:00:01.24

Peak level 86.5 %
Extraction speed 7.1 X
Track quality 100.0 %
Test CRC BC0E32E2
Copy CRC BC0E32E2
Accurately ripped (confidence 4) [AB3AF41F]
Copy OK

Track 4

Filename D:\Classic Country Music- A Smithsonian Collection [Disc 2] ()\04 - Roy Acuff and his Smoky Mountain Boys - Wabash Cannon Ball.wav

Pre-gap length 0:00:02.33

Peak level 82.9 %
Extraction speed 7.2 X
Track quality 100.0 %
Test CRC 9B4BE5FB
Copy CRC 9B4BE5FB
Accurately ripped (confidence 4) [511878DE]
Copy OK

Track 5

Filename D:\Classic Country Music- A Smithsonian Collection [Disc 2] ()\05 - Blue Sky Boys - Kentucky.wav

Pre-gap length 0:00:01.97

Peak level 91.0 %
Extraction speed 7.7 X
Track quality 100.0 %
Test CRC D90F4072
Copy CRC D90F4072
Accurately ripped (confidence 4) [D55140E6]
Copy OK

Track 6

Filename D:\Classic Country Music- A Smithsonian Collection [Disc 2] ()\06 - Moon Mullican and his Showboys - New Pretty Blonde.wav

Pre-gap length 0:00:00.60

Peak level 88.1 %
Extraction speed 5.4 X
Track quality 99.9 %
Test CRC EFF4664E
Copy CRC EFF4664E
Accurately ripped (confidence 4) [281F2AB3]
Copy OK

Track 7

Filename D:\Classic Country Music- A Smithsonian Collection [Disc 2] ()\07 - Maddox Brothers and Rose - Philadelphia Lawyer.wav

Pre-gap length 0:00:01.53

Peak level 82.9 %
Extraction speed 6.6 X
Track quality 100.0 %
Test CRC F39A85E6
Copy CRC F39A85E6
Accurately ripped (confidence 4) [75090384]
Copy OK

Track 8

Filename D:\Classic Country Music- A Smithsonian Collection [Disc 2] ()\08 - Merle Travis - I Am a Pilgrim.wav

Pre-gap length 0:00:01.64

Peak level 78.2 %
Extraction speed 6.9 X
Track quality 100.0 %
Test CRC 9E7434A1
Copy CRC 9E7434A1
Accurately ripped (confidence 4) [CAA0ABCD]
Copy OK

Track 9

Filename D:\Classic Country Music- A Smithsonian Collection [Disc 2] ()\09 - Bill Monroe and his Blue Grass Boys - It's Mighty Dark to Travel.wav

Pre-gap length 0:00:01.86

Peak level 93.4 %
Extraction speed 6.0 X
Track quality 99.9 %
Test CRC C12A48A8
Copy CRC C12A48A8
Accurately ripped (confidence 4) [55A3F1E4]
Copy OK

Track 10

Filename D:\Classic Country Music- A Smithsonian Collection [Disc 2] ()\10 - Flatt & Scruggs and the Foggy Mountain Boys - Randy Lynn Rag.wav

Pre-gap length 0:00:01.00

Peak level 95.5 %
Extraction speed 6.8 X
Track quality 100.0 %
Test CRC 13DFDDFD
Copy CRC 13DFDDFD
Accurately ripped (confidence 4) [093CC836]
Copy OK

Track 11

Filename D:\Classic Country Music- A Smithsonian Collection [Disc 2] ()\11 - Floyd Tillman - Slipping Around.wav

Pre-gap length 0:00:01.42

Peak level 82.8 %
Extraction speed 7.4 X
Track quality 100.0 %
Test CRC C3DEB36C
Copy CRC C3DEB36C
Accurately ripped (confidence 4) [6F160B8F]
Copy OK

Track 12

Filename D:\Classic Country Music- A Smithsonian Collection [Disc 2] ()\12 - Molly O'Day with the Cumberland Mountain Folks] - The Tramp on the Street.wav

Pre-gap length 0:00:01.90

Peak level 83.8 %
Extraction speed 6.5 X
Track quality 99.9 %
Test CRC E6D75DDD
Copy CRC E6D75DDD
Accurately ripped (confidence 4) [04BE0C71]
Copy OK

Track 13

Filename D:\Classic Country Music- A Smithsonian Collection [Disc 2] ()\13 - Hank Snow and his Rainbow Ranch Boys - I'm Movin' On.wav

Pre-gap length 0:00:02.06

Peak level 79.0 %
Extraction speed 7.9 X
Track quality 100.0 %
Test CRC E4E432FF
Copy CRC E4E432FF
Accurately ripped (confidence 4) [3BAB1F12]
Copy OK

Track 14

Filename D:\Classic Country Music- A Smithsonian Collection [Disc 2] ()\14 - Jimmie Dickens - Take an Old Cold Tater.wav

Pre-gap length 0:00:00.57

Peak level 78.9 %
Extraction speed 8.1 X
Track quality 100.0 %
Test CRC E11A42F1
Copy CRC E11A42F1
Accurately ripped (confidence 4) [1811C7DA]
Copy OK

Track 15

Filename D:\Classic Country Music- A Smithsonian Collection [Disc 2] ()\15 - Pee Wee King and his Golden West Cowboys - Tennessee Waltz.wav

Pre-gap length 0:00:01.24

Peak level 91.6 %
Extraction speed 8.3 X
Track quality 100.0 %
Test CRC 94158077
Copy CRC 94158077
Accurately ripped (confidence 4) [76A0B9A6]
Copy OK

Track 16

Filename D:\Classic Country Music- A Smithsonian Collection [Disc 2] ()\16 - Red Foley - Peace in the Valley.wav

Pre-gap length 0:00:01.49

Peak level 87.9 %
Extraction speed 8.6 X
Track quality 100.0 %
Test CRC A15A8555
Copy CRC A15A8555
Accurately ripped (confidence 4) [9F3C216E]
Copy OK

Track 17

Filename D:\Classic Country Music- A Smithsonian Collection [Disc 2] ()\17 - Hank Williams - Lovesick Blues.wav

Pre-gap length 0:00:02.26

Peak level 92.3 %
Extraction speed 8.6 X
Track quality 100.0 %
Test CRC F9157A5F
Copy CRC F9157A5F
Accurately ripped (confidence 4) [725E5B9C]
Copy OK

Track 18

Filename D:\Classic Country Music- A Smithsonian Collection [Disc 2] ()\18 - Hank Williams - Your Cheating Heart.wav

Pre-gap length 0:00:01.69

Peak level 87.0 %
Extraction speed 8.6 X
Track quality 100.0 %
Test CRC 752644C4
Copy CRC 752644C4
Accurately ripped (confidence 4) [EEB4763A]
Copy OK

Track 19

Filename D:\Classic Country Music- A Smithsonian Collection [Disc 2] ()\19 - Lefty Frizzell - I Love You a Thousand Ways.wav

Pre-gap length 0:00:02.22

Peak level 85.7 %
Extraction speed 9.0 X
Track quality 100.0 %
Test CRC D2C79B67
Copy CRC D2C79B67
Accurately ripped (confidence 4) [20E522D6]
Copy OK

Track 20

Filename D:\Classic Country Music- A Smithsonian Collection [Disc 2] ()\20 - Hank Thompson and his Brazos Valley Boys] - The Wild Side of Life.wav

Pre-gap length 0:00:01.93

Peak level 81.1 %
Extraction speed 9.1 X
Track quality 100.0 %
Test CRC 8B8ACBE4
Copy CRC 8B8ACBE4
Accurately ripped (confidence 4) [03D24DDF]
Copy OK

Track 21

Filename D:\Classic Country Music- A Smithsonian Collection [Disc 2] ()\21 - Kitty Wells - It Wasn't God Who Made Honky Tonk Angels.wav

Pre-gap length 0:00:02.00

Peak level 90.3 %
Extraction speed 9.1 X
Track quality 100.0 %
Test CRC C545C0E1
Copy CRC C545C0E1
Accurately ripped (confidence 4) [D26DB2B1]
Copy OK

Track 22

Filename D:\Classic Country Music- A Smithsonian Collection [Disc 2] ()\22 - Webb Pierce - Slowly.wav

Pre-gap length 0:00:01.97

Peak level 64.6 %
Extraction speed 9.2 X
Track quality 100.0 %
Test CRC 2FA133CA
Copy CRC 2FA133CA
Accurately ripped (confidence 4) [E0608110]
Copy OK

Track 23

Filename D:\Classic Country Music- A Smithsonian Collection [Disc 2] ()\23 - Chet Atkins - Country Gentleman.wav

Pre-gap length 0:00:02.06

Peak level 80.3 %
Extraction speed 9.3 X
Track quality 100.0 %
Test CRC 4370D3E6
Copy CRC 4370D3E6
Accurately ripped (confidence 4) [E137F51F]
Copy OK

Track 24

Filename D:\Classic Country Music- A Smithsonian Collection [Disc 2] ()\24 - Eddy Arnold - I Really Don't Want to Know.wav

Pre-gap length 0:00:01.89

Peak level 80.8 %
Extraction speed 9.6 X
Track quality 100.0 %
Test CRC 376FBDA7
Copy CRC 376FBDA7
Accurately ripped (confidence 4) [21B2CEF3]
Copy OK

Track 25

Filename D:\Classic Country Music- A Smithsonian Collection [Disc 2] ()\25 - Tennessee Ernie Ford - Sixteen Tons.wav

Pre-gap length 0:00:01.50

Peak level 100.0 %
Extraction speed 9.7 X
Track quality 100.0 %
Test CRC 59DD79B4
Copy CRC 59DD79B4
Accurately ripped (confidence 4) [8A8202B3]
Copy OK

Track 26

Filename D:\Classic Country Music- A Smithsonian Collection [Disc 2] ()\26 - Elvis Presley - Blue Moon of Kentucky.wav

Pre-gap length 0:00:01.57

Peak level 95.3 %
Extraction speed 9.4 X
Track quality 100.0 %
Test CRC 7905393D
Copy CRC 7905393D
Accurately ripped (confidence 4) [04804C56]
Copy OK

Track 27

Filename D:\Classic Country Music- A Smithsonian Collection [Disc 2] ()\27 - Everly Brothers - Bye Bye Love.wav

Pre-gap length 0:00:01.40

Peak level 92.0 %
Extraction speed 9.7 X
Track quality 100.0 %
Test CRC C1AF50C4
Copy CRC C1AF50C4
Accurately ripped (confidence 4) [F5F1E9E2]
Copy OK


All tracks accurately ripped

No errors occurred

End of status report

==== Log checksum 20AE8C1F895CD05C20CAA17645129F97781DACDF851F87C5628015C3A6A092BF ====


––––––––––––––––––––––––––––––––––––––––––


VA - Classic Country Music: A Smithsonian Collection Volume 1-4 (1990) 4CD Set

VA - Classic Country Music: A Smithsonian Collection, Volume 3
EAC | FLAC | Tracks (Cue&Log) ~ 434 Mb (incl 5%) | Mp3 (CBR320/Stereo) ~ 180 Mb (incl 5%)
Label: Smithsonian Folkways, BMG | # RD 042-3 | Time: 01:14:58

On par with their excellent jazz collection, Smithsonian's Classic Country Music series takes in the highlights from the early string band days of the Carter Family and the rise of honky tonk to the Nashville sound and the crossover sounds of the '80s. Spread over four discs with close to 25 tracks a disc, the series offers country newcomers an ideal place to start. The third installment takes up the story in the mid-'50s, as rock & roll was starting to make waves. The first half covers the latter days of honky tonk with hits by Ray Price and Johnny Horton, not to mention a few nods to theSun Records milieu by way of some Jerry Lee Lewis and Johnny Cash. The disc proceeds to take in most of the '60s, including early country-pop (Jim Reeves and Patsy Cline), the Bakersfield sound (Buck Owens), mega hits (Bobbie Gentry and Roger Miller), and two of the music's strongest female voices (Loretta Lynn and Tammy Wynette). A fine taste of country before the producers really started jockeying for the crossover dollar and lost sight of those honky tonk roots.

Review by Stephen Cook, Allmusic.com

Tracklist:

01. Jerry Lee Lewis - You Win Again (02:56)
02. Sonny James - Young Love (02:32)
03. Johnny Cash - I Walk the Line (02:46)
04. Ray Price - Crazy Arms (02:35)
05. Jim Reeves - He'll Have to Go (02:21)
06. Patsy Cline - Faded Love (03:45)
07. Johnny Horton - The Battle of New Orleans (02:33)
08. Marty Robbins - El Paso (04:44)
09. Jimmy Dean - Big Bad John (03:04)
10. Louvin Brothers - When I Stop Dreaming (02:32)
11. Bobby Bare - Detroit City (02:51)
12. George Jones and Melba Montgomery - We Must Have Been Out of Our Minds (02:41)
13. Buck Owens - Excuse Me (02:29)
14. Faron Young - Hello Walls (02:24)
15. Bobbie Gentry - Ode to Billie Joe (04:16)
16. Roger Miller - King of the Road (02:30)
17. Porter Wagoner - Green, Green Grass of Home (02:24)
18. Willie Nelson - Funny How Time Slips Away (02:41)
19. Glen Campbell - Gentle on My Mind (02:59)
20. Osborne Brothers - Rocky Top (02:39)
21. Loretta Lynn - Coal Miner's Daughter (03:01)
22. Dolly Parton - Coat of Many Colors (03:05)
23. Johnny Cash - Folsom Prison Blues (02:44)
24. Tammy Wynette - Stand By Your Man (02:43)
25. Tom T. Hall - Homecoming (03:20)
26. Charley Pride - Is Anybody Goin' to San Antone? (02:13)


Exact Audio Copy V1.0 beta 1 from 15. November 2010

EAC extraction logfile from 22. January 2011, 14:20

Various / Smithsonian Classic Country Disc 3

Used drive : HL-DT-STDVD-ROM GDRH20N Adapter: 1 ID: 1

Read mode : Secure
Utilize accurate stream : Yes
Defeat audio cache : Yes
Make use of C2 pointers : No

Read offset correction : 102
Overread into Lead-In and Lead-Out : No
Fill up missing offset samples with silence : Yes
Delete leading and trailing silent blocks : No
Null samples used in CRC calculations : Yes
Used interface : Native Win32 interface for Win NT & 2000
Gap handling : Appended to previous track

Used output format : User Defined Encoder
Selected bitrate : 768 kBit/s
Quality : High
Add ID3 tag : No
Command line compressor : C:\Program Files\Exact Audio Copy\FLAC\FLAC.EXE
Additional command line options : -V -8 -T "artist=%a" -T "title=%t" -T "album=%g" -T "date=%y" -T "tracknumber=%n" -T "genre=%m" %s


TOC of the extracted CD

Track | Start | Length | Start sector | End sector
––––––––––––––––––––––––––––-
1 | 0:00.00 | 2:56.45 | 0 | 13244
2 | 2:56.45 | 2:32.37 | 13245 | 24681
3 | 5:29.07 | 2:46.08 | 24682 | 37139
4 | 8:15.15 | 2:35.00 | 37140 | 48764
5 | 10:50.15 | 2:21.42 | 48765 | 59381
6 | 13:11.57 | 3:45.70 | 59382 | 76326
7 | 16:57.52 | 2:33.00 | 76327 | 87801
8 | 19:30.52 | 4:44.30 | 87802 | 109131
9 | 24:15.07 | 3:04.00 | 109132 | 122931
10 | 27:19.07 | 2:32.33 | 122932 | 134364
11 | 29:51.40 | 2:51.25 | 134365 | 147214
12 | 32:42.65 | 2:41.15 | 147215 | 159304
13 | 35:24.05 | 2:29.15 | 159305 | 170494
14 | 37:53.20 | 2:24.52 | 170495 | 181346
15 | 40:17.72 | 4:16.50 | 181347 | 200596
16 | 44:34.47 | 2:30.00 | 200597 | 211846
17 | 47:04.47 | 2:24.48 | 211847 | 222694
18 | 49:29.20 | 2:41.22 | 222695 | 234791
19 | 52:10.42 | 2:59.28 | 234792 | 248244
20 | 55:09.70 | 2:39.15 | 248245 | 260184
21 | 57:49.10 | 3:01.27 | 260185 | 273786
22 | 60:50.37 | 3:05.23 | 273787 | 287684
23 | 63:55.60 | 2:44.72 | 287685 | 300056
24 | 66:40.57 | 2:43.58 | 300057 | 312339
25 | 69:24.40 | 3:20.27 | 312340 | 327366
26 | 72:44.67 | 2:13.50 | 327367 | 337391


Track 1

Filename D:\Smithsonian Classic Country Disc 3 ()\01 - Jerry Lee Lewis - You Win Again.wav

Pre-gap length 0:00:02.00

Peak level 98.7 %
Extraction speed 6.2 X
Track quality 100.0 %
Test CRC 3E12BEC2
Copy CRC 3E12BEC2
Accurately ripped (confidence 3) [97860DC3]
Copy OK

Track 2

Filename D:\Smithsonian Classic Country Disc 3 ()\02 - Sonny James - Young Love.wav

Pre-gap length 0:00:02.26

Peak level 86.7 %
Extraction speed 6.4 X
Track quality 100.0 %
Test CRC E6B222D7
Copy CRC E6B222D7
Accurately ripped (confidence 3) [EC62EB50]
Copy OK

Track 3

Filename D:\Smithsonian Classic Country Disc 3 ()\03 - Johnny Cash - I Walk the Line.wav

Pre-gap length 0:00:02.29

Peak level 92.6 %
Extraction speed 6.9 X
Track quality 100.0 %
Test CRC C590418F
Copy CRC C590418F
Accurately ripped (confidence 3) [5F0A1033]
Copy OK

Track 4

Filename D:\Smithsonian Classic Country Disc 3 ()\04 - Ray Price - Crazy Arms.wav

Pre-gap length 0:00:02.44

Peak level 95.0 %
Extraction speed 7.1 X
Track quality 100.0 %
Test CRC 5138688C
Copy CRC 5138688C
Accurately ripped (confidence 3) [B68C7E9A]
Copy OK

Track 5

Filename D:\Smithsonian Classic Country Disc 3 ()\05 - Jim Reeves - He'll Have to Go.wav

Pre-gap length 0:00:01.93

Peak level 86.9 %
Extraction speed 7.2 X
Track quality 100.0 %
Test CRC 098E83FF
Copy CRC 098E83FF
Accurately ripped (confidence 3) [B6F6AFB3]
Copy OK

Track 6

Filename D:\Smithsonian Classic Country Disc 3 ()\06 - Patsy Cline - Faded Love.wav

Pre-gap length 0:00:01.93

Peak level 99.9 %
Extraction speed 8.3 X
Track quality 100.0 %
Test CRC A936B77E
Copy CRC A936B77E
Accurately ripped (confidence 3) [B95EF21D]
Copy OK

Track 7

Filename D:\Smithsonian Classic Country Disc 3 ()\07 - Johnny Horton - The Battle of New Orleans.wav

Pre-gap length 0:00:02.02

Peak level 99.4 %
Extraction speed 8.2 X
Track quality 100.0 %
Test CRC E300CC0E
Copy CRC E300CC0E
Accurately ripped (confidence 3) [3CB20365]
Copy OK

Track 8

Filename D:\Smithsonian Classic Country Disc 3 ()\08 - Marty Robbins - El Paso.wav

Pre-gap length 0:00:00.62

Peak level 85.6 %
Extraction speed 9.3 X
Track quality 100.0 %
Test CRC B7F93256
Copy CRC B7F93256
Accurately ripped (confidence 3) [60BB17D0]
Copy OK

Track 9

Filename D:\Smithsonian Classic Country Disc 3 ()\09 - Jimmy Dean - Big Bad John.wav

Pre-gap length 0:00:02.22

Peak level 92.4 %
Extraction speed 9.0 X
Track quality 100.0 %
Test CRC 2071BE6F
Copy CRC 2071BE6F
Accurately ripped (confidence 3) [D7B94149]
Copy OK

Track 10

Filename D:\Smithsonian Classic Country Disc 3 ()\10 - Louvin Brothers - When I Stop Dreaming.wav

Pre-gap length 0:00:02.16

Peak level 90.9 %
Extraction speed 7.6 X
Track quality 99.9 %
Test CRC 4926BEF9
Copy CRC 4926BEF9
Accurately ripped (confidence 3) [FCECFC94]
Copy OK

Track 11

Filename D:\Smithsonian Classic Country Disc 3 ()\11 - Bobby Bare - Detroit City.wav

Pre-gap length 0:00:01.97

Peak level 90.8 %
Extraction speed 6.2 X
Track quality 99.9 %
Test CRC 9F637929
Copy CRC 9F637929
Accurately ripped (confidence 3) [5E44595B]
Copy OK

Track 12

Filename D:\Smithsonian Classic Country Disc 3 ()\12 - George Jones and Melba Montgomery - We Must Have Been Out of Our Minds.wav

Pre-gap length 0:00:02.10

Peak level 90.1 %
Extraction speed 7.3 X
Track quality 100.0 %
Test CRC 00F7731C
Copy CRC 00F7731C
Accurately ripped (confidence 3) [9C6AC5DD]
Copy OK

Track 13

Filename D:\Smithsonian Classic Country Disc 3 ()\13 - Buck Owens - Excuse Me.wav

Pre-gap length 0:00:02.06

Peak level 72.6 %
Extraction speed 7.3 X
Track quality 100.0 %
Test CRC 188F0938
Copy CRC 188F0938
Accurately ripped (confidence 3) [DBE8E0C1]
Copy OK

Track 14

Filename D:\Smithsonian Classic Country Disc 3 ()\14 - Faron Young - Hello Walls.wav

Pre-gap length 0:00:02.04

Peak level 99.7 %
Extraction speed 7.5 X
Track quality 100.0 %
Test CRC 0C3F8C83
Copy CRC 0C3F8C83
Accurately ripped (confidence 4) [D7A495F9]
Copy OK

Track 15

Filename D:\Smithsonian Classic Country Disc 3 ()\15 - Bobbie Gentry - Ode to Billie Joe.wav

Pre-gap length 0:00:02.09

Peak level 86.2 %
Extraction speed 7.5 X
Track quality 99.9 %
Test CRC E35C4C84
Copy CRC E35C4C84
Accurately ripped (confidence 3) [3D27A1C2]
Copy OK

Track 16

Filename D:\Smithsonian Classic Country Disc 3 ()\16 - Roger Miller - King of the Road.wav

Pre-gap length 0:00:03.49

Peak level 89.0 %
Extraction speed 7.9 X
Track quality 100.0 %
Test CRC 3CBFDCCA
Copy CRC 3CBFDCCA
Accurately ripped (confidence 3) [BEAC2301]
Copy OK

Track 17

Filename D:\Smithsonian Classic Country Disc 3 ()\17 - Porter Wagoner - Green, Green Grass of Home.wav

Pre-gap length 0:00:01.93

Peak level 90.5 %
Extraction speed 8.0 X
Track quality 100.0 %
Test CRC 0FFCBB87
Copy CRC 0FFCBB87
Accurately ripped (confidence 3) [14FAAFBA]
Copy OK

Track 18

Filename D:\Smithsonian Classic Country Disc 3 ()\18 - Willie Nelson - Funny How Time Slips Away.wav

Pre-gap length 0:00:02.24

Peak level 93.2 %
Extraction speed 8.3 X
Track quality 100.0 %
Test CRC F88655F1
Copy CRC F88655F1
Accurately ripped (confidence 3) [D5B29FF3]
Copy OK

Track 19

Filename D:\Smithsonian Classic Country Disc 3 ()\19 - Glen Campbell - Gentle on My Mind.wav

Pre-gap length 0:00:02.09

Peak level 85.3 %
Extraction speed 8.7 X
Track quality 100.0 %
Test CRC 3F62E329
Copy CRC 3F62E329
Accurately ripped (confidence 3) [CA8EC597]
Copy OK

Track 20

Filename D:\Smithsonian Classic Country Disc 3 ()\20 - Osborne Brothers - Rocky Top.wav

Pre-gap length 0:00:02.06

Peak level 83.8 %
Extraction speed 8.7 X
Track quality 100.0 %
Test CRC 0E0121F5
Copy CRC 0E0121F5
Accurately ripped (confidence 4) [1E867071]
Copy OK

Track 21

Filename D:\Smithsonian Classic Country Disc 3 ()\21 - Loretta Lynn - Coal Miner's Daughter.wav

Pre-gap length 0:00:01.77

Peak level 96.2 %
Extraction speed 9.0 X
Track quality 100.0 %
Test CRC D53AD7B7
Copy CRC D53AD7B7
Accurately ripped (confidence 4) [7EA16DE2]
Copy OK

Track 22

Filename D:\Smithsonian Classic Country Disc 3 ()\22 - Dolly Parton - Coat of Many Colors.wav

Pre-gap length 0:00:01.82

Peak level 65.4 %
Extraction speed 7.9 X
Track quality 99.9 %
Test CRC C5FC7843
Copy CRC C5FC7843
Accurately ripped (confidence 4) [EFB9643D]
Copy OK

Track 23

Filename D:\Smithsonian Classic Country Disc 3 ()\23 - Johnny Cash - Folsom Prison Blues.wav

Pre-gap length 0:00:01.93

Peak level 91.1 %
Extraction speed 9.2 X
Track quality 100.0 %
Test CRC 4B467305
Copy CRC 4B467305
Accurately ripped (confidence 4) [676DDF5E]
Copy OK

Track 24

Filename D:\Smithsonian Classic Country Disc 3 ()\24 - Tammy Wynette - Stand By Your Man.wav

Pre-gap length 0:00:01.80

Peak level 87.3 %
Extraction speed 9.3 X
Track quality 100.0 %
Test CRC 214BD3C0
Copy CRC 214BD3C0
Accurately ripped (confidence 4) [75026AAA]
Copy OK

Track 25

Filename D:\Smithsonian Classic Country Disc 3 ()\25 - Tom T. Hall - Homecoming.wav

Pre-gap length 0:00:03.26

Peak level 78.5 %
Extraction speed 9.8 X
Track quality 100.0 %
Test CRC 93C4C174
Copy CRC 93C4C174
Accurately ripped (confidence 4) [4E7AB675]
Copy OK

Track 26

Filename D:\Smithsonian Classic Country Disc 3 ()\26 - Charley Pride - Is Anybody Goin' to San Antone.wav

Pre-gap length 0:00:02.20

Peak level 83.6 %
Extraction speed 9.0 X
Track quality 100.0 %
Test CRC 520D194B
Copy CRC 520D194B
Accurately ripped (confidence 3) [41BCF217]
Copy OK


All tracks accurately ripped

No errors occurred

End of status report

==== Log checksum 311B9FB6B40BC89854E4B3180487AA26BDE5584140E5888C097A8194C0702045 ====


––––––––––––––––––––––––––––––––––––––––––


VA - Classic Country Music: A Smithsonian Collection Volume 1-4 (1990) 4CD Set

VA - Classic Country Music: A Smithsonian Collection, Volume 4
EAC | FLAC | Tracks (Cue&Log) ~ 458 Mb (incl 5%) | Mp3 (CBR320/Stereo) ~ 183 Mb (incl 5%)
Label: Smithsonian Folkways, BMG | # RD 042-4 | Time: 01:16:17

This fourth and last volume in the Smithsonian's country series covers the music from the last days of the Nashville sound up through the nouveau honky tonk of the early '70 and the rock and pop-tinged, chart topping likes of Alabama, the Judds, and Charlie Daniels. Also included, the original alt country of Gram Parsons, a bit of honky tonk revival by Dwight Yoakam, and a genuine pop smash from Dolly Parton. As usual, the Smithsonian has produced a quality collection, in spite of the often conflicting demands of historical brevity and commercial recognition. And while some of the later material falls short, the disc mostly stays on track thanks to a little help from George Jones, Waylon Jennings, Lefty Frizzell, and Loretta Lynn. A history lesson for the tavern set.

Review by Stephen Cook, Allmusic.com

Tracklist:

01. Ray Price - For the Good Times (03:49)
02. Flying Burrito Brothers - Sin City (04:12)
03. Loretta Lynn and Conway Twitty - After the Fire is Gone (02:40)
04. Lefty Frizzell - I Never Go Around Mirrors (02:36)
05. Kris Kristofferson - Why Me, Lord (03:30)
06. George Jones - The Grand Tour (03:10)
07. Gram Parsons and Emmylou Harris - Love Hurts (03:41)
08. Waylon Jennings - Bob Wills is Still the King (03:29)
09. Ronnie Milsap - Who'll Turn Out the Lights (03:21)
10. Willie Nelson and Waylon Jennings - Mamas, Don't Let Your Babies Grow Up to Be Cowboys (02:33)
11. Rodney Crowell - 'Til I Gain Control Again (05:07)
12. Emmylou Harris - Beneath Still waters (03:44)
13. Charlie Daniels - The Devil Went Down to Georgia (03:37)
14. George Jones - He Stopped Loving Her Today (03:14)
15. Alabama - Old Flame (03:13)
16. Alabama - Forty Hour Week (03:24)
17. Hank Williams, Jr. - A Country Boy Can Survive (04:17)
18. Ricky Skaggs - Don't Get Above Your Raising (03:13)
19. Dwight Yoakam - Honky Tonk Man (02:49)
20. Bellamy Brothers - Kids of the Baby Boom (03:28)
21. Dolly Parton - 9 to 5 (02:45)
22. The Judds - Grandpa (Tell Me About the Good Old Days) (04:15)


Exact Audio Copy V1.0 beta 1 from 15. November 2010

EAC extraction logfile from 22. January 2011, 14:41

Various / Smithsonian Classic Country Disk 4

Used drive : HL-DT-STDVD-ROM GDRH20N Adapter: 1 ID: 1

Read mode : Secure
Utilize accurate stream : Yes
Defeat audio cache : Yes
Make use of C2 pointers : No

Read offset correction : 102
Overread into Lead-In and Lead-Out : No
Fill up missing offset samples with silence : Yes
Delete leading and trailing silent blocks : No
Null samples used in CRC calculations : Yes
Used interface : Native Win32 interface for Win NT & 2000
Gap handling : Appended to previous track

Used output format : User Defined Encoder
Selected bitrate : 768 kBit/s
Quality : High
Add ID3 tag : No
Command line compressor : C:\Program Files\Exact Audio Copy\FLAC\FLAC.EXE
Additional command line options : -V -8 -T "artist=%a" -T "title=%t" -T "album=%g" -T "date=%y" -T "tracknumber=%n" -T "genre=%m" %s


TOC of the extracted CD

Track | Start | Length | Start sector | End sector
––––––––––––––––––––––––––––-
1 | 0:00.00 | 3:49.25 | 0 | 17199
2 | 3:49.25 | 4:12.07 | 17200 | 36106
3 | 8:01.32 | 2:40.43 | 36107 | 48149
4 | 10:42.00 | 2:36.17 | 48150 | 59866
5 | 13:18.17 | 3:30.18 | 59867 | 75634
6 | 16:48.35 | 3:10.22 | 75635 | 89906
7 | 19:58.57 | 3:41.30 | 89907 | 106511
8 | 23:40.12 | 3:29.33 | 106512 | 122219
9 | 27:09.45 | 3:21.35 | 122220 | 137329
10 | 30:31.05 | 2:33.27 | 137330 | 148831
11 | 33:04.32 | 5:07.33 | 148832 | 171889
12 | 38:11.65 | 3:44.52 | 171890 | 188741
13 | 41:56.42 | 3:37.70 | 188742 | 205086
14 | 45:34.37 | 3:14.70 | 205087 | 219706
15 | 48:49.32 | 3:13.63 | 219707 | 234244
16 | 52:03.20 | 3:24.12 | 234245 | 249556
17 | 55:27.32 | 4:17.70 | 249557 | 268901
18 | 59:45.27 | 3:13.40 | 268902 | 283416
19 | 62:58.67 | 2:49.00 | 283417 | 296091
20 | 65:47.67 | 3:28.68 | 296092 | 311759
21 | 69:16.60 | 2:45.12 | 311760 | 324146
22 | 72:01.72 | 4:15.20 | 324147 | 343291


Track 1

Filename D:\Smithsonian Classic Country Disk 4 ()\01 - Ray Price - For the Good Times.wav

Pre-gap length 0:00:02.00

Peak level 94.5 %
Extraction speed 6.5 X
Track quality 100.0 %
Test CRC 4A754BBE
Copy CRC 4A754BBE
Accurately ripped (confidence 3) [87A0BCCC]
Copy OK

Track 2

Filename D:\Smithsonian Classic Country Disk 4 ()\02 - Flying Burrito Brothers - Sin City.wav

Pre-gap length 0:00:02.13

Peak level 97.9 %
Extraction speed 7.2 X
Track quality 100.0 %
Test CRC 3E23E7E3
Copy CRC 3E23E7E3
Accurately ripped (confidence 3) [41CAD937]
Copy OK

Track 3

Filename D:\Smithsonian Classic Country Disk 4 ()\03 - Loretta Lynn and Conway Twitty - After the Fire is Gone.wav

Pre-gap length 0:00:02.06

Peak level 100.0 %
Extraction speed 7.2 X
Track quality 100.0 %
Test CRC 0ABC2C72
Copy CRC 0ABC2C72
Accurately ripped (confidence 3) [66A0C3B4]
Copy OK

Track 4

Filename D:\Smithsonian Classic Country Disk 4 ()\04 - Lefty Frizzell - I Never Go Around Mirrors.wav

Pre-gap length 0:00:02.20

Peak level 91.2 %
Extraction speed 7.4 X
Track quality 100.0 %
Test CRC C6D22043
Copy CRC C6D22043
Accurately ripped (confidence 3) [A52E04A2]
Copy OK

Track 5

Filename D:\Smithsonian Classic Country Disk 4 ()\05 - Kris Kristofferson - Why Me, Lord.wav

Pre-gap length 0:00:01.96

Peak level 86.5 %
Extraction speed 8.2 X
Track quality 100.0 %
Test CRC F1E43A89
Copy CRC F1E43A89
Accurately ripped (confidence 3) [63FF2C2F]
Copy OK

Track 6

Filename D:\Smithsonian Classic Country Disk 4 ()\06 - George Jones - The Grand Tour.wav

Pre-gap length 0:00:02.24

Peak level 87.8 %
Extraction speed 8.4 X
Track quality 100.0 %
Test CRC 169F8DEB
Copy CRC 169F8DEB
Accurately ripped (confidence 3) [BF4F14D4]
Copy OK

Track 7

Filename D:\Smithsonian Classic Country Disk 4 ()\07 - Gram Parsons and Emmylou Harris - Love Hurts.wav

Pre-gap length 0:00:02.76

Peak level 92.9 %
Extraction speed 9.1 X
Track quality 100.0 %
Test CRC D9408DE3
Copy CRC D9408DE3
Accurately ripped (confidence 3) [A5F788B8]
Copy OK

Track 8

Filename D:\Smithsonian Classic Country Disk 4 ()\08 - Waylon Jennings - Bob Wills is Still the King.wav

Pre-gap length 0:00:02.22

Peak level 98.6 %
Extraction speed 9.4 X
Track quality 100.0 %
Test CRC A550851E
Copy CRC A550851E
Accurately ripped (confidence 3) [1CEB24E5]
Copy OK

Track 9

Filename D:\Smithsonian Classic Country Disk 4 ()\09 - Ronnie Milsap - Who'll Turn Out the Lights.wav

Pre-gap length 0:00:02.00

Peak level 90.2 %
Extraction speed 9.7 X
Track quality 100.0 %
Test CRC 9FC0CEDA
Copy CRC 9FC0CEDA
Accurately ripped (confidence 3) [BB9430EA]
Copy OK

Track 10

Filename D:\Smithsonian Classic Country Disk 4 ()\10 - Willie Nelson and Waylon Jennings - Mamas, Don't Let Your Babies Grow Up to Be Cowboys.wav

Pre-gap length 0:00:01.90

Peak level 95.3 %
Extraction speed 9.5 X
Track quality 100.0 %
Test CRC F9105DA2
Copy CRC F9105DA2
Accurately ripped (confidence 3) [D06E7101]
Copy OK

Track 11

Filename D:\Smithsonian Classic Country Disk 4 ()\11 - Rodney Crowell - 'Til I Gain Control Again.wav

Pre-gap length 0:00:00.89

Peak level 97.0 %
Extraction speed 10.8 X
Track quality 100.0 %
Test CRC 0E0898EF
Copy CRC 0E0898EF
Accurately ripped (confidence 3) [A402CF6E]
Copy OK

Track 12

Filename D:\Smithsonian Classic Country Disk 4 ()\12 - Emmylou Harris - Beneath Still waters.wav

Pre-gap length 0:00:01.93

Peak level 85.1 %
Extraction speed 10.8 X
Track quality 100.0 %
Test CRC D75C1E5F
Copy CRC D75C1E5F
Accurately ripped (confidence 3) [B876C1B6]
Copy OK

Track 13

Filename D:\Smithsonian Classic Country Disk 4 ()\13 - Charlie Daniels - The Devil Went Down to Georgia.wav

Pre-gap length 0:00:01.73

Peak level 97.1 %
Extraction speed 11.0 X
Track quality 100.0 %
Test CRC B7AECDAD
Copy CRC B7AECDAD
Accurately ripped (confidence 3) [17084EA7]
Copy OK

Track 14

Filename D:\Smithsonian Classic Country Disk 4 ()\14 - George Jones - He Stopped Loving Her Today.wav

Pre-gap length 0:00:01.93

Peak level 85.8 %
Extraction speed 9.7 X
Track quality 99.9 %
Test CRC A9697D68
Copy CRC A9697D68
Accurately ripped (confidence 3) [1F9E8F40]
Copy OK

Track 15

Filename D:\Smithsonian Classic Country Disk 4 ()\15 - Alabama - Old Flame.wav

Pre-gap length 0:00:01.49

Peak level 100.0 %
Extraction speed 11.2 X
Track quality 100.0 %
Test CRC E9F690B1
Copy CRC E9F690B1
Accurately ripped (confidence 2) [AE67B6EC]
Copy OK

Track 16

Filename D:\Smithsonian Classic Country Disk 4 ()\16 - Alabama - Forty Hour Week.wav

Pre-gap length 0:00:01.00

Peak level 100.0 %
Extraction speed 11.6 X
Track quality 100.0 %
Test CRC 13E73194
Copy CRC 13E73194
Accurately ripped (confidence 3) [B686500B]
Copy OK

Track 17

Filename D:\Smithsonian Classic Country Disk 4 ()\17 - Hank Williams, Jr. - A Country Boy Can Survive.wav

Pre-gap length 0:00:01.80

Peak level 99.8 %
Extraction speed 12.4 X
Track quality 100.0 %
Test CRC A177FECB
Copy CRC A177FECB
Accurately ripped (confidence 3) [F05C5FD4]
Copy OK

Track 18

Filename D:\Smithsonian Classic Country Disk 4 ()\18 - Ricky Skaggs - Don't Get Above Your Raising.wav

Pre-gap length 0:00:01.66

Peak level 85.2 %
Extraction speed 12.1 X
Track quality 100.0 %
Test CRC 4A73AF38
Copy CRC 4A73AF38
Accurately ripped (confidence 2) [4862EC81]
Copy OK

Track 19

Filename D:\Smithsonian Classic Country Disk 4 ()\19 - Dwight Yoakam - Honky Tonk Man.wav

Pre-gap length 0:00:01.73

Peak level 100.0 %
Extraction speed 10.3 X
Track quality 99.9 %
Test CRC 918024CE
Copy CRC 918024CE
Accurately ripped (confidence 3) [7BB5106D]
Copy OK

Track 20

Filename D:\Smithsonian Classic Country Disk 4 ()\20 - Bellamy Brothers - Kids of the Baby Boom.wav

Pre-gap length 0:00:01.26

Peak level 97.9 %
Extraction speed 12.7 X
Track quality 100.0 %
Test CRC 5A45D2A4
Copy CRC 5A45D2A4
Accurately ripped (confidence 3) [79E18C9C]
Copy OK

Track 21

Filename D:\Smithsonian Classic Country Disk 4 ()\21 - Dolly Parton - 9 to 5.wav

Pre-gap length 0:00:01.90

Peak level 90.2 %
Extraction speed 12.3 X
Track quality 100.0 %
Test CRC CFC02001
Copy CRC CFC02001
Accurately ripped (confidence 3) [904AE973]
Copy OK

Track 22

Filename D:\Smithsonian Classic Country Disk 4 ()\22 - The Judds - Grandpa (Tell Me About the Good Old Days).wav

Pre-gap length 0:00:01.93

Peak level 96.6 %
Extraction speed 13.4 X
Track quality 100.0 %
Test CRC 41A662E3
Copy CRC 41A662E3
Accurately ripped (confidence 3) [86249822]
Copy OK


All tracks accurately ripped

No errors occurred

End of status report

==== Log checksum 2EFC8B756F260B0320AAF56A5DC394121C70609F2452BBBD9E9E7AEE3F16F4B5 ====


All thanks to original releaser - RobStealcheat

More interesting music in My Blog