Subcategories

Cliff Richard - I'm Nearly Famous (1976) {2001, Remastered}

Posted By: popsakov
Cliff Richard - I'm Nearly Famous (1976) {2001, Remastered}

Cliff Richard - I'm Nearly Famous (1976) {2001, Remastered}
EAC Rip | FLAC (Img) + Cue + Log ~ 418 Mb | MP3 CBR320 ~ 166 Mb
Scans Included (JPG, 600 dpi) | RAR 5% Recovery
Pop Rock, Soft Rock | Parlophone #7243 5 33114 2 1

I'm Nearly Famous is the album which marked Cliff Richard's return from the commercial and, in many ways, creative void which had consumed him since the end of the 1960s. Recorded with former Shadow Brian Bennett in the production chair and boasting the most consistently excellent clutch of songs and performances Richard had mustered in over a decade, the album was previewed by the lovely "Miss You Night," opened with the neo-disco "I Can't Ask for Anything More," and peaked with "Devil Woman," a rocker which became his first ever U.S. Top Ten hit. But they were simply the best-known standouts. "It's No Use Pretending" was an anthemic ballad with more than a hint of Elton John around its execution – quite coincidentally, it was John's Rocket label which oversaw the album's American release. From the same writing team of Michael Allison and Peter Sill, the riff sodden rocking title track, too, has ghosts of John around it – think "Crocodile Rock" meets "Bennie & the Jets." The tide flows both ways, however. Of course the two artists sound alike, but there was a time, when John was first breaking through, when a lot of people thought he sounded like Richard. Chicken? Meet the egg. There are a couple of less than stellar moments – "Lovers" is basic big ballad by numbers, "Junior Cowboy" is the kind of ersatz country rocker which Richard had done much better in the past. What's important, however, is that once these would have been the highlights of a new Richard album; either that, or indistinguishable from all the other ballads and country rockers on board. This time around, they were simply a lull before the next masterpiece rolled out. I'm Nearly Famous rates, alongside David Cassidy's The Higher They Climb, among the most surprising albums of the mid-1970s, a record which was made in the face of both critical hostility and public indifference, yet managed to completely redefine its creator in the eyes of both. Cassidy, of course, never followed up his renaissance. Richard, on the other hand, hasn't looked back since.
~ Dave Thompson, All Music

***************

Cliff Richard - I'm Nearly Famous (1976) {2001, Remastered}

Track List:

01. I Can't Ask For Anymore Than You [2:51]
02. It's No Use Pretending [3:23]
03. I'm Nearly Famous [3:54]
04. Lovers [2:59]
05. Junior Cowboy [2:45]
06. Miss You Nights [3:57]
07. I Wish You'd Change Your Mind [3:04]
08. Devil Woman [3:35]
09. Such Is The Mystery [5:11]
10. You've Got To Give Me All Your Lovin' [3:06]
11. If You Walked Away [3:02]
12. Alright, It's Alright [2:34]
13. Love Is Enough (Non Album B-Side) [2:51]
14. Love On (Shine On) (Non Album B-Side) [3:04]
15. Honky Tonk Angel (Non Album A-Side) [3:04]
16. Wouldn't You Know It (Non Album B-Side) [3:03]
17. It's Only Me You've Left Behind (Non Album A-Side) [3:08]
18. You're The One (Non Album B-Side) [3:42]

Exact Audio Copy V1.3 from 2. September 2016

EAC extraction logfile from 6. April 2018, 15:04

Cliff Richard / I'm Nearly Famous [2001 Remaster]

Used drive : ATAPI iHAS122 C Adapter: 1 ID: 0

Read mode : Secure
Utilize accurate stream : Yes
Defeat audio cache : Yes
Make use of C2 pointers : No

Read offset correction : 6
Overread into Lead-In and Lead-Out : No
Fill up missing offset samples with silence : Yes
Delete leading and trailing silent blocks : No
Null samples used in CRC calculations : Yes
Used interface : Native Win32 interface for Win NT & 2000

Used output format : Internal WAV Routines
Sample format : 44.100 Hz; 16 Bit; Stereo


TOC of the extracted CD

Track | Start | Length | Start sector | End sector
––––––––––––––––––––––––––––-
1 | 0:00.00 | 2:50.40 | 0 | 12789
2 | 2:50.40 | 3:22.54 | 12790 | 27993
3 | 6:13.19 | 3:54.26 | 27994 | 45569
4 | 10:07.45 | 2:58.40 | 45570 | 58959
5 | 13:06.10 | 2:44.50 | 58960 | 71309
6 | 15:50.60 | 3:57.22 | 71310 | 89106
7 | 19:48.07 | 3:04.03 | 89107 | 102909
8 | 22:52.10 | 3:35.21 | 102910 | 119055
9 | 26:27.31 | 5:11.32 | 119056 | 142412
10 | 31:38.63 | 3:06.24 | 142413 | 156386
11 | 34:45.12 | 3:02.26 | 156387 | 170062
12 | 37:47.38 | 2:33.43 | 170063 | 181580
13 | 40:21.06 | 2:50.54 | 181581 | 194384
14 | 43:11.60 | 3:04.37 | 194385 | 208221
15 | 46:16.22 | 3:03.74 | 208222 | 222020
16 | 49:20.21 | 3:03.37 | 222021 | 235782
17 | 52:23.58 | 3:07.50 | 235783 | 249857
18 | 55:31.33 | 3:42.12 | 249858 | 266519


Range status and errors

Selected range

Filename C:\Users\London\Desktop\Cliff Richard - I'm Nearly Famous [2001 Remaster].wav

Peak level 98.8 %
Extraction speed 8.5 X
Range quality 100.0 %
Test CRC CDFDA7A6
Copy CRC CDFDA7A6
Copy OK

No errors occurred


AccurateRip summary

Track 1 accurately ripped (confidence 2) [473AA892] (AR v2)
Track 2 accurately ripped (confidence 2) [9AC83029] (AR v2)
Track 3 accurately ripped (confidence 2) [4813941E] (AR v2)
Track 4 accurately ripped (confidence 2) [39DE557A] (AR v2)
Track 5 accurately ripped (confidence 2) [D64569AF] (AR v2)
Track 6 accurately ripped (confidence 2) [66194D90] (AR v2)
Track 7 accurately ripped (confidence 2) [4BF8230A] (AR v2)
Track 8 accurately ripped (confidence 2) [C8CA3418] (AR v2)
Track 9 accurately ripped (confidence 2) [CA375CA7] (AR v2)
Track 10 accurately ripped (confidence 2) [E3E50C8F] (AR v2)
Track 11 accurately ripped (confidence 2) [3219AF9E] (AR v2)
Track 12 accurately ripped (confidence 2) [80593FC2] (AR v2)
Track 13 accurately ripped (confidence 2) [2A6F2D32] (AR v2)
Track 14 accurately ripped (confidence 2) [76CA4BD1] (AR v2)
Track 15 accurately ripped (confidence 2) [54DD0FB7] (AR v2)
Track 16 accurately ripped (confidence 2) [69D3BEFB] (AR v2)
Track 17 accurately ripped (confidence 2) [0DE705DC] (AR v2)
Track 18 accurately ripped (confidence 2) [6456D01B] (AR v2)

All tracks accurately ripped

End of status report

–– CUETools DB Plugin V2.1.6

[CTDB TOCID: zfIJJchbBo6Dpor.KyrqfVgpSkw-] found
Submit result: zfIJJchbBo6Dpor.KyrqfVgpSkw- has been confirmed
Track | CTDB Status
1 | (19/19) Accurately ripped
2 | (19/19) Accurately ripped
3 | (19/19) Accurately ripped
4 | (19/19) Accurately ripped
5 | (19/19) Accurately ripped
6 | (19/19) Accurately ripped
7 | (19/19) Accurately ripped
8 | (19/19) Accurately ripped
9 | (19/19) Accurately ripped
10 | (19/19) Accurately ripped
11 | (19/19) Accurately ripped
12 | (19/19) Accurately ripped
13 | (19/19) Accurately ripped
14 | (19/19) Accurately ripped
15 | (19/19) Accurately ripped
16 | (19/19) Accurately ripped
17 | (19/19) Accurately ripped
18 | (19/19) Accurately ripped


==== Log checksum CD4567C50DC2E217712A2E43E4625634FCADDAC787041C343F8CA4DD2737934B ====

foobar2000 1.3.16 / Dynamic Range Meter 1.1.1
log date: 2018-04-07 20:38:35

––––––––––––––––––––––––––––––––––––––––
Analyzed: Cliff Richard / I'm Nearly Famous [2001 Remaster]
––––––––––––––––––––––––––––––––––––––––

DR Peak RMS Duration Track
––––––––––––––––––––––––––––––––––––––––
DR8 -0.10 dB -9.31 dB 2:51 01-I Can't Ask For Anymore Than You
DR8 -0.10 dB -11.48 dB 3:23 02-It's No Use Pretending
DR9 -0.10 dB -10.87 dB 3:54 03-I'm Nearly Famous
DR9 -0.10 dB -12.59 dB 2:59 04-Lovers
DR8 -0.90 dB -10.75 dB 2:45 05-Junior Cowboy
DR10 -0.19 dB -14.54 dB 3:57 06-Miss You Nights
DR10 -0.10 dB -12.77 dB 3:04 07-I Wish You'd Change Your Mind
DR8 -0.31 dB -10.42 dB 3:35 08-Devil Woman
DR11 -0.10 dB -14.33 dB 5:11 09-Such Is The Mystery
DR9 -0.10 dB -11.50 dB 3:06 10-You've Got To Give Me All Your Lovin'
DR8 -0.30 dB -10.84 dB 3:02 11-If You Walked Away
DR7 -0.10 dB -9.16 dB 2:34 12-Alright, It's Alright
DR8 -0.10 dB -10.87 dB 2:51 13-Love Is Enough (Non Album B-Side)
DR10 -0.10 dB -13.28 dB 3:04 14-Love On (Shine On) (Non Album B-Side)
DR7 -0.10 dB -9.76 dB 3:04 15-Honky Tonk Angel (Non Album A-Side)
DR7 -0.10 dB -9.17 dB 3:03 16-Wouldn't You Know It (Non Album B-Side)
DR7 -0.10 dB -8.59 dB 3:08 17-It's Only Me You've Left Behind (Non Album A-Side)
DR7 -0.10 dB -9.62 dB 3:42 18-You're The One (Non Album B-Side)
––––––––––––––––––––––––––––––––––––––––

Number of tracks: 18
Official DR value: DR8

Samplerate: 44100 Hz
Channels: 2
Bits per sample: 16
Bitrate: 888 kbps
Codec: FLAC
================================================================================

[CUETools log; Date: 07.04.2018 20:38:45; Version: 2.1.6]
[CTDB TOCID: zfIJJchbBo6Dpor.KyrqfVgpSkw-] found.
Track | CTDB Status
1 | (20/20) Accurately ripped
2 | (20/20) Accurately ripped
3 | (20/20) Accurately ripped
4 | (20/20) Accurately ripped
5 | (20/20) Accurately ripped
6 | (20/20) Accurately ripped
7 | (20/20) Accurately ripped
8 | (20/20) Accurately ripped
9 | (20/20) Accurately ripped
10 | (20/20) Accurately ripped
11 | (20/20) Accurately ripped
12 | (20/20) Accurately ripped
13 | (20/20) Accurately ripped
14 | (20/20) Accurately ripped
15 | (20/20) Accurately ripped
16 | (20/20) Accurately ripped
17 | (20/20) Accurately ripped
18 | (20/20) Accurately ripped
[AccurateRip ID: 0026fc32-02077def-130de112] found.
Track [ CRC | V2 ] Status
01 [bec40ffd|473aa892] (00+02/31) Accurately ripped
02 [6608d0b7|9ac83029] (00+02/31) Accurately ripped
03 [577289a6|4813941e] (00+02/31) Accurately ripped
04 [6361e26e|39de557a] (00+02/31) Accurately ripped
05 [e196765f|d64569af] (00+02/31) Accurately ripped
06 [d5ce3813|66194d90] (00+02/32) Accurately ripped
07 [caa813ad|4bf8230a] (00+02/31) Accurately ripped
08 [d1bfbf9e|c8ca3418] (00+02/31) Accurately ripped
09 [41b9fd5e|ca375ca7] (00+02/32) Accurately ripped
10 [54158f16|e3e50c8f] (00+02/31) Accurately ripped
11 [7f1dc646|3219af9e] (00+02/31) Accurately ripped
12 [a7d239ef|80593fc2] (00+02/31) Accurately ripped
13 [eac86f2f|2a6f2d32] (00+02/31) Accurately ripped
14 [1acaa133|76ca4bd1] (00+02/31) Accurately ripped
15 [8f85c1b8|54dd0fb7] (00+02/29) Accurately ripped
16 [fd28ea1c|69d3befb] (00+02/31) Accurately ripped
17 [e5dbb1eb|0de705dc] (00+02/31) Accurately ripped
18 [dda32af8|6456d01b] (00+02/30) Accurately ripped
Offsetted by 6:
01 [c2059fc1] (03/31) Accurately ripped
02 [e50cd0c1] (03/31) Accurately ripped
03 [5bf6e726] (03/31) Accurately ripped
04 [e27ed52a] (03/31) Accurately ripped
05 [151f94ef] (03/31) Accurately ripped
06 [fc7a7065] (03/32) Accurately ripped
07 [86032d5d] (03/31) Accurately ripped
08 [4c4bed9a] (03/31) Accurately ripped
09 [d8d5e30c] (03/32) Accurately ripped
10 [bd998932] (03/31) Accurately ripped
11 [307f2c3c] (03/31) Accurately ripped
12 [c9bafd69] (03/31) Accurately ripped
13 [309137ed] (03/31) Accurately ripped
14 [e3ed1615] (03/31) Accurately ripped
15 [60553d8a] (03/29) Accurately ripped
16 [364b147c] (03/31) Accurately ripped
17 [0358d06f] (03/31) Accurately ripped
18 [78b5ac48] (03/30) Accurately ripped
Offsetted by 92:
01 [4606ac65] (06/31) Accurately ripped
02 [019b7bfb] (06/31) Accurately ripped
03 [9cb578a6] (06/31) Accurately ripped
04 [00731706] (06/31) Accurately ripped
05 [4d224aff] (06/31) Accurately ripped
06 [26c997a7] (07/32) Accurately ripped
07 [58c79d8d] (06/31) Accurately ripped
08 [d37a80b6] (06/31) Accurately ripped
09 [a41069ca] (07/32) Accurately ripped
10 [50a7df6e] (06/31) Accurately ripped
11 [1ef33702] (06/31) Accurately ripped
12 [afc34493] (06/31) Accurately ripped
13 [6e24753b] (06/31) Accurately ripped
14 [d185a167] (06/31) Accurately ripped
15 [bbf32c4c] (06/29) Accurately ripped
16 [13df73dc] (06/31) Accurately ripped
17 [54af85d3] (06/31) Accurately ripped
18 [a59dcddb] (06/30) Accurately ripped
Offsetted by 688:
01 [decc751d] (02/31) Accurately ripped
02 [4a7e2a87] (02/31) Accurately ripped
03 [5d6715a6] (02/31) Accurately ripped
04 [5303f14e] (02/31) Accurately ripped
05 [a1ac26df] (02/31) Accurately ripped
06 [28477223] (02/32) Accurately ripped
07 [60cb952d] (02/31) Accurately ripped
08 [0b34587e] (02/31) Accurately ripped
09 [9b8e334e] (02/32) Accurately ripped
10 [ec8840f6] (02/31) Accurately ripped
11 [f2be1c76] (02/31) Accurately ripped
12 [d814733f] (02/31) Accurately ripped
13 [d762599f] (02/31) Accurately ripped
14 [878efbc3] (02/31) Accurately ripped
15 [6c7537c8] (00/29) No match (V2 was not tested)
16 [e9cbe51c] (02/31) Accurately ripped
17 [70915d0b] (02/31) Accurately ripped
18 [dd38d5f0] (02/30) Accurately ripped

Track Peak [ CRC32 ] [W/O NULL] [ LOG ]
– 98,8 [CDFDA7A6] [5E16C229] CRC32
01 98,8 [6452999D] [ED4FAD72]
02 98,8 [93DC4AB8] [B01EAFD4]
03 98,8 [C4CE3407] [2C46A6E4]
04 98,8 [51E37471] [1EFDD06D]
05 90,1 [BDF1CEB0] [5A86348C]
06 97,8 [912D18E4] [355C5B8D]
07 98,8 [5D7C9358] [CAD532C6]
08 96,5 [1B0C2082] [E48A9977]
09 98,8 [238522D3] [AE87809A]
10 98,8 [7AE0992C] [3B718BE7]
11 96,6 [9D37C1E6] [0382D469]
12 98,8 [1BA103ED] [1738E805]
13 98,8 [83A0AA60] [1BB6ADF2]
14 98,8 [2B1B53E7] [9974A5D9]
15 98,8 [9C612D4F] [0E3740CF]
16 98,8 [8C9618FE] [6DF64F95]
17 98,8 [3CAB66A7] [D42EE980]
18 98,8 [CC75D465] [62C0C251]

Cliff Richard - I'm Nearly Famous (1976) {2001, Remastered}

All thanks go to London

>>> Cliff Richard in my Blog <<<

Download from icerbox.com: