Subcategories

Cliff Richard - Private Collection: 1979-1988 (1988)

Posted By: tirexiss
Cliff Richard - Private Collection: 1979-1988 (1988)

Cliff Richard - Private Collection: 1979-1988 (1988)
EAC | FLAC (image+.cue, log) - 468 MB | MP3 (CBR 320 kbps) - 176 MB | Covers Included | 72:18
Genre: Pop, Soft Rock | Label: EMI | Catalog: CDCRTV 30

The prototype for the later Cliff Richard Collection U.S. release, Private Collection is, in fact, a dramatically public one, compiling 24 of Cliff Richard's 31 British chart entries spanning the decade 1979-1988. Chronologically, "Green Light" and the monster "We Don't Talk Anymore" open the show; the festive "Mistletoe and Wine" closes it, and in between times, Richard's journey through some distinctly Elton John/Billy Joel-shaped territory finds him alternately unleashing some startlingly memorable material, and some surprisingly lackluster muck – just like Elton and Billy, in fact. From 1981, the awful "Daddy's Home" would not have been out of place flapping around his late '60s dog days; from 1980, "Carrie" stands proudly among his finest ever performances. Sadly, if not unexpectedly, there is no room for the revision of "The Young Ones" recorded with the TV comedy team of the same name – that performance, incidentally, brought him his first number one of the 1980s. However, duets with Phil Everly, Olivia Newton-John, Sarah Brightman, and Elton John, and a tremendous version of Buddy Holly's "True Love Ways," recorded with the London Philharmonic Orchestra, offer more than enough variety, while Richard's own practiced ability to swing from ballads to rockers ensures that even when the sometimes-contemporary production techniques fail, his own contributions are faultless. Compared to the Greatest Hits/Best Of compilations which littered the 1960s and early '70s, Private Collection falls somewhat short of the mark – too many omissions, too few surprises. As an easy entry into a tumultuously successful fourth decade in show business, however, it hits the spot with unerring accuracy.

Cliff Richard - Private Collection: 1979-1988 (1988)

Track List:

01. Some People (3:51)
02. Wired for Sound (3:41)
03. All I Ask of You [& Sarah Brightman] (4:12)
04. Carrie (3:41)
05. True Love Ways (3:16)
06. Dreamin' (3:39)
07. She Means Nothing to Me [& Phil Everly] (3:27)
08. A Little in Love (3:24)
09. Daddy's Home (2:59)
10. We Don't Talk Anymore (4:14)
11. Never Say Die (3:38)
12. The Only Way Out (3:19)
13. Suddenly [& Olivia Newton-John] (4:01)
14. Please Don't Fall in Love (3:15)
15. Little Town (4:04)
16. My Pretty One (3:57)
17. Ocean Deep (5:16)
18. She's So Beautiful [& Stevie Wonder] (4:12)
19. Mistletoe and Wine (4:03)

Exact Audio Copy V0.99 prebeta 4 from 23. January 2008

Отчёт EAC об извлечении, выполненном 9. декабря 2009, 13:39

Cliff Richard / [1988 EMI CDP 7913702] Private Collection 1979-1988

Дисковод: ASUS SDRW-08D1S-U Adapter: 2 ID: 0

Режим чтения : Достоверность
Использование точного потока : Да
Отключение кэша аудио : Да
Использование указателей C2 : Нет

Коррекция смещения при чтении : 667
Способность читать области Lead-in и Lead-out : Да
Заполнение пропущенных сэмплов тишиной : Да
Удаление блоков с тишиной в начале и конце : Нет
При вычислениях CRC использовались нулевые сэмплы : Да
Интерфейс : Встроенный Win32-интерфейс для Win NT/2000

Выходной формат : Внутренние WAV-операции
Формат сэмплов : 44.100 Гц; 16 бит; стерео


TOC извлечённого CD

Трек | Старт | Длительность | Начальный сектор | Конечный сектор
––––––––––––––––––––––––––––––––––-
1 | 0:00.33 | 3:51.57 | 33 | 17414
2 | 3:52.15 | 3:41.15 | 17415 | 34004
3 | 7:33.30 | 4:12.25 | 34005 | 52929
4 | 11:45.55 | 3:41.58 | 52930 | 69562
5 | 15:27.38 | 3:16.15 | 69563 | 84277
6 | 18:43.53 | 3:39.52 | 84278 | 100754
7 | 22:23.30 | 3:27.50 | 100755 | 116329
8 | 25:51.05 | 3:24.20 | 116330 | 131649
9 | 29:15.25 | 2:59.10 | 131650 | 145084
10 | 32:14.35 | 4:14.30 | 145085 | 164164
11 | 36:28.65 | 3:38.70 | 164165 | 180584
12 | 40:07.60 | 3:19.48 | 180585 | 195557
13 | 43:27.33 | 4:01.20 | 195558 | 213652
14 | 47:28.53 | 3:15.27 | 213653 | 228304
15 | 50:44.05 | 4:04.53 | 228305 | 246657
16 | 54:48.58 | 3:57.15 | 246658 | 264447
17 | 58:45.73 | 5:16.25 | 264448 | 288172
18 | 64:02.23 | 4:12.35 | 288173 | 307107
19 | 68:14.58 | 4:03.57 | 307108 | 325389


Характеристики диапазона извлечения и сообщения об ошибках

Выбранный диапазон

Имя файла F:\My Documents\Music\Cliff Richard - [1988 EMI CDP 7913702] Private Collection 1979-1988.wav

Пиковый уровень 99.2 %
Качество диапазона 100.0 %
CRC копии 4542ACD1
Копирование… OK

Ошибок не произошло


AccurateRip: сводка

Трек 1 точное извлечение (доверие 2) [6E8F7CD6]
Трек 2 точное извлечение (доверие 2) [20251062]
Трек 3 точное извлечение (доверие 2) [B1B201FD]
Трек 4 точное извлечение (доверие 2) [F45CBC37]
Трек 5 точное извлечение (доверие 2) [D0243CEE]
Трек 6 точное извлечение (доверие 2) [9A35578B]
Трек 7 точное извлечение (доверие 2) [A3805975]
Трек 8 точное извлечение (доверие 2) [C1F0594C]
Трек 9 точное извлечение (доверие 2) [E3856B22]
Трек 10 точное извлечение (доверие 2) [5E249B39]
Трек 11 точное извлечение (доверие 2) [9F0661E4]
Трек 12 точное извлечение (доверие 2) [9C8FE0F2]
Трек 13 точное извлечение (доверие 2) [870A280D]
Трек 14 точное извлечение (доверие 2) [9AF52337]
Трек 15 точное извлечение (доверие 2) [A2BE69CD]
Трек 16 точное извлечение (доверие 2) [88C6BE81]
Трек 17 точное извлечение (доверие 2) [09D53528]
Трек 18 точное извлечение (доверие 2) [F9500091]
Трек 19 точное извлечение (доверие 2) [9601D6A4]

Все треки извлечены точно

Конец отчёта

[CUETools log; Date: 20.05.2017 21:12:25; Version: 2.1.5]
Pregap length 00:00:33.
[CTDB TOCID: CCVcGmGkxTM4Fen6EDRjZYeg.wg-] found.
Track | CTDB Status
1 | (84/86) Accurately ripped
2 | (84/86) Accurately ripped
3 | (85/86) Accurately ripped
4 | (82/86) Accurately ripped
5 | (85/86) Accurately ripped
6 | (85/86) Accurately ripped
7 | (85/86) Accurately ripped
8 | (85/86) Accurately ripped
9 | (85/86) Accurately ripped
10 | (83/86) Accurately ripped
11 | (85/86) Accurately ripped
12 | (85/86) Accurately ripped
13 | (84/86) Accurately ripped
14 | (85/86) Accurately ripped
15 | (84/86) Accurately ripped
16 | (83/86) Accurately ripped
17 | (84/86) Accurately ripped
18 | (83/86) Accurately ripped
19 | (84/86) Accurately ripped
[AccurateRip ID: 00304f87-02a5222e-1410f213] found.
Track [ CRC | V2 ] Status
01 [6e8f7cd6|e7c0d75c] (004+003/183) Accurately ripped
02 [20251062|3fbd5139] (004+004/184) Accurately ripped
03 [b1b201fd|de64874a] (004+003/181) Accurately ripped
04 [f45cbc37|4af2dae3] (004+005/181) Accurately ripped
05 [d0243cee|61481688] (004+003/182) Accurately ripped
06 [9a35578b|91ec14fc] (004+004/183) Accurately ripped
07 [a3805975|4230b117] (004+004/178) Accurately ripped
08 [c1f0594c|f4c3e2a2] (004+003/182) Accurately ripped
09 [e3856b22|534248a7] (004+003/183) Accurately ripped
10 [5e249b39|8bf1c717] (004+005/183) Accurately ripped
11 [9f0661e4|db02da0a] (004+004/178) Accurately ripped
12 [9c8fe0f2|2831696b] (004+004/176) Accurately ripped
13 [870a280d|3c180b19] (004+003/178) Accurately ripped
14 [9af52337|dd3112f9] (004+004/178) Accurately ripped
15 [a2be69cd|cb7b9e7f] (004+003/170) Accurately ripped
16 [88c6be81|fdf33fcf] (004+004/171) Accurately ripped
17 [09d53528|7a90ac77] (004+003/169) Accurately ripped
18 [f9500091|9346d637] (004+003/168) Accurately ripped
19 [9601d6a4|568d29b5] (004+003/168) Accurately ripped
Offsetted by 46:
01 [58dabe4c] (013/183) Accurately ripped
02 [0bedc8bc] (012/184) Accurately ripped
03 [e93e0401] (011/181) Accurately ripped
04 [a37bee3f] (012/181) Accurately ripped
05 [0779b2ae] (011/182) Accurately ripped
06 [95a38779] (012/183) Accurately ripped
07 [d8157f13] (011/178) Accurately ripped
08 [1de18fdc] (012/182) Accurately ripped
09 [4cfc7542] (012/183) Accurately ripped
10 [f84df16b] (012/183) Accurately ripped
11 [26c20d30] (010/178) Accurately ripped
12 [88b8d2c4] (011/176) Accurately ripped
13 [282143bf] (011/178) Accurately ripped
14 [9c7f11ed] (009/178) Accurately ripped
15 [b14407e7] (007/170) Accurately ripped
16 [4a2cb7a1] (007/171) Accurately ripped
17 [eb161222] (009/169) Accurately ripped
18 [dc5f9bad] (009/168) Accurately ripped
19 [5f86c5b2] (008/168) Accurately ripped
Offsetted by 142:
01 [a5fd5d2c] (022/183) Accurately ripped
02 [cb7a6adc] (023/184) Accurately ripped
03 [3bc66141] (023/181) Accurately ripped
04 [53bd08bf] (023/181) Accurately ripped
05 [bdbcbeae] (022/182) Accurately ripped
06 [f046b3d9] (024/183) Accurately ripped
07 [194cc273] (023/178) Accurately ripped
08 [208b0cdc] (023/182) Accurately ripped
09 [12d37f42] (022/183) Accurately ripped
10 [5b6c8f0b] (023/183) Accurately ripped
11 [36e588f0] (023/178) Accurately ripped
12 [6a727264] (023/176) Accurately ripped
13 [6d30195f] (023/178) Accurately ripped
14 [aad694cd] (023/178) Accurately ripped
15 [f0f6b607] (022/170) Accurately ripped
16 [0a4f71a1] (022/171) Accurately ripped
17 [cc4f8642] (020/169) Accurately ripped
18 [94d9386d] (018/168) Accurately ripped
19 [73648c12] (019/168) Accurately ripped
Offsetted by 231:
01 [602acb21] (002/183) Accurately ripped
02 [350f767f] (003/184) Accurately ripped
03 [004a225f] (002/181) Accurately ripped
04 [f47963fb] (002/181) Accurately ripped
05 [f6b591ce] (002/182) Accurately ripped
06 [dc4dfa52] (002/183) Accurately ripped
07 [a06d5394] (002/178) Accurately ripped
08 [20582e14] (002/182) Accurately ripped
09 [ef92db32] (002/183) Accurately ripped
10 [2ca64682] (002/183) Accurately ripped
11 [85dbc3aa] (002/178) Accurately ripped
12 [7bb6890b] (002/176) Accurately ripped
13 [ed35da16] (002/178) Accurately ripped
14 [6577b622] (002/178) Accurately ripped
15 [34045cca] (002/170) Accurately ripped
16 [5f1a4e11] (002/171) Accurately ripped
17 [37c77495] (002/169) Accurately ripped
18 [a534a1bf] (002/168) Accurately ripped
19 [a5cf7bfb] (002/168) Accurately ripped
Offsetted by 267:
01 [9d17c6b5] (012/183) Accurately ripped
02 [5ce4334b] (012/184) Accurately ripped
03 [ff3d4557] (012/181) Accurately ripped
04 [d691cdeb] (012/181) Accurately ripped
05 [7b0eb64e] (012/182) Accurately ripped
06 [5e4b2af6] (012/183) Accurately ripped
07 [38e20cd8] (012/178) Accurately ripped
08 [c157bcf4] (012/182) Accurately ripped
09 [79c37ef2] (011/183) Accurately ripped
10 [d1d1c19e] (012/183) Accurately ripped
11 [8be91212] (012/178) Accurately ripped
12 [d05c24e7] (012/176) Accurately ripped
13 [071b6a32] (011/178) Accurately ripped
14 [cad88736] (012/178) Accurately ripped
15 [6be75e16] (012/170) Accurately ripped
16 [872753d1] (012/171) Accurately ripped
17 [4c3d0021] (012/169) Accurately ripped
18 [2a623c87] (012/168) Accurately ripped
19 [2d42a65f] (012/168) Accurately ripped
Offsetted by 2452:
01 [160e6c1a] (021/183) Accurately ripped
02 [9ca267fe] (021/184) Accurately ripped
03 [4db7a515] (020/181) Accurately ripped
04 [54db9667] (021/181) Accurately ripped
05 [3f6a0f6e] (021/182) Accurately ripped
06 [853d0f9f] (020/183) Accurately ripped
07 [fa8e87a9] (020/178) Accurately ripped
08 [d0995cac] (021/182) Accurately ripped
09 [8b59dfe2] (021/183) Accurately ripped
10 [6c7d3fe5] (021/183) Accurately ripped
11 [3b3b5aac] (020/178) Accurately ripped
12 [21f5035e] (020/176) Accurately ripped
13 [6ae50db9] (021/178) Accurately ripped
14 [93f051fb] (021/178) Accurately ripped
15 [9db233e9] (019/170) Accurately ripped
16 [69930d41] (021/171) Accurately ripped
17 [97c60084] (020/169) Accurately ripped
18 [4bc78439] (021/168) Accurately ripped
19 [116d0178] (018/168) Accurately ripped
Offsetted by -624:
01 [f92e7426] (000/183) No match (V2 was not tested)
02 [c312f292] (000/184) No match (V2 was not tested)
03 [193ba3dd] (000/181) No match (V2 was not tested)
04 [fab58ff7] (000/181) No match (V2 was not tested)
05 [2f706eee] (000/182) No match (V2 was not tested)
06 [cd10b71b] (000/183) No match (V2 was not tested)
07 [fb992385] (000/178) No match (V2 was not tested)
08 [30a2accc] (000/182) No match (V2 was not tested)
09 [dd8faa22] (000/183) No match (V2 was not tested)
10 [d9dd9aa9] (000/183) No match (V2 was not tested)
11 [361fbd84] (000/178) No match (V2 was not tested)
12 [e1595362] (000/176) No match (V2 was not tested)
13 [c629bb7d] (000/178) No match (V2 was not tested)
14 [bdbc5087] (000/178) No match (V2 was not tested)
15 [84b4fdfd] (000/170) No match (V2 was not tested)
16 [27e50581] (000/171) No match (V2 was not tested)
17 [51dfc258] (000/169) No match (V2 was not tested)
18 [4a3985b1] (000/168) No match (V2 was not tested)
19 [14e04d34] (000/168) No match (V2 was not tested)

Track Peak [ CRC32 ] [W/O NULL] [ LOG ]
– 100,0 [4542ACD1] [3700CF3F] CRC32
01 100,0 [6435232E] [066DA6DD]
02 79,2 [988301B9] [1159BB79]
03 61,0 [89ACEED5] [DEF6D533]
04 100,0 [D0BB78CC] [C2570E61]
05 61,0 [02C9A49E] [2DE36B8A]
06 77,7 [6319A347] [55E9EA9A]
07 100,0 [DDEB34C8] [10976073]
08 82,3 [973D4F2A] [BF3A7054]
09 79,9 [BC1D7258] [4F351BF8]
10 91,2 [694ACC06] [590A73FD]
11 82,5 [E2621CA6] [4264D1DB]
12 83,9 [2297E23D] [12569D2F]
13 86,5 [710D50DD] [DDC2C410]
14 83,3 [71365CA6] [4762114B]
15 82,5 [37CF6B8F] [78CB65AA]
16 91,2 [0B8DC96F] [C7FDF655]
17 67,6 [A939D30F] [49EB1BBE]
18 71,8 [1604B844] [E38EFEC7]
19 100,0 [5F3FB579] [8499881C]

Thanks to the Original ripper Faith!

Download: