Subcategories

Climax Blues Band - Sample And Hold (1983) {2012, Remastered} PROPER

Posted By: popsakov
Climax Blues Band - Sample And Hold (1983) {2012, Remastered} PROPER

Climax Blues Band - Sample And Hold (1983) {2012, Remastered}
EAC Rip | FLAC (Img) + Cue + Log ~ 342 Mb | MP3 CBR320 ~ 110 Mb
Full Scans (JPG, 600 dpi) ~ 39 Mb | RAR 5% Recovery
Pop Rock, Soft Rock | Repertoire Records #REP 5203

Climax Blues Band had undergone a few changes by the time they cut Sample And Hold in 1983. While Peter Haycock (guitar and vocals) and Colin Cooper (sax and vocals) were still holding the fort, they had sampled a new rhythm section. The latest recruits were George Glover on keyboards, Dave Markee on bass and Henry Spinetti on drums. Together they kept the Climax flag flying. This song-packed ten original LP track CD kicks off with an upbeat and optimistic sounding Friends In High Places , with the vocal harmonies set in place by the old firm of Haycock and Cooper. Peter's guitar solo on this song is especially effective. Although the overall band sound veers towards modern Eighties pop, the guitar and drums, while still rock and strings are brought into play on The End Of The Seven Seas . A fine album with informative CD liner notes that put a much loved British band's career and this album into perspective.

***************

Climax Blues Band - Sample And Hold (1983) {2012, Remastered} PROPER

Track List:

01. Friends In High Places [4:15]
02. Sign Of The Times [4:35]
03. Walking On Sunset [3:43]
04. Shine [4:16]
05. Movie Queen [4:23]
06. Heaven And Hell [4:11]
07. Listen To The Night [3:41]
08. Doin' Alright [5:03]
09. I'm Ready [3:22]
10. The End Of The Seven Seas [5:43]
11. Church [2:26]

Personnel:
Bass - Dave Markee
Drums - Henry Spinetti
Keyboards, Vocals - George Glover
Lead Guitar, Vocals - Peter Haycock
Saxophone, Vocals - Colin Cooper

Exact Audio Copy V1.3 from 2. September 2016

Отчёт EAC об извлечении, выполненном 21. апреля 2018, 10:15

Climax Blues Band / Sample and Hold

Дисковод: HL-DT-STDVDRAM GH24NSD0 Adapter: 1 ID: 0

Режим чтения : Достоверность
Использование точного потока : Да
Отключение кэша аудио : Да
Использование указателей C2 : Нет

Коррекция смещения при чтении : 6
Способность читать области Lead-in и Lead-out : Нет
Заполнение пропущенных сэмплов тишиной : Да
Удаление блоков с тишиной в начале и конце : Нет
При вычислениях CRC использовались нулевые сэмплы : Да
Интерфейс : Встроенный Win32-интерфейс для Win NT/2000

Выходной формат : Пользовательский кодировщик
Выбранный битрейт : 128 kBit/s
Качество : Высокий
Добавление ID3-тега : Нет
Утилита сжатия : C:\Program Files (x86)\Exact Audio Copy\Flac\flac.exe
Дополнительные параметры : -V -8 -T "Date=%year%" -T "Genre=%genre%" %source%


TOC извлечённого CD

Трек | Старт | Длительность | Начальный сектор | Конечный сектор
––––––––––––––––––––––––––––––––––-
1 | 0:00.00 | 4:14.56 | 0 | 19105
2 | 4:14.56 | 4:34.61 | 19106 | 39716
3 | 8:49.42 | 3:43.11 | 39717 | 56452
4 | 12:32.53 | 4:15.73 | 56453 | 75650
5 | 16:48.51 | 4:23.11 | 75651 | 95386
6 | 21:11.62 | 4:11.21 | 95387 | 114232
7 | 25:23.08 | 3:41.36 | 114233 | 130843
8 | 29:04.44 | 5:02.43 | 130844 | 153536
9 | 34:07.12 | 3:22.04 | 153537 | 168690
10 | 37:29.16 | 5:42.43 | 168691 | 194383
11 | 43:11.59 | 2:26.16 | 194384 | 205349


Характеристики диапазона извлечения и сообщения об ошибках

Выбранный диапазон

Имя файла C:\Users\khokh\OneDrive\Рабочий стол\Climax Blues Band - Sample and Hold.wav

Пиковый уровень 98.8 %
Скорость извлечения 6.6 X
Качество диапазона 99.9 %
CRC теста 489C8A26
CRC копии 489C8A26
Копирование… OK

Ошибок не произошло


AccurateRip: сводка

Трек 1 : извлечено точно (доверие 1) [13A3F059] (AR v2)
Трек 2 : извлечено точно (доверие 1) [8889F286] (AR v2)
Трек 3 : извлечено точно (доверие 1) [F4A8873C] (AR v2)
Трек 4 : извлечено точно (доверие 1) [A4B6B42E] (AR v2)
Трек 5 : извлечено точно (доверие 1) [CC4A56FE] (AR v2)
Трек 6 : извлечено точно (доверие 1) [95C35212] (AR v2)
Трек 7 : извлечено точно (доверие 1) [E2017686] (AR v2)
Трек 8 : извлечено точно (доверие 1) [F0A9AE5F] (AR v2)
Трек 9 : извлечено точно (доверие 1) [20ACF3E3] (AR v2)
Трек 10 : извлечено точно (доверие 1) [C7D8D185] (AR v2)
Трек 11 : извлечено точно (доверие 1) [AAB032BC] (AR v2)

Все треки извлечены точно

Конец отчёта

==== Контрольная сумма отчёта 2132020A1A493B9DED2FF65562D03E58A749ECA957BEA8F8861D774B5F527DB5 ====

foobar2000 1.3.16 / Dynamic Range Meter 1.1.1
log date: 2018-04-21 13:10:45

––––––––––––––––––––––––––––––––––––––––
Analyzed: Climax Blues Band / Sample and Hold
––––––––––––––––––––––––––––––––––––––––

DR Peak RMS Duration Track
––––––––––––––––––––––––––––––––––––––––
DR8 -0.10 dB -9.19 dB 4:15 01-Friends In High Places
DR8 -0.10 dB -9.16 dB 4:35 02-Sign Of The Times
DR8 -0.10 dB -9.92 dB 3:43 03-Walking On Sunset
DR8 -0.10 dB -9.62 dB 4:16 04-Shine
DR8 -0.10 dB -9.61 dB 4:23 05-Movie Queen
DR7 -0.10 dB -8.71 dB 4:11 06-Heaven And Hell
DR7 -0.10 dB -8.69 dB 3:41 07-Listen To The Night
DR8 -0.10 dB -10.30 dB 5:03 08-Doin' Alright
DR8 -0.10 dB -9.71 dB 3:22 09-I'm Ready
DR8 -0.10 dB -9.23 dB 5:43 10-The End Of The Seven Seas
DR8 -0.10 dB -9.94 dB 2:26 11-Church
––––––––––––––––––––––––––––––––––––––––

Number of tracks: 11
Official DR value: DR8

Samplerate: 44100 Hz
Channels: 2
Bits per sample: 16
Bitrate: 995 kbps
Codec: FLAC
================================================================================

[CUETools log; Date: 21.04.2018 13:10:52; Version: 2.1.6]
[CTDB TOCID: 7Ao0rwlk5i_j3q8uXEqokjUAk04-] found.
Track | CTDB Status
1 | (3/3) Accurately ripped
2 | (3/3) Accurately ripped
3 | (3/3) Accurately ripped
4 | (3/3) Accurately ripped
5 | (3/3) Accurately ripped
6 | (3/3) Accurately ripped
7 | (3/3) Accurately ripped
8 | (3/3) Accurately ripped
9 | (3/3) Accurately ripped
10 | (3/3) Accurately ripped
11 | (3/3) Accurately ripped
[AccurateRip ID: 00131fe9-00a593e7-820ab20b] found.
Track [ CRC | V2 ] Status
01 [0b87bb83|13a3f059] (0+1/2) Accurately ripped
02 [778e0eed|8889f286] (0+1/2) Accurately ripped
03 [d03d441f|f4a8873c] (0+1/2) Accurately ripped
04 [1a767f2b|a4b6b42e] (0+1/2) Accurately ripped
05 [93fb269c|cc4a56fe] (0+1/2) Accurately ripped
06 [d7990dce|95c35212] (0+1/2) Accurately ripped
07 [550c6e87|e2017686] (0+1/2) Accurately ripped
08 [ce5e682c|f0a9ae5f] (0+1/2) Accurately ripped
09 [09b25815|20acf3e3] (0+1/2) Accurately ripped
10 [f2533554|c7d8d185] (0+1/2) Accurately ripped
11 [40109cd9|aab032bc] (0+1/2) Accurately ripped

Track Peak [ CRC32 ] [W/O NULL] [ LOG ]
– 98,8 [489C8A26] [BAD96DFD] CRC32
01 98,8 [1243B96B] [02E0EFC3]
02 98,8 [7A00D951] [F2494FA3]
03 98,8 [EA545EEC] [67E85F36]
04 98,8 [7D4374E8] [973676BA]
05 98,8 [86D017C2] [B5ABBC27]
06 98,8 [AD78BBDC] [BAC0F052]
07 98,8 [BC9574B4] [1802F3DF]
08 98,8 [0FAB2C2A] [D1D34D8B]
09 98,8 [6B38E5B0] [A2A66C60]
10 98,8 [06FA1D74] [80009E95]
11 98,8 [E962FF76] [037B31DA]

Climax Blues Band - Sample And Hold (1983) {2012, Remastered} PROPER

All thanks go to Angel Station

>>> Climax Blues Band in my Blog <<<

Download from icerbox.com: