Subcategories

Climie Fisher - Everything (Plus...) (1987) Remastered Expanded 2009 [Re-Up]

Posted By: Designol
Climie Fisher - Everything (Plus...) (1987) Remastered Expanded 2009 [Re-Up]

Climie Fisher - Everything (Plus…) (1987) Remastered Expanded 2009
EAC | FLAC | Image (Cue&Log) ~ 532 Mb | Mp3 (CBR320) ~ 182 Mb | Scans ~ 101 Mb
Sophisti-Pop, New Wave | Label: Edsel Records | # EDSS 1038 | Time: 01:19:18

Digitally remastered and expanded edition of the 1987 debut album from the British Pop duo including seven bonus tracks. Climie Fisher were formed in 1987 by vocalist/songwriter Simon Climie and former Naked Eyes keyboardist Rob Fisher. Simon Climie was already known as the writer of the Aretha Franklin and George Michael hit 'I Knew You Were Waiting (For Me)' and other late '80s hits before forming this successful recording project. Features the hits 'Love Changes (Everything)', 'Rise To The Occasion' and more.

Listeners who can't stomach a high intake of sugar should stay away from Climie Fisher's debut album, Everything. Swaying between bubblegum and synth pop, Everything is a slick, overwhelmingly sweet record. Rod Stewart's blue-eyed soul reverberates in the raspy croon of vocalist Simon Climie, and the ghosts of '80s club staples such as Scritti Politti and Naked Eyes haunt the band's upbeat, funky rhythms. The U.S. hit single "Love Changes (Everything)" is saccharine enough to have been an Archies song; nevertheless, in limited doses it's as tasty as a chocolate sundae. But be forewarned: "Love Changes (Everything)" has a chorus that adheres to the brain like glue. Lovely acoustic riffs and uplifting lyrics cast an afternoon glow on "Rise to the Occasion." It, like the other tracks on Everything, is innocuous fluff that is too well-crafted to dismiss. Fans of keyboardist Rob Fisher's previous group Naked Eyes might be disappointed by Climie Fisher's weaker material; however, comparing the two bands is unfair. They leans close to the mainstream than Naked Eyes ever did. On tracks such as "I Won't Bleed for You," "Precious Moments," and "Never Let a Chance Go By," Climie Fisher fulfill their modest ambitions of producing catchy, unpretentious pop music. But too much of Everything can cause cavities, since they don't stray from their confectionery-laced formula.

Review by Michael Sutton, Allmusic.com

Climie Fisher - Everything (Plus...) (1987) Remastered Expanded 2009 [Re-Up]



Tracklist:

01. Love Changes Everything (04:34)
02. Rise To The Occasion (04:46)
03. I Won't Bleed For You (04:21)
04. Room To Move (04:28)
05. Precious Moments (03:50)
06. Rise To The Occasion (Hip-Hop Mix) (04:15)
07. This Is Me (03:50)
08. Never Let A Chance Go By (04:31)
09. Bite The Hand That Feeds (04:28)
10. Break The Silence (04:16)
11. Keeping The Mystery Alive (04:05)
12. Mental Block (04:50)
13. Never Close The Show (04:04)
14. Far Across The Water (04:24)
15. Nothing But A Feeling (03:34)
16. Climbing Up The Ladder (04:03)
17. Love Like A River Dance Mix (06:13)
18. Haunted House (04:36)


Exact Audio Copy V0.99 prebeta 3 from 28. July 2007

EAC extraction logfile from 25. May 2010, 20:52

Climie Fisher / Everything… Plus

Used drive : Optiarc DVD RW AD-7173S Adapter: 3 ID: 0

Read mode : Secure
Utilize accurate stream : Yes
Defeat audio cache : Yes
Make use of C2 pointers : No

Read offset correction : 48
Overread into Lead-In and Lead-Out : No
Fill up missing offset samples with silence : Yes
Delete leading and trailing silent blocks : No
Null samples used in CRC calculations : Yes
Used interface : Native Win32 interface for Win NT & 2000

Used output format : Internal WAV Routines
Sample format : 44.100 Hz; 16 Bit; Stereo


TOC of the extracted CD

Track | Start | Length | Start sector | End sector
––––––––––––––––––––––––––––-
1 | 0:00.00 | 4:34.08 | 0 | 20557
2 | 4:34.08 | 4:46.37 | 20558 | 42044
3 | 9:20.45 | 4:21.16 | 42045 | 61635
4 | 13:41.61 | 4:28.66 | 61636 | 81801
5 | 18:10.52 | 3:50.73 | 81802 | 99124
6 | 22:01.50 | 4:15.44 | 99125 | 118293
7 | 26:17.19 | 3:50.51 | 118294 | 135594
8 | 30:07.70 | 4:31.71 | 135595 | 155990
9 | 34:39.66 | 4:28.10 | 155991 | 176100
10 | 39:08.01 | 4:16.38 | 176101 | 195338
11 | 43:24.39 | 4:05.65 | 195339 | 213778
12 | 47:30.29 | 4:50.70 | 213779 | 235598
13 | 52:21.24 | 4:04.61 | 235599 | 253959
14 | 56:26.10 | 4:24.36 | 253960 | 273795
15 | 60:50.46 | 3:34.33 | 273796 | 289878
16 | 64:25.04 | 4:03.11 | 289879 | 308114
17 | 68:28.15 | 6:13.57 | 308115 | 336146
18 | 74:41.72 | 4:36.26 | 336147 | 356872


Range status and errors

Selected range

Filename W:\CD\Climie Fisher - Everything… Plus.wav

Peak level 99.4 %
Range quality 99.9 %
Test CRC 94A88941
Copy CRC 94A88941
Copy OK

No errors occurred


AccurateRip summary

Track 1 accurately ripped (confidence 4) [700C4E95]
Track 2 accurately ripped (confidence 4) [75C2702E]
Track 3 accurately ripped (confidence 4) [FDDBB94D]
Track 4 accurately ripped (confidence 4) [A37883B0]
Track 5 accurately ripped (confidence 4) [C1340AA6]
Track 6 accurately ripped (confidence 4) [C4073787]
Track 7 accurately ripped (confidence 4) [935300E0]
Track 8 accurately ripped (confidence 4) [616B4787]
Track 9 accurately ripped (confidence 4) [B8038B40]
Track 10 accurately ripped (confidence 4) [F5FD461F]
Track 11 accurately ripped (confidence 4) [0BECCF8E]
Track 12 accurately ripped (confidence 4) [9B52418B]
Track 13 accurately ripped (confidence 4) [C52D6591]
Track 14 accurately ripped (confidence 4) [CBED442B]
Track 15 accurately ripped (confidence 4) [8E14B798]
Track 16 accurately ripped (confidence 4) [5DC8B41E]
Track 17 accurately ripped (confidence 4) [B463AC1A]
Track 18 accurately ripped (confidence 4) [1866E2CA]

All tracks accurately ripped

End of status report

foobar2000 1.3.8 / Dynamic Range Meter 1.1.1
log date: 2015-06-08 15:22:27

––––––––––––––––––––––––––––––––––––––––
Analyzed: Climie Fisher / Everything… Plus
––––––––––––––––––––––––––––––––––––––––

DR Peak RMS Duration Track
––––––––––––––––––––––––––––––––––––––––
DR14 -0.05 dB -15.57 dB 4:34 01-01 Love Changes Everything
DR13 -1.12 dB -16.27 dB 4:46 02-02 Rise To The Occasion
DR14 -0.05 dB -15.71 dB 4:21 03-03 I Won't Bleed For You
DR15 -0.05 dB -16.85 dB 4:29 04-04 Room To Move
DR14 -0.05 dB -17.32 dB 3:51 05-05 Precious Moments
DR13 -0.62 dB -16.27 dB 4:16 06-06 Rise To The Occasion (Hip-Hop Mix)
DR13 -0.05 dB -14.66 dB 3:51 07-07 This Is Me
DR13 -0.05 dB -14.50 dB 4:32 08-08 Never Let A Chance Go By
DR13 -0.05 dB -14.98 dB 4:28 09-09 Bite The Hand That Feeds
DR13 -0.05 dB -15.29 dB 4:17 10-10 Break The Silence
DR12 -0.05 dB -13.51 dB 4:06 11-11 Keeping The Mystery Alive
DR11 -1.13 dB -14.40 dB 4:51 12-12 Mental Block
DR13 -0.05 dB -14.54 dB 4:05 13-13 Never Close The Show
DR12 -2.19 dB -17.51 dB 4:24 14-14 Far Across The Water
DR12 -0.95 dB -15.65 dB 3:34 15-15 Nothing But A Feeling
DR13 -1.35 dB -15.56 dB 4:03 16-16 Climbing Up The Ladder
DR14 -1.70 dB -17.56 dB 6:14 17-17 Love Like A River Dance Mix
DR13 -1.25 dB -15.94 dB 4:36 18-18 Haunted House
––––––––––––––––––––––––––––––––––––––––

Number of tracks: 18
Official DR value: DR13

Samplerate: 44100 Hz
Channels: 2
Bits per sample: 16
Bitrate: 938 kbps
Codec: FLAC
================================================================================

Climie Fisher - Everything (Plus...) (1987) Remastered Expanded 2009 [Re-Up]

Climie Fisher - Everything (Plus...) (1987) Remastered Expanded 2009 [Re-Up]