Subcategories

Clive Nolan - Alchemy (2013) 2CD

Posted By: Andi_Deris
Clive Nolan - Alchemy (2013) 2CD

Clive Nolan - Alchemy (2013) 2CD
EAC Rip | FLAC: Image+Cue+Log | 854 Mb | MP3 CBR 320 kbps | 320 Mb | Scans | 147 Mb | 01:58:39
Metal Mind Productions | MASS CD 1469 DGD
Progressive Rock, Symphonic Rock, Musical, Rock Opera

'Alchemy' is a multidimensional project to be developed in numerous stages and forms. The libretto and the original story are both by Clive Nolan. It is a Victorian adventure set in 1842, with a sense of the dark and mysterious.

Clive Nolan - Alchemy (2013) 2CD




Clive Nolan - Alchemy (2013) 2CD


ACT I

01. Prologue / Overture (3:20)
02. Deception (5:35)
03. One for the Noose (5:42)
04. The Warning (4:06)
05. Amelia (4:09)
06. King Explains (5:35)
07. Desperate Days (2:43)
08. Planning A Break-In (1:20)
09. Quaternary Plan (5:18)
10. The Unwelcome Guest (4:55)
11. Waiting for News (4:31)
12. The Girl I Was (6:05)
13. Highgate (8:17)

Clive Nolan - Alchemy (2013) 2CD


ACT II

01. The Labyrinth (4:42)
02. Ambush (3:08)
03. Tide of Wealth (5:57)
04. Jagman Arrives (1:46)
05. The End Justifies the Means (3:33)
06. Sanctuary (5:44)
07. Street Fight (3:26)
08. Amelia Dies (3:20)
09. Burial at Sea (6:21)
10. Share This Dream (3:36)
11. Treachery (4:21)
12. The Ritual (2:12)
13. Anzeray Speaks (5:04)
14. Aftermath (3:53)

Produced by Clive Nolan

Personnel

Clive Nolan (Shadowland, Arena, Pendragon, Caamora): keyboards, vocals (Professor Samuel King)
• Andy Sears (Twelfth Night): vocals (Lord Henry Jagman)
Damian Wilson (Threshold, Landmarq): vocals (Captain Joseph Farrell)
• Agnieszka Swita (Caamora): vocals (Amelia Darvas)
• Victoria Bolley: vocals (Eva Bonaduce)
• Chris Lewis: vocals (Thomas Anzeray)
• Noel Calcaterra: vocals (Jessamine)
• Paul Manzi (Oliver Wakeman, Arena): vocals (Milosh)
• Paul Menel (IQ): vocals (Ben Greaves)
Tracy Hitchings (Landmarq, Strangers On A Train ): vocals (Jane Muncey)
• David Clifford (Red Jasper): vocals (William Gardelle)

*****
• Mark Westwood (Shadowland, Caamora): guitar
• Scott Higham (Pendragon): drums
• Claudio Momberg (SETI, Taurus, Subterra, Caamora): keyboards
• Kylan Amos: bass

Exact Audio Copy V1.0 beta 3 from 29. August 2011

Отчёт EAC об извлечении, выполненном 23. марта 2013, 17:09

Clive Nolan / Alchemy CD1

Дисковод: HL-DT-STDVDRAM GSA-H42L Adapter: 0 ID: 0

Режим чтения : Достоверность
Использование точного потока : Да
Отключение кэша аудио : Да
Использование указателей C2 : Нет

Коррекция смещения при чтении : 667
Способность читать области Lead-in и Lead-out : Нет
Заполнение пропущенных сэмплов тишиной : Да
Удаление блоков с тишиной в начале и конце : Нет
При вычислениях CRC использовались нулевые сэмплы : Да
Интерфейс : Встроенный Win32-интерфейс для Win NT/2000

Выходной формат : Пользовательский кодировщик
Выбранный битрейт : 896 kBit/s
Качество : Высокий
Добавление ID3-тега : Нет
Утилита сжатия : C:\Program Files\Exact Audio Copy\Flac\flac.exe
Дополнительные параметры : -V -8 -T "Date=%year%" -T "Genre=%genre%" %source%


TOC извлечённого CD

Трек | Старт | Длительность | Начальный сектор | Конечный сектор
––––––––––––––––––––––––––––––––––-
1 | 0:00.00 | 3:20.39 | 0 | 15038
2 | 3:20.39 | 5:35.47 | 15039 | 40210
3 | 8:56.11 | 5:42.08 | 40211 | 65868
4 | 14:38.19 | 4:05.72 | 65869 | 84315
5 | 18:44.16 | 4:09.51 | 84316 | 103041
6 | 22:53.67 | 5:35.31 | 103042 | 128197
7 | 28:29.23 | 2:43.09 | 128198 | 140431
8 | 31:12.32 | 1:20.46 | 140432 | 146477
9 | 32:33.03 | 5:18.34 | 146478 | 170361
10 | 37:51.37 | 4:55.25 | 170362 | 192511
11 | 42:46.62 | 4:31.61 | 192512 | 212897
12 | 47:18.48 | 6:05.64 | 212898 | 240336
13 | 53:24.37 | 8:17.13 | 240337 | 277624


Характеристики диапазона извлечения и сообщения об ошибках

Выбранный диапазон

Имя файла D:\AND\CD Images\New\Clive Nolan - 2013 - Alchemy\CD1\Clive Nolan - Alchemy CD1.wav

Пиковый уровень 96.6 %
Скорость извлечения 7.5 X
Качество диапазона 100.0 %
CRC теста 47BB1608
CRC копии 47BB1608
Копирование… OK

Ошибок не произошло


AccurateRip: сводка

Трек 1 отсутствует в базе данных
Трек 2 отсутствует в базе данных
Трек 3 отсутствует в базе данных
Трек 4 отсутствует в базе данных
Трек 5 отсутствует в базе данных
Трек 6 отсутствует в базе данных
Трек 7 отсутствует в базе данных
Трек 8 отсутствует в базе данных
Трек 9 отсутствует в базе данных
Трек 10 отсутствует в базе данных
Трек 11 отсутствует в базе данных
Трек 12 отсутствует в базе данных
Трек 13 отсутствует в базе данных

Ни одного трека нет в базе AccurateRip

Конец отчёта

==== Контрольная сумма отчёта E0746E89C47E44707C5E5899A0B5CA2ECF647ABB046C2FE6AA85C04243CD2B32 ====

Exact Audio Copy V1.0 beta 3 from 29. August 2011

Отчёт EAC об извлечении, выполненном 23. марта 2013, 16:45

Clive Nolan / Alchemy CD2

Дисковод: HL-DT-STDVDRAM GSA-H42L Adapter: 0 ID: 0

Режим чтения : Достоверность
Использование точного потока : Да
Отключение кэша аудио : Да
Использование указателей C2 : Нет

Коррекция смещения при чтении : 667
Способность читать области Lead-in и Lead-out : Нет
Заполнение пропущенных сэмплов тишиной : Да
Удаление блоков с тишиной в начале и конце : Нет
При вычислениях CRC использовались нулевые сэмплы : Да
Интерфейс : Встроенный Win32-интерфейс для Win NT/2000

Выходной формат : Пользовательский кодировщик
Выбранный битрейт : 896 kBit/s
Качество : Высокий
Добавление ID3-тега : Нет
Утилита сжатия : C:\Program Files\Exact Audio Copy\Flac\flac.exe
Дополнительные параметры : -V -8 -T "Date=%year%" -T "Genre=%genre%" %source%


TOC извлечённого CD

Трек | Старт | Длительность | Начальный сектор | Конечный сектор
––––––––––––––––––––––––––––––––––-
1 | 0:00.00 | 4:42.58 | 0 | 21207
2 | 4:42.58 | 3:08.59 | 21208 | 35366
3 | 7:51.42 | 5:57.30 | 35367 | 62171
4 | 13:48.72 | 1:46.23 | 62172 | 70144
5 | 15:35.20 | 3:33.13 | 70145 | 86132
6 | 19:08.33 | 5:43.74 | 86133 | 111931
7 | 24:52.32 | 3:26.34 | 111932 | 127415
8 | 28:18.66 | 3:20.42 | 127416 | 142457
9 | 31:39.33 | 6:21.53 | 142458 | 171085
10 | 38:01.11 | 3:36.70 | 171086 | 187355
11 | 41:38.06 | 4:21.59 | 187356 | 206989
12 | 45:59.65 | 2:12.38 | 206990 | 216927
13 | 48:12.28 | 5:04.23 | 216928 | 239750
14 | 53:16.51 | 3:53.33 | 239751 | 257258


Характеристики диапазона извлечения и сообщения об ошибках

Выбранный диапазон

Имя файла D:\AND\CD Images\New\Clive Nolan - 2013 - Alchemy\CD2\Clive Nolan - Alchemy CD2.wav

Пиковый уровень 96.6 %
Скорость извлечения 6.1 X
Качество диапазона 100.0 %
CRC теста E97D5B32
CRC копии E97D5B32
Копирование… OK

Ошибок не произошло


AccurateRip: сводка

Трек 1 отсутствует в базе данных
Трек 2 отсутствует в базе данных
Трек 3 отсутствует в базе данных
Трек 4 отсутствует в базе данных
Трек 5 отсутствует в базе данных
Трек 6 отсутствует в базе данных
Трек 7 отсутствует в базе данных
Трек 8 отсутствует в базе данных
Трек 9 отсутствует в базе данных
Трек 10 отсутствует в базе данных
Трек 11 отсутствует в базе данных
Трек 12 отсутствует в базе данных
Трек 13 отсутствует в базе данных
Трек 14 отсутствует в базе данных

Ни одного трека нет в базе AccurateRip

Конец отчёта

==== Контрольная сумма отчёта 34E51BC04F85D64A691980804F57742D242F25C1E720FB9B02237C82C52FA04B ====


Many thanks to the original uploader: Andar





Password: pass