Subcategories

Colosseum II - Electric Savage (1977) {1989, Japan 1st Press}

Posted By: popsakov
Colosseum II - Electric Savage (1977) {1989, Japan 1st Press}

Colosseum II - Electric Savage (1977) {1989, Japan 1st Press}
EAC Rip | WavPack (Img) + Cue + Log ~ 271 Mb | MP3 CBR320 ~ 105 Mb
Covers Included (JPG, 300 dpi) | RAR 5% Recovery
Jazz Rock, Fusion, Progressive Rock | MCA Records / Warner-Pioneer Corp. 18P2-2756

Colosseum II was a British band formed in 1975 by the former Colosseum drummer and leader, Jon Hiseman, following the 1974 demise of his band Tempest. Hiseman announced his plan to form the band eventually named Colosseum II in November 1974, but only Gary Moore was named as a member. Rehearsals were due to begin on January 1, 1975, but a permanent unit was not finalised until May 1975. Among musicians who almost made the group were Graham Bell, Duncan Mackay and Mark Clarke. The final line-up was completed by Don Airey, Neil Murray and Mike Starrs.

The band was oriented toward jazz fusion, much of which was driven by the guitar work of Moore, leading to a much heavier sound than the original Colosseum band. After disappointing sales of the first album, Murray and Starrs were unceremoniously sacked by the band's record label (Bronze) in July 1976.

The band continued with a new record label and a new bass player (John Mole), and recorded two further largely instrumental and still commercially unsuccessful albums. They also performed on Variations with Andrew Lloyd Webber, which also featured Julian Lloyd Webber on cello, Rod Argent on keyboards and Hiseman's wife, Barbara Thompson, on flute and sax. This album reached number 2 on the UK charts.

In August 1978, Moore left to rejoin Thin Lizzy for a fourth spell, and Airey's brother Keith Airey replaced him on guitar. Plans for a fourth album fell through when Don Airey decided to join Rainbow in December 1978.
~ Wiki

***************

Colosseum II - Electric Savage (1977) {1989, Japan 1st Press}

Colosseum II - Electric Savage (1977) {1989, Japan 1st Press}

Track List:

01. Put It This Way [0:05:00.30]
02. All Skin And Bone [0:03:49.70]
03. Rivers [0:05:53.72]
04. The Scorch [0:06:06.53]
05. Lament [0:04:43.52]
06. Desperado [0:06:02.60]
07. Am I [0:04:19.18]
08. Intergalactic Strut [0:06:02.50]

Personnel:
Bass Guitar - John Mole
Drums, Cymbal, Gong, Bells, Percussion - Jon Hiseman
Electric Piano, Grand Piano, Synthesizer, Organ, Clavinet - Don Airey
Guitar, Vocals - Gary Moore

Exact Audio Copy V1.2 from 12. August 2016

EAC extraction logfile from 26. March 2018, 17:13

Colosseum II / Electric Savage [18P2-2756]

Used drive : HL-DT-STBD-RE BH10LS38 Adapter: 1 ID: 1

Read mode : Secure
Utilize accurate stream : Yes
Defeat audio cache : Yes
Make use of C2 pointers : No

Read offset correction : 667
Overread into Lead-In and Lead-Out : No
Fill up missing offset samples with silence : Yes
Delete leading and trailing silent blocks : No
Null samples used in CRC calculations : Yes
Used interface : Installed external ASPI interface

Used output format : User Defined Encoder
Selected bitrate : 128 kBit/s
Quality : High
Add ID3 tag : No
Command line compressor : C:\Program Files (x86)\Exact Audio Copy\wavpack-4.60.1\wavpack.exe
Additional command line options : -hm -w "Year=%year%" -w "Genre=%genre%" %source% %dest%


TOC of the extracted CD

Track | Start | Length | Start sector | End sector
––––––––––––––––––––––––––––-
1 | 0:00.00 | 5:00.30 | 0 | 22529
2 | 5:00.30 | 3:49.70 | 22530 | 39774
3 | 8:50.25 | 5:53.72 | 39775 | 66321
4 | 14:44.22 | 6:06.53 | 66322 | 93824
5 | 20:51.00 | 4:43.52 | 93825 | 115101
6 | 25:34.52 | 6:02.60 | 115102 | 142311
7 | 31:37.37 | 4:19.18 | 142312 | 161754
8 | 35:56.55 | 6:02.50 | 161755 | 188954


Range status and errors

Selected range

Filename G:\Rips by Alder\Colosseum II - Electric Savage [18P2-2756].wav

Peak level 97.7 %
Extraction speed 5.9 X
Range quality 100.0 %
Test CRC FDC65F30
Copy CRC FDC65F30
Copy OK

No errors occurred


AccurateRip summary

Track 1 accurately ripped (confidence 5) [7376C1CB] (AR v2)
Track 2 accurately ripped (confidence 5) [56741FA7] (AR v2)
Track 3 accurately ripped (confidence 5) [6CC555B3] (AR v2)
Track 4 accurately ripped (confidence 5) [61CE4F0A] (AR v2)
Track 5 accurately ripped (confidence 5) [1F9ABA5B] (AR v2)
Track 6 accurately ripped (confidence 5) [1F662195] (AR v2)
Track 7 accurately ripped (confidence 5) [1B32B065] (AR v2)
Track 8 accurately ripped (confidence 5) [97A265D4] (AR v2)

All tracks accurately ripped

End of status report

–– CUETools DB Plugin V2.1.6

[CTDB TOCID: zDhAmzGCLKA0cqRDoQdPIz030RA-] found
Submit result: zDhAmzGCLKA0cqRDoQdPIz030RA- has been confirmed
Track | CTDB Status
1 | (11/11) Accurately ripped
2 | (11/11) Accurately ripped
3 | (11/11) Accurately ripped
4 | (11/11) Accurately ripped
5 | (11/11) Accurately ripped
6 | (11/11) Accurately ripped
7 | (11/11) Accurately ripped
8 | (11/11) Accurately ripped


==== Log checksum D364C13C64ADC3228AE5111068C31CB861E08D86DD54B7493E26E9805E0C0CDC ====

foobar2000 1.3.16 / Dynamic Range Meter 1.1.1
log date: 2018-03-27 20:16:08

––––––––––––––––––––––––––––––––––––––––
Analyzed: Colosseum II / Electric Savage [18P2-2756]
––––––––––––––––––––––––––––––––––––––––

DR Peak RMS Duration Track
––––––––––––––––––––––––––––––––––––––––
DR13 -0.99 dB -17.01 dB 5:00 01-Put It This Way
DR15 -0.54 dB -18.13 dB 3:50 02-All Skin And Bone
DR13 -2.70 dB -19.87 dB 5:54 03-Rivers
DR13 -1.16 dB -18.32 dB 6:07 04-The Scorch
DR13 -2.61 dB -19.53 dB 4:44 05-Lament
DR12 -3.42 dB -17.60 dB 6:03 06-Desperado
DR13 -1.51 dB -17.95 dB 4:19 07-Am I
DR13 -0.20 dB -16.02 dB 6:03 08-Intergalactic Strut
––––––––––––––––––––––––––––––––––––––––

Number of tracks: 8
Official DR value: DR13

Samplerate: 44100 Hz
Channels: 2
Bits per sample: 16
Bitrate: 846 kbps
Codec: WavPack
================================================================================

[CUETools log; Date: 27.03.2018 20:16:18; Version: 2.1.6]
[CTDB TOCID: zDhAmzGCLKA0cqRDoQdPIz030RA-] found.
Track | CTDB Status
1 | (12/12) Accurately ripped
2 | (12/12) Accurately ripped
3 | (12/12) Accurately ripped
4 | (12/12) Accurately ripped
5 | (12/12) Accurately ripped
6 | (12/12) Accurately ripped
7 | (12/12) Accurately ripped
8 | (12/12) Accurately ripped
[AccurateRip ID: 000cac70-005525c6-6c09d708] found.
Track [ CRC | V2 ] Status
01 [f34c5062|7376c1cb] (2+5/7) Accurately ripped
02 [ea204f93|56741fa7] (2+5/7) Accurately ripped
03 [614cce01|6cc555b3] (2+5/7) Accurately ripped
04 [c1a8cccc|61ce4f0a] (2+5/7) Accurately ripped
05 [71181323|1f9aba5b] (2+5/7) Accurately ripped
06 [94c51755|1f662195] (2+5/7) Accurately ripped
07 [919b2214|1b32b065] (2+5/7) Accurately ripped
08 [4b2429fc|97a265d4] (2+5/7) Accurately ripped

Track Peak [ CRC32 ] [W/O NULL] [ LOG ]
– 97,7 [FDC65F30] [508102B5] CRC32
01 89,2 [D07B2048] [72E46041]
02 94,0 [25DE70A8] [12F9B89E]
03 73,2 [AE25DCCE] [601EDEA6]
04 87,4 [6A696D1D] [52B7653C]
05 74,0 [7543CDE3] [94CD9FE3]
06 67,4 [12704BF2] [703979B8]
07 84,0 [4C880347] [7C92B00F]
08 97,7 [F8E20505] [DDC3325E]

Colosseum II - Electric Savage (1977) {1989, Japan 1st Press}

See also:
Colosseum II - Strange New Flesh (1976) {1989, Japanese Edition}

All thanks go to Alder

>>> Colosseum in my Blog <<<

Download from icerbox.com: