Compassion All Star Band - 1 by 1 (One by One) Live! (1989)

Posted By: Andi_Deris
Compassion All Star Band - 1 by 1 (One by One) Live! (1989)

Compassion All Star Band - 1 by 1 (One by One) Live! (1989)
EAC Rip | FLAC: Tracks+Cue+Log | 379 Mb | MP3 CBR 320 kbps | 146 Mb | Scans | 71 Mb | Time: 51:46
Sparrow Star Song | SPD 1216
Soft Rock, Contemporary Christian, Guitar Virtuoso

The Compassion All Star Band are a group of well loved CCM musos of the likes of Phil Keaggy, Randy Stonehill, Margaret Becker and Joe English, joining together for a concert promoting sponsorship of Third World children (information leaflet also enclosed with tape) organised by Compassion International. The result is a live recording that oozes energy and vitality. Here is tightly played rock gospel with lyrics which are honest, real and human - touching on feelings of doubt, loss, confusion, on side one while side two couldn't put the answer clearer ("…there's only one way out…").

Margaret Becker, surely one of the best voices in contemporary music, sings out with a sense of urgency and sincerity, especially in "Sacred Fire". The only track I was unsure of was "Silent Night" as I didn't see its relevance to the album as a whole. Perhaps the top cut is a blistering version of the old blues classic, "Crossroads" with some torrid guitar. The concert was cut off in its prime by a thunderstorm, so ends with an emotive spoken plea for "the cause". . .perhaps a little too emotive but then again, it's an emotional subject. The final track "Who Will Save The Children" (which was recorded in the studio) puts it far more poignantly and epitomises what the album is trying to say, "We are His hands, we are His voice. . .if it isn't you then tell me who will save the children." On the whole, an album with plenty of musical muscle that manages at the same time to say some important, challenging things.

Compassion All Star Band - 1 by 1 (One by One) Live! (1989)




Track Listing

01. Intro (00:15)
02. Defender (03:08)
03. You Can't Stand Too Tall (04:09)
04. Sacred Fire (07:03)
05. Silent Night (04:55)
06. Christmas Must Be Tonight (04:04)
07. Find Me (03:33)
08. Yield To The Spirit (04:16)
09. Ain't Got No (04:09)
10. Crossroads (06:13)
11. Rap (04:59)
12. Who Will Save The Children (05:03)

Produced by Gary Hedden

Personnel

• Margaret Becker - Guitar And Vocals
• Rick Cua - Bass And Vocals
• Joe English - Drums, Percussion, Vocals
• Phil Keaggy - Guitar And Vocals
• Mike Mead - Drums And Percussion
• John Andrew Schreiner - Keyboards And Vocals
• Randy Stonehill - Guitar And Vocals

Exact Audio Copy V0.99 prebeta 5 from 4. May 2009

EAC extraction logfile from 9. March 2011, 13:08

Compassion All Star Band / 1 by 1 Live! (US Sparrow SPD 1216)

Used drive : ATAPI DVD D DH16D2S Adapter: 3 ID: 0

Read mode : Secure
Utilize accurate stream : Yes
Defeat audio cache : Yes
Make use of C2 pointers : No

Read offset correction : 6
Overread into Lead-In and Lead-Out : No
Fill up missing offset samples with silence : Yes
Delete leading and trailing silent blocks : No
Null samples used in CRC calculations : Yes
Used interface : Native Win32 interface for Win NT & 2000
Gap handling : Appended to previous track

Used output format : User Defined Encoder
Selected bitrate : 1024 kBit/s
Quality : High
Add ID3 tag : No
Command line compressor : C:\Program Files\Exact Audio Copy\FLAC\FLAC.EXE
Additional command line options : -8 -V -T "ARTIST=%a" -T "TITLE=%t" -T "ALBUM=%g" -T "DATE=%y" -T "TRACKNUMBER=%n" -T "GENRE=%m" -T "COMMENT=%e" %s -o %d


TOC of the extracted CD

Track | Start | Length | Start sector | End sector
––––––––––––––––––––––––––––-
1 | 0:00.47 | 0:14.38 | 47 | 1134
2 | 0:15.10 | 3:08.05 | 1135 | 15239
3 | 3:23.15 | 4:08.52 | 15240 | 33891
4 | 7:31.67 | 7:03.10 | 33892 | 65626
5 | 14:35.02 | 4:54.38 | 65627 | 87714
6 | 19:29.40 | 4:04.07 | 87715 | 106021
7 | 23:33.47 | 3:33.00 | 106022 | 121996
8 | 27:06.47 | 4:16.08 | 121997 | 141204
9 | 31:22.55 | 4:08.32 | 141205 | 159836
10 | 35:31.12 | 6:13.20 | 159837 | 187831
11 | 41:44.32 | 4:58.68 | 187832 | 210249
12 | 46:43.25 | 5:02.42 | 210250 | 232941


Track 1

Filename D:\Y\y\01 Intro.wav

Pre-gap length 0:00:02.47

Peak level 62.2 %
Track quality 100.0 %
Test CRC 509D035B
Copy CRC 509D035B
Copy OK

Track 2

Filename D:\Y\y\02 Defender.wav

Peak level 92.8 %
Track quality 100.0 %
Test CRC A8CBC0B9
Copy CRC A8CBC0B9
Copy OK

Track 3

Filename D:\Y\y\03 You Can't Stand Too Tall.wav

Peak level 84.9 %
Track quality 99.9 %
Test CRC 02314568
Copy CRC 02314568
Copy OK

Track 4

Filename D:\Y\y\04 Sacred Fire.wav

Peak level 87.9 %
Track quality 100.0 %
Test CRC E5560FC5
Copy CRC E5560FC5
Copy OK

Track 5

Filename D:\Y\y\05 Silent Night.wav

Peak level 100.0 %
Track quality 99.9 %
Test CRC 010CD11A
Copy CRC 010CD11A
Copy OK

Track 6

Filename D:\Y\y\06 Christmas Must Be Tonight.wav

Peak level 81.9 %
Track quality 100.0 %
Test CRC E6E6A9D2
Copy CRC E6E6A9D2
Copy OK

Track 7

Filename D:\Y\y\07 Find Me.wav

Peak level 89.1 %
Track quality 100.0 %
Test CRC DE295ACB
Copy CRC DE295ACB
Copy OK

Track 8

Filename D:\Y\y\08 Yield To The Spirit.wav

Peak level 100.0 %
Track quality 100.0 %
Test CRC 925F7DF7
Copy CRC 925F7DF7
Copy OK

Track 9

Filename D:\Y\y\09 Ain't Got No.wav

Peak level 100.0 %
Track quality 100.0 %
Test CRC 6373F871
Copy CRC 6373F871
Copy OK

Track 10

Filename D:\Y\y\10 Crossroads.wav

Peak level 99.1 %
Track quality 100.0 %
Test CRC 6C929009
Copy CRC 6C929009
Copy OK

Track 11

Filename D:\Y\y\11 Rap.wav

Peak level 51.3 %
Track quality 100.0 %
Test CRC 1A55D820
Copy CRC 1A55D820
Copy OK

Track 12

Filename D:\Y\y\12 Who Will Save The Children.wav

Peak level 83.5 %
Track quality 100.0 %
Test CRC 383C10DE
Copy CRC 383C10DE
Copy OK

No errors occurred

End of status report


Many thanks to the original uploader: neytiri_navi



Glass Harp 1970 Glass Harp [Remastered, 2005]
Glass Harp 1971 Synergy [Remastered, 2005]
Glass Harp 1972 It Makes Me Glad [Remastered, 2005]
Glass Harp 1997 Live! At Carnegie Hall
Glass Harp 2001 Strings Attached [Live] 2CD
Glass Harp 2003 Hourglass
Glass Harp 2004 Stark Raving Jams [Live] 3CD
Glass Harp 2010 Live At The Beachland Ballroom 11.01.08

Greg X. Volz 1986 The River Is Rising
Greg X. Volz 1988 Come Out Fighting
Greg X. Volz 1989 No Room In The Middle
Greg X. Volz 1991 The Exodus

Halo 1990 Halo / 1991 Heaven Calling

John Elefante - Discography (1995-2013)

John Schlitt 1995 Shake
John Schlitt 2012 The Greater Cause

Mastedon - Discography (1989-2009)

Petra 1974 Petra [Reissue 1992]
Petra 1977 Come And Join Us [Reissue 1995]
Petra 1979 Washes Whiter Than / 1981 Never Say Die [Reissue 1988]
Petra 1982 More Power To Ya
Petra 1983 Not Of This World
Petra 1984 Beat The System
Petra 1986 Captured In Time And Space (Live)
Petra 1986 Captured In Time And Space (Live) [DVD]
Petra 1986 Back To The Street
Petra 1987 This Means War!
Petra 1988 On Fire!
Petra 1989 Petra Means Rock [Compilation]
Petra 1989 Petra Praise… The Rock Cries Out
Petra 1990 Beyond Belief
Petra 1990 Beyond Belief [DVD]
Petra 1991 Unseen Power
Petra 1993 Wake-Up Call
Petra 1995 No Doubt
Petra 1997 Petra Praise 2: We Need Jesus
Petra 1998 God Fixation
Petra 2000 Double Take
Petra 2001 Revival
Petra 2003 Jekyll & Hyde
Petra 2003 The Power Of Praise [Compilation]
Petra 2006 Farewell [DVD]
II Guys From Petra 2007 Vertical Expressions
Classic Petra 2010 Back To The Rock

V.A. 1996 Never Say Dinosaur - Tribute To Petra




Password: pass