Consortium Classicum, Dieter Klöcker - Salieri: Harmoniemusiken (2011)

Posted By: tirexiss
Consortium Classicum, Dieter Klöcker - Salieri: Harmoniemusiken (2011)

Consortium Classicum, Dieter Klöcker - Salieri: Harmoniemusiken (2011)
EAC | FLAC (image+.cue, log) | Covers Included | 65:34 | 299 MB
Genre: Classical | Label: Orfeo | Catalog: C 738111A

German clarinetist Dieter Klöcker founded his Consortium Classicum in the 1960s and has occasionally devoted it to the rediscovery of obscure repertory for wind instruments. The group has made several recordings of Harmoniemusik or wind-band (paired oboes, clarinets, horns, and bassoons) arrangements of operas of the late 18th century, many of which were made by oboist and composer Johann Nepomuk Wendt. Mozart's operas underwent these arrangements, sometimes even at Mozart's own hands (he pulled an all-nighter to rush one out for Die Entführung aus dem Serail to beat a competitor), for wind bands were maintained by numerous Austrian noble establishments. This impeccably played recording gives a taste of music that might easily have been heard at a Viennese soiree in the weeks after the premiere of an opera by Antonio Salieri, Mozart's putative rival. Mozart himself wrote, "You wouldn't believe how difficult it is to score something…for wind band so that it suits the winds instruments properly and yet doesn't lose anything of the impact of the original," and the clockwork quality of these arrangements is impressive to hear. A bit more detail in the booklet about the individual operatic sources would have been helpful: it would have been nice to know, for example, what the Canzone, track 15, from Axur, Rè d'Ormus, was referring to with its sequential entrances of four solo winds. Presumably it was some kind of comic or romantic quartet. This was and remains incidental music, but it's likely that a contemporary audience will enjoy it as much as did the well-heeled Viennese of Mozart's day.

Consortium Classicum, Dieter Klöcker - Salieri: Harmoniemusiken (2011)

Track List:

La Grotta di Trofonio
01. Sinfonia [00:03:09]
02. Introduzione [00:03:10]
03. Larghetto [00:03:31]
04. Cantabile [00:03:39]
05. Andantino [00:01:49]
06. Finale. Un poco adagio [00:04:03]
07. Finale. Allegro assai [00:07:51]

Axur, Rè d'Ormus
08. Allegro [00:01:51]
09. Introduzione [00:03:05]
10. Allegro moderato [00:02:07]
11. Andantino [00:01:34]
12. Allegretto [00:01:54]
13. Andante un poco cantabile [00:01:51]
14. Allegro [00:01:21]
15. Canzone [00:01:27]
16. Allegretto [00:02:16]
17. Allegretto - Allegro [00:02:50]

Palmira, Regina di Persia
18. Sinfonia [00:02:42]
19. Andante con moto [00:01:48]
20. Terzetto [00:01:17]
21. Marcia [00:01:31]
22. Un poco andante [00:01:48]
23. Marcia [00:01:14]
24. Andante un poco sostenuto [00:01:04]
25. Larghetto [00:01:06]
26. Andante [00:01:38]
27. Finale [00:03:47]

Performers:
Dieter Klöcker - clarinet & direction
Consortium Classicum


Exact Audio Copy V1.0 beta 3 from 29. August 2011

EAC extraction logfile from 7. January 2013, 19:44

Dieter Klöcker / Salieri - Music for winds - Consortium Classicum

Used drive : TSSTcorpCDDVDW SH-222BB Adapter: 2 ID: 1

Read mode : Secure
Utilize accurate stream : Yes
Defeat audio cache : Yes
Make use of C2 pointers : No

Read offset correction : 6
Overread into Lead-In and Lead-Out : No
Fill up missing offset samples with silence : Yes
Delete leading and trailing silent blocks : No
Null samples used in CRC calculations : Yes
Used interface : Native Win32 interface for Win NT & 2000

Used output format : User Defined Encoder
Selected bitrate : 1024 kBit/s
Quality : High
Add ID3 tag : No
Command line compressor : C:\Program Files\Exact Audio Copy\Flac\flac.exe
Additional command line options : -8 -V -T "TITLE=%title%" -T "ARTIST=%artist%" -T "ALBUMARTIST=%albumartist%" -T "ALBUM=%albumtitle%" -T "DATE=%year%" -T "TRACKNUMBER=%tracknr%" -T "TRACKTOTAL=%numtracks%" -T "GENRE=%genre%" -T "COMMENT=%comment%" -T "PERFORMER=%albuminterpret%" -T "COMPOSER=%composer%" %source% -o %dest%


TOC of the extracted CD

Track | Start | Length | Start sector | End sector
––––––––––––––––––––––––––––-
1 | 0:00.00 | 3:09.65 | 0 | 14239
2 | 3:09.65 | 3:10.35 | 14240 | 28524
3 | 6:20.25 | 3:31.57 | 28525 | 44406
4 | 9:52.07 | 3:39.18 | 44407 | 60849
5 | 13:31.25 | 1:49.46 | 60850 | 69070
6 | 15:20.71 | 4:03.08 | 69071 | 87303
7 | 19:24.04 | 7:51.39 | 87304 | 122667
8 | 27:15.43 | 1:51.03 | 122668 | 130995
9 | 29:06.46 | 3:05.10 | 130996 | 144880
10 | 32:11.56 | 2:07.54 | 144881 | 154459
11 | 34:19.35 | 1:34.12 | 154460 | 161521
12 | 35:53.47 | 1:54.11 | 161522 | 170082
13 | 37:47.58 | 1:51.05 | 170083 | 178412
14 | 39:38.63 | 1:21.23 | 178413 | 184510
15 | 41:00.11 | 1:27.01 | 184511 | 191036
16 | 42:27.12 | 2:16.66 | 191037 | 201302
17 | 44:44.03 | 2:50.43 | 201303 | 214095
18 | 47:34.46 | 2:42.60 | 214096 | 226305
19 | 50:17.31 | 1:48.10 | 226306 | 234415
20 | 52:05.41 | 1:17.13 | 234416 | 240203
21 | 53:22.54 | 1:31.14 | 240204 | 247042
22 | 54:53.68 | 1:48.28 | 247043 | 255170
23 | 56:42.21 | 1:14.72 | 255171 | 260792
24 | 57:57.18 | 1:04.03 | 260793 | 265595
25 | 59:01.21 | 1:06.57 | 265596 | 270602
26 | 60:08.03 | 1:38.08 | 270603 | 277960
27 | 61:46.11 | 3:47.04 | 277961 | 294989


Range status and errors

Selected range

Filename G:\Ripped general\[9271] Salieri – Music for winds – Consortium Classicum\Salieri - Music for winds - Consortium Classicum.wav

Peak level 100.0 %
Extraction speed 7.5 X
Range quality 99.9 %
Test CRC 06EFD7E9
Copy CRC 06EFD7E9
Copy OK

No errors occurred


AccurateRip summary

Track 1 not present in database
Track 2 not present in database
Track 3 not present in database
Track 4 not present in database
Track 5 not present in database
Track 6 not present in database
Track 7 not present in database
Track 8 not present in database
Track 9 not present in database
Track 10 not present in database
Track 11 not present in database
Track 12 not present in database
Track 13 not present in database
Track 14 not present in database
Track 15 not present in database
Track 16 not present in database
Track 17 not present in database
Track 18 not present in database
Track 19 not present in database
Track 20 not present in database
Track 21 not present in database
Track 22 not present in database
Track 23 not present in database
Track 24 not present in database
Track 25 not present in database
Track 26 not present in database
Track 27 not present in database

None of the tracks are present in the AccurateRip database

End of status report

[CUETools log; Date: 17.12.2016 11:34:23; Version: 2.1.5]
[CTDB TOCID: BDqVMpF7iHkkzongh9IeSIoV3OA-] found.
Track | CTDB Status
1 | (7/7) Accurately ripped
2 | (7/7) Accurately ripped
3 | (7/7) Accurately ripped
4 | (7/7) Accurately ripped
5 | (7/7) Accurately ripped
6 | (7/7) Accurately ripped
7 | (7/7) Accurately ripped
8 | (7/7) Accurately ripped
9 | (7/7) Accurately ripped
10 | (7/7) Accurately ripped
11 | (7/7) Accurately ripped
12 | (7/7) Accurately ripped
13 | (7/7) Accurately ripped
14 | (7/7) Accurately ripped
15 | (7/7) Accurately ripped
16 | (7/7) Accurately ripped
17 | (7/7) Accurately ripped
18 | (7/7) Accurately ripped
19 | (7/7) Accurately ripped
20 | (7/7) Accurately ripped
21 | (7/7) Accurately ripped
22 | (7/7) Accurately ripped
23 | (7/7) Accurately ripped
24 | (7/7) Accurately ripped
25 | (7/7) Accurately ripped
26 | (7/7) Accurately ripped
27 | (7/7) Accurately ripped
[AccurateRip ID: 0048323a-053a62f5-8f0f5d1b] found.
Track [ CRC | V2 ] Status
01 [c1fcd79d|a24d2fb3] (2+3/5) Accurately ripped
02 [7e0f8ddb|35a2d976] (2+3/5) Accurately ripped
03 [556e1cb8|bdcd7f6c] (2+3/5) Accurately ripped
04 [9b5df7c5|82eee213] (2+3/5) Accurately ripped
05 [dae5e2d2|afbcc0b8] (2+3/5) Accurately ripped
06 [99feeed2|f8ce944d] (2+3/5) Accurately ripped
07 [339b88a5|9e134c9a] (2+3/5) Accurately ripped
08 [cc9427cf|b99fd3af] (2+3/5) Accurately ripped
09 [91d69ea9|3e415245] (2+3/5) Accurately ripped
10 [11e5a378|dcd2a3e4] (2+3/5) Accurately ripped
11 [fa64f03f|93329d6d] (2+3/5) Accurately ripped
12 [a984ab62|c6a6869e] (2+3/5) Accurately ripped
13 [f62df215|f5286122] (2+3/5) Accurately ripped
14 [bda80a54|fcb73dc4] (2+3/5) Accurately ripped
15 [e3a99dd8|a289205e] (2+3/5) Accurately ripped
16 [df1e9266|27670571] (2+3/5) Accurately ripped
17 [55f30bb4|c7fdde96] (2+3/5) Accurately ripped
18 [856140b3|e0f3d58c] (2+3/5) Accurately ripped
19 [4ce84036|d464cc88] (2+3/5) Accurately ripped
20 [28657c11|9ee09f59] (2+3/5) Accurately ripped
21 [5bb9c6b4|d393e8b3] (2+3/5) Accurately ripped
22 [13986f8c|3852de9e] (2+3/5) Accurately ripped
23 [10638d67|5b500b34] (2+3/5) Accurately ripped
24 [61c964d3|293702bd] (2+3/5) Accurately ripped
25 [b9d8097c|9577d0ef] (2+3/5) Accurately ripped
26 [9b85ae59|b5acf7fa] (2+3/5) Accurately ripped
27 [52783696|b481cbe4] (2+3/5) Accurately ripped

Track Peak [ CRC32 ] [W/O NULL] [ LOG ]
– 100,0 [06EFD7E9] [819DA1E9] CRC32
01 99,6 [D1AB0344] [A0F02037]
02 62,2 [31EDA3AF] [CD710B81]
03 97,1 [A67BB2E9] [F42F16A2]
04 58,8 [AE154ADE] [C62BF6E2]
05 72,6 [5134BC33] [C85793BA]
06 100,0 [C904AF4C] [1C05EA42]
07 92,8 [184DA734] [5099A83B]
08 95,7 [6E2240AE] [E054F033]
09 80,8 [B1399466] [B12F430F]
10 78,0 [83B9B64E] [DF58F25C]
11 62,8 [D415443C] [58DA023B]
12 71,5 [168E0A0D] [50F54DFC]
13 80,3 [AE62639C] [722B7277]
14 89,6 [412FCACE] [0E6C8E02]
15 65,1 [50F27841] [07521BC3]
16 74,3 [821E0892] [6610E7D2]
17 95,8 [5E1E8880] [D1B41205]
18 89,7 [E51545EE] [2926F0CB]
19 90,7 [05D6207D] [DFCDE9A0]
20 81,1 [C5769534] [4347DE10]
21 97,1 [BC9519AA] [732248C3]
22 62,7 [A5894263] [CF069CAD]
23 83,0 [9B87FBC2] [2B1B24E3]
24 79,6 [C6268D89] [EB080A69]
25 66,0 [A368D77F] [A0677D6D]
26 73,3 [8EDF0AA1] [8BF88B1D]
27 99,9 [1119783E] [0BF91B76]

Consortium Classicum, Dieter Klöcker - Salieri: Harmoniemusiken (2011)

Thanks to the Original ripper (unknown)!

Download: