Subcategories

Count Basie - Classic Jazz Archive [Recorded 1937-1947] (2004) (Repost)

Posted By: gribovar
Count Basie - Classic Jazz Archive [Recorded 1937-1947] (2004) (Repost)

Count Basie - Classic Jazz Archive [Recorded 1937-1947] (2004)
EAC Rip | APE (tracks+.cue+log) - 576 MB | MP3 CBR 320 kbps (LAME 3.93) - 351 MB | Covers - 22 MB
Genre: Jazz, Swing, Big Band | RAR 3% Rec. | Label: Membran Music (222010-306)

Count Basie was among the most important bandleaders of the swing era. With the exception of a brief period in the early '50s, he led a big band from 1935 until his death almost 50 years later, and the band continued to perform after he died. Basie's orchestra was characterized by a light, swinging rhythm section that he led from the piano, lively ensemble work, and generous soloing. Basie was not a composer like Duke Ellington or an important soloist like Benny Goodman. His instrument was his band, which was considered the epitome of swing and became broadly influential on jazz.

CD 1 Tracklist (One O'Clock Jump):
01. One O'Clock Jump
02. Topsy
03. Swingin' In The Blues
04. Every Tub
05. Jumpin' At The Woodside
06. Texas Shuffle
07. Jive At Five
08. Oh! Lady Be Good
09. Twelfth Street Rag
10. Clap Hands! Here Comes Charlie
11. Tickle Toe
12. I Never Knew
13. Super Chief
14. Love Jumped Out
15. Fiesta In Blue
16. One O'Clock Jump
17. Blue Shadows & White Gardenias
18. 'Ay Now
19. Basie Blues
20. Rusty Dusty Blues
21. Ride On
22. Lost The Blackout Blues
23. Ain't It The Truth

Total time: 01:09:04

CD 2 Tracklist (Rhythm Man):
01. It's Sand, Man!
02. For The Good Of Your Country
03. Dance Of The Gremlins
04. Yeah Man
05. Rhythm Man
06. Kansas City Stride
07. Beaver Junction
08. Circus In Rhythm
09. Gee, Baby Ain't I Good To You
10. Basie Strides Again (Along Avenue C)
11. Harvard Blues
12. High Tide (I Ain't Mad At You)
13. Taps Miller
14. Red Bank Boogie
15. Playhouse No. 2 Stomp (Variations On I Got Rhythm)
16. Old Manuscript
17. On The Upbeat
18. Patience & Fortitude
19. The King
20. Mutton Leg
21. Wild Bill's Boogie
22. Seventh Avenue Express

Total time: 01:19:48

Exact Audio Copy V1.0 beta 3 from 29. August 2011

EAC extraction logfile from 19. July 2013, 13:29

Count Basie / Classic Jazz Archive {CD1 - One O'Clock Jump}

Used drive : Optiarc DVD RW AD-5200A Adapter: 0 ID: 0

Read mode : Secure
Utilize accurate stream : Yes
Defeat audio cache : Yes
Make use of C2 pointers : No

Read offset correction : 48
Overread into Lead-In and Lead-Out : No
Fill up missing offset samples with silence : Yes
Delete leading and trailing silent blocks : No
Null samples used in CRC calculations : Yes
Used interface : Native Win32 interface for Win NT & 2000
Gap handling : Appended to previous track

Used output format : User Defined Encoder
Selected bitrate : 128 kBit/s
Quality : High
Add ID3 tag : No
Command line compressor : F:\Program Files\Monkey's Audio\wapet.exe
Additional command line options : %dest% -t "Genre=%genre%" -t "Artist=%artist%" -t "Title=%title%" -t "Album=%albumtitle%" -t "Year=%year%" -t "Track=%tracknr%" -t "Comment=%comment%" mac.exe %source% %dest% -c3000


TOC of the extracted CD

Track | Start | Length | Start sector | End sector
––––––––––––––––––––––––––––-
1 | 0:00.00 | 2:58.02 | 0 | 13351
2 | 2:58.02 | 3:09.10 | 13352 | 27536
3 | 6:07.12 | 2:43.36 | 27537 | 39797
4 | 8:50.48 | 3:16.25 | 39798 | 54522
5 | 12:06.73 | 3:03.18 | 54523 | 68265
6 | 15:10.16 | 3:01.71 | 68266 | 81911
7 | 18:12.12 | 2:39.40 | 81912 | 93876
8 | 20:51.52 | 3:10.07 | 93877 | 108133
9 | 24:01.59 | 3:04.01 | 108134 | 121934
10 | 27:05.60 | 2:27.54 | 121935 | 133013
11 | 29:33.39 | 2:35.03 | 133014 | 144641
12 | 32:08.42 | 2:41.11 | 144642 | 156727
13 | 34:49.53 | 3:22.67 | 156728 | 171944
14 | 38:12.45 | 3:15.12 | 171945 | 186581
15 | 41:27.57 | 3:07.50 | 186582 | 200656
16 | 44:35.32 | 3:04.11 | 200657 | 214467
17 | 47:39.43 | 3:11.33 | 214468 | 228825
18 | 50:51.01 | 2:31.06 | 228826 | 240156
19 | 53:22.07 | 3:07.26 | 240157 | 254207
20 | 56:29.33 | 3:11.73 | 254208 | 268605
21 | 59:41.31 | 3:18.46 | 268606 | 283501
22 | 63:00.02 | 3:11.17 | 283502 | 297843
23 | 66:11.19 | 2:52.49 | 297844 | 310792


Track 1

Filename F:\2004.Count Basie - Classic Jazz Archive (2CD)\CD1 - One O'Clock Jump\01. One O'Clock Jump.wav

Pre-gap length 0:00:02.00

Peak level 80.7 %
Extraction speed 2.1 X
Track quality 100.0 %
Test CRC 28D7356B
Copy CRC 28D7356B
Track not present in AccurateRip database
Copy OK

Track 2

Filename F:\2004.Count Basie - Classic Jazz Archive (2CD)\CD1 - One O'Clock Jump\02. Topsy.wav

Pre-gap length 0:00:02.00

Peak level 82.0 %
Extraction speed 2.3 X
Track quality 100.0 %
Test CRC FBAB9063
Copy CRC FBAB9063
Track not present in AccurateRip database
Copy OK

Track 3

Filename F:\2004.Count Basie - Classic Jazz Archive (2CD)\CD1 - One O'Clock Jump\03. Swingin' In The Blues.wav

Pre-gap length 0:00:02.00

Peak level 83.4 %
Extraction speed 2.4 X
Track quality 100.0 %
Test CRC B13065DB
Copy CRC B13065DB
Track not present in AccurateRip database
Copy OK

Track 4

Filename F:\2004.Count Basie - Classic Jazz Archive (2CD)\CD1 - One O'Clock Jump\04. Every Tub.wav

Pre-gap length 0:00:02.00

Peak level 82.4 %
Extraction speed 2.7 X
Track quality 100.0 %
Test CRC 608BD413
Copy CRC 608BD413
Track not present in AccurateRip database
Copy OK

Track 5

Filename F:\2004.Count Basie - Classic Jazz Archive (2CD)\CD1 - One O'Clock Jump\05. Jumpin' At The Woodside.wav

Pre-gap length 0:00:02.00

Peak level 90.8 %
Extraction speed 2.4 X
Track quality 99.9 %
Test CRC 6B18F40A
Copy CRC 6B18F40A
Track not present in AccurateRip database
Copy OK

Track 6

Filename F:\2004.Count Basie - Classic Jazz Archive (2CD)\CD1 - One O'Clock Jump\06. Texas Shuffle.wav

Pre-gap length 0:00:02.00

Peak level 99.5 %
Extraction speed 2.5 X
Track quality 99.9 %
Test CRC 2E8E112E
Copy CRC 2E8E112E
Track not present in AccurateRip database
Copy OK

Track 7

Filename F:\2004.Count Basie - Classic Jazz Archive (2CD)\CD1 - One O'Clock Jump\07. Jive At Five.wav

Pre-gap length 0:00:02.00

Peak level 86.0 %
Extraction speed 3.0 X
Track quality 100.0 %
Test CRC C16AF774
Copy CRC C16AF774
Track not present in AccurateRip database
Copy OK

Track 8

Filename F:\2004.Count Basie - Classic Jazz Archive (2CD)\CD1 - One O'Clock Jump\08. Oh! Lady Be Good.wav

Pre-gap length 0:00:02.00

Peak level 97.2 %
Extraction speed 3.2 X
Track quality 100.0 %
Test CRC F73DF90F
Copy CRC F73DF90F
Track not present in AccurateRip database
Copy OK

Track 9

Filename F:\2004.Count Basie - Classic Jazz Archive (2CD)\CD1 - One O'Clock Jump\09. Twelfth Street Rag.wav

Pre-gap length 0:00:02.00

Peak level 90.6 %
Extraction speed 3.2 X
Track quality 100.0 %
Test CRC CB58C030
Copy CRC CB58C030
Track not present in AccurateRip database
Copy OK

Track 10

Filename F:\2004.Count Basie - Classic Jazz Archive (2CD)\CD1 - One O'Clock Jump\10. Clap Hands! Here Comes Charlie.wav

Pre-gap length 0:00:02.00

Peak level 82.9 %
Extraction speed 2.7 X
Track quality 99.9 %
Test CRC 7300483F
Copy CRC 7300483F
Track not present in AccurateRip database
Copy OK

Track 11

Filename F:\2004.Count Basie - Classic Jazz Archive (2CD)\CD1 - One O'Clock Jump\11. Tickle Toe.wav

Pre-gap length 0:00:02.00

Peak level 85.5 %
Extraction speed 2.7 X
Track quality 99.9 %
Test CRC 1ACC0213
Copy CRC 1ACC0213
Track not present in AccurateRip database
Copy OK

Track 12

Filename F:\2004.Count Basie - Classic Jazz Archive (2CD)\CD1 - One O'Clock Jump\12. I Never Knew.wav

Pre-gap length 0:00:02.00

Peak level 94.1 %
Extraction speed 3.4 X
Track quality 100.0 %
Test CRC BD6AE708
Copy CRC BD6AE708
Track not present in AccurateRip database
Copy OK

Track 13

Filename F:\2004.Count Basie - Classic Jazz Archive (2CD)\CD1 - One O'Clock Jump\13. Super Chief.wav

Pre-gap length 0:00:02.00

Peak level 90.1 %
Extraction speed 3.6 X
Track quality 100.0 %
Test CRC 4B1951D4
Copy CRC 4B1951D4
Track not present in AccurateRip database
Copy OK

Track 14

Filename F:\2004.Count Basie - Classic Jazz Archive (2CD)\CD1 - One O'Clock Jump\14. Love Jumped Out.wav

Pre-gap length 0:00:02.00

Peak level 88.6 %
Extraction speed 3.7 X
Track quality 100.0 %
Test CRC 84D5C494
Copy CRC 84D5C494
Track not present in AccurateRip database
Copy OK

Track 15

Filename F:\2004.Count Basie - Classic Jazz Archive (2CD)\CD1 - One O'Clock Jump\15. Fiesta In Blue.wav

Pre-gap length 0:00:02.00

Peak level 83.2 %
Extraction speed 3.8 X
Track quality 100.0 %
Test CRC C228F6ED
Copy CRC C228F6ED
Track not present in AccurateRip database
Copy OK

Track 16

Filename F:\2004.Count Basie - Classic Jazz Archive (2CD)\CD1 - One O'Clock Jump\16. One O'Clock Jump.wav

Pre-gap length 0:00:02.00

Peak level 100.0 %
Extraction speed 3.8 X
Track quality 100.0 %
Test CRC 9DBAEC5E
Copy CRC 9DBAEC5E
Track not present in AccurateRip database
Copy OK

Track 17

Filename F:\2004.Count Basie - Classic Jazz Archive (2CD)\CD1 - One O'Clock Jump\17. Blue Shadows & White Gardenias.wav

Pre-gap length 0:00:02.00

Peak level 100.0 %
Extraction speed 4.0 X
Track quality 100.0 %
Test CRC 7425C629
Copy CRC 7425C629
Track not present in AccurateRip database
Copy OK

Track 18

Filename F:\2004.Count Basie - Classic Jazz Archive (2CD)\CD1 - One O'Clock Jump\18. 'Ay Now.wav

Pre-gap length 0:00:02.00

Peak level 100.0 %
Extraction speed 3.3 X
Track quality 99.9 %
Test CRC F791CF34
Copy CRC F791CF34
Track not present in AccurateRip database
Copy OK

Track 19

Filename F:\2004.Count Basie - Classic Jazz Archive (2CD)\CD1 - One O'Clock Jump\19. Basie Blues.wav

Pre-gap length 0:00:02.00

Peak level 100.0 %
Extraction speed 4.1 X
Track quality 100.0 %
Test CRC 7D17CD62
Copy CRC 7D17CD62
Track not present in AccurateRip database
Copy OK

Track 20

Filename F:\2004.Count Basie - Classic Jazz Archive (2CD)\CD1 - One O'Clock Jump\20. Rusty Dusty Blues.wav

Pre-gap length 0:00:02.00

Peak level 100.0 %
Extraction speed 4.2 X
Track quality 100.0 %
Test CRC 317E0C08
Copy CRC 317E0C08
Track not present in AccurateRip database
Copy OK

Track 21

Filename F:\2004.Count Basie - Classic Jazz Archive (2CD)\CD1 - One O'Clock Jump\21. Ride On.wav

Pre-gap length 0:00:02.00

Peak level 100.0 %
Extraction speed 4.4 X
Track quality 100.0 %
Test CRC 6BCFAD7F
Copy CRC 6BCFAD7F
Track not present in AccurateRip database
Copy OK

Track 22

Filename F:\2004.Count Basie - Classic Jazz Archive (2CD)\CD1 - One O'Clock Jump\22. Lost The Blackout Blues.wav

Pre-gap length 0:00:02.00

Peak level 100.0 %
Extraction speed 3.9 X
Track quality 99.9 %
Test CRC 5BD75917
Copy CRC 5BD75917
Track not present in AccurateRip database
Copy OK

Track 23

Filename F:\2004.Count Basie - Classic Jazz Archive (2CD)\CD1 - One O'Clock Jump\23. Ain't It The Truth.wav

Pre-gap length 0:00:02.00

Peak level 100.0 %
Extraction speed 3.8 X
Track quality 99.9 %
Test CRC BED68260
Copy CRC BED68260
Track not present in AccurateRip database
Copy OK


None of the tracks are present in the AccurateRip database

No errors occurred

End of status report

==== Log checksum 84879D0B3E764C609C92170927F5FEE4F4303ED66B1A2186CC65122A6DF93881 ====

[CUETools log; Date: 30.12.2018 1:41:35; Version: 2.1.4]
[CTDB TOCID: yXBkY11ncZIm9eqnFV60x.W8Qzo-] found.
Track | CTDB Status
1 | (4/4) Accurately ripped
2 | (4/4) Accurately ripped
3 | (4/4) Accurately ripped
4 | (4/4) Accurately ripped
5 | (4/4) Accurately ripped
6 | (4/4) Accurately ripped
7 | (4/4) Accurately ripped
8 | (4/4) Accurately ripped
9 | (4/4) Accurately ripped
10 | (4/4) Accurately ripped
11 | (4/4) Accurately ripped
12 | (4/4) Accurately ripped
13 | (4/4) Accurately ripped
14 | (4/4) Accurately ripped
15 | (4/4) Accurately ripped
16 | (4/4) Accurately ripped
17 | (4/4) Accurately ripped
18 | (4/4) Accurately ripped
19 | (4/4) Accurately ripped
20 | (4/4) Accurately ripped
21 | (4/4) Accurately ripped
22 | (4/4) Accurately ripped
23 | (4/4) Accurately ripped
[AccurateRip ID: 00387a3a-03adc462-57102f17] disk not present in database.

Track Peak [ CRC32 ] [W/O NULL] [ LOG ]
– 100,0 [20CC5B73] [CF0C621A]
01 80,6 [28D7356B] [64AC2ECF] CRC32
02 82,0 [FBAB9063] [C43030CF] CRC32
03 83,4 [B13065DB] [81916F2D] CRC32
04 82,4 [608BD413] [6A6D3649] CRC32
05 90,8 [6B18F40A] [FE324F53] CRC32
06 99,5 [2E8E112E] [EF094E96] CRC32
07 86,0 [C16AF774] [7706DB4A] CRC32
08 97,2 [F73DF90F] [D457E789] CRC32
09 90,6 [CB58C030] [CFB380C4] CRC32
10 82,9 [7300483F] [A3DE6435] CRC32
11 85,5 [1ACC0213] [A84A41E2] CRC32
12 94,1 [BD6AE708] [74869890] CRC32
13 90,1 [4B1951D4] [ADC4A2D9] CRC32
14 88,6 [84D5C494] [507B4EA8] CRC32
15 83,2 [C228F6ED] [3BB4601D] CRC32
16 100,0 [9DBAEC5E] [0C227C75] CRC32
17 100,0 [7425C629] [8F8F8FD1] CRC32
18 100,0 [F791CF34] [DB499AB6] CRC32
19 99,9 [7D17CD62] [2D99965C] CRC32
20 99,9 [317E0C08] [F6AA283E] CRC32
21 100,0 [6BCFAD7F] [8FF8BDD8] CRC32
22 99,9 [5BD75917] [69963304] CRC32
23 99,9 [BED68260] [FD24B2CB] CRC32

Exact Audio Copy V1.0 beta 3 from 29. August 2011

EAC extraction logfile from 19. July 2013, 14:38

Count Basie / Classic Jazz Archive {CD2 - Rhythm Man}

Used drive : Optiarc DVD RW AD-5200A Adapter: 0 ID: 0

Read mode : Secure
Utilize accurate stream : Yes
Defeat audio cache : Yes
Make use of C2 pointers : No

Read offset correction : 48
Overread into Lead-In and Lead-Out : No
Fill up missing offset samples with silence : Yes
Delete leading and trailing silent blocks : No
Null samples used in CRC calculations : Yes
Used interface : Native Win32 interface for Win NT & 2000
Gap handling : Appended to previous track

Used output format : User Defined Encoder
Selected bitrate : 128 kBit/s
Quality : High
Add ID3 tag : No
Command line compressor : F:\Program Files\Monkey's Audio\wapet.exe
Additional command line options : %dest% -t "Genre=%genre%" -t "Artist=%artist%" -t "Title=%title%" -t "Album=%albumtitle%" -t "Year=%year%" -t "Track=%tracknr%" -t "Comment=%comment%" mac.exe %source% %dest% -c3000


TOC of the extracted CD

Track | Start | Length | Start sector | End sector
––––––––––––––––––––––––––––-
1 | 0:00.00 | 3:06.71 | 0 | 14020
2 | 3:06.71 | 3:14.16 | 14021 | 28586
3 | 6:21.12 | 4:07.41 | 28587 | 47152
4 | 10:28.53 | 2:43.54 | 47153 | 59431
5 | 13:12.32 | 2:39.57 | 59432 | 71413
6 | 15:52.14 | 4:18.42 | 71414 | 90805
7 | 20:10.56 | 3:40.22 | 90806 | 107327
8 | 23:51.03 | 3:44.17 | 107328 | 124144
9 | 27:35.20 | 4:09.40 | 124145 | 142859
10 | 31:44.60 | 3:01.45 | 142860 | 156479
11 | 34:46.30 | 4:32.51 | 156480 | 176930
12 | 39:19.06 | 5:18.68 | 176931 | 200848
13 | 44:37.74 | 5:12.27 | 200849 | 224275
14 | 49:50.26 | 2:36.21 | 224276 | 235996
15 | 52:26.47 | 5:01.74 | 235997 | 258645
16 | 57:28.46 | 3:28.40 | 258646 | 274285
17 | 60:57.11 | 3:51.42 | 274286 | 291652
18 | 64:48.53 | 3:19.61 | 291653 | 306638
19 | 68:08.39 | 3:09.37 | 306639 | 320850
20 | 71:18.01 | 3:22.07 | 320851 | 336007
21 | 74:40.08 | 2:31.13 | 336008 | 347345
22 | 77:11.21 | 2:36.19 | 347346 | 359064


Track 1

Filename F:\2004.Count Basie - Classic Jazz Archive (2CD)\CD2 - Rhythm Man\01. It's Sand, Man!.wav

Pre-gap length 0:00:02.00

Peak level 100.0 %
Extraction speed 2.3 X
Track quality 100.0 %
Test CRC A22C8FDC
Copy CRC A22C8FDC
Track not present in AccurateRip database
Copy OK

Track 2

Filename F:\2004.Count Basie - Classic Jazz Archive (2CD)\CD2 - Rhythm Man\02. For The Good Of Your Country.wav

Pre-gap length 0:00:02.00

Peak level 100.0 %
Extraction speed 2.1 X
Track quality 99.9 %
Test CRC F03F87EE
Copy CRC F03F87EE
Track not present in AccurateRip database
Copy OK

Track 3

Filename F:\2004.Count Basie - Classic Jazz Archive (2CD)\CD2 - Rhythm Man\03. Dance Of The Gremlins.wav

Pre-gap length 0:00:02.00

Peak level 99.8 %
Extraction speed 2.7 X
Track quality 100.0 %
Test CRC 5C5E53BF
Copy CRC 5C5E53BF
Track not present in AccurateRip database
Copy OK

Track 4

Filename F:\2004.Count Basie - Classic Jazz Archive (2CD)\CD2 - Rhythm Man\04. Yeah Man.wav

Pre-gap length 0:00:02.00

Peak level 100.0 %
Extraction speed 2.8 X
Track quality 100.0 %
Test CRC A56168EC
Copy CRC A56168EC
Track not present in AccurateRip database
Copy OK

Track 5

Filename F:\2004.Count Basie - Classic Jazz Archive (2CD)\CD2 - Rhythm Man\05. Rhythm Man.wav

Pre-gap length 0:00:02.00

Peak level 98.1 %
Extraction speed 2.8 X
Track quality 100.0 %
Test CRC A0928533
Copy CRC A0928533
Track not present in AccurateRip database
Copy OK

Track 6

Filename F:\2004.Count Basie - Classic Jazz Archive (2CD)\CD2 - Rhythm Man\06. Kansas City Stride.wav

Pre-gap length 0:00:02.00

Peak level 100.0 %
Extraction speed 3.2 X
Track quality 100.0 %
Test CRC C2A260EF
Copy CRC C2A260EF
Track not present in AccurateRip database
Copy OK

Track 7

Filename F:\2004.Count Basie - Classic Jazz Archive (2CD)\CD2 - Rhythm Man\07. Beaver Junction.wav

Pre-gap length 0:00:02.00

Peak level 99.9 %
Extraction speed 3.3 X
Track quality 100.0 %
Test CRC 773CB5F1
Copy CRC 773CB5F1
Track not present in AccurateRip database
Copy OK

Track 8

Filename F:\2004.Count Basie - Classic Jazz Archive (2CD)\CD2 - Rhythm Man\08. Circus In Rhythm.wav

Pre-gap length 0:00:02.00

Peak level 75.9 %
Extraction speed 3.3 X
Track quality 100.0 %
Test CRC 5D1C7E1A
Copy CRC 5D1C7E1A
Track not present in AccurateRip database
Copy OK

Track 9

Filename F:\2004.Count Basie - Classic Jazz Archive (2CD)\CD2 - Rhythm Man\09. Gee, Baby Ain't I Good To You.wav

Pre-gap length 0:00:02.00

Peak level 99.6 %
Extraction speed 3.4 X
Track quality 100.0 %
Test CRC 4A2DA40F
Copy CRC 4A2DA40F
Track not present in AccurateRip database
Copy OK

Track 10

Filename F:\2004.Count Basie - Classic Jazz Archive (2CD)\CD2 - Rhythm Man\10. Basie Strides Again (Along Avenue C).wav

Pre-gap length 0:00:02.00

Peak level 88.6 %
Extraction speed 3.0 X
Track quality 99.9 %
Test CRC F96D96D5
Copy CRC F96D96D5
Track not present in AccurateRip database
Copy OK

Track 11

Filename F:\2004.Count Basie - Classic Jazz Archive (2CD)\CD2 - Rhythm Man\11. Harvard Blues.wav

Pre-gap length 0:00:02.00

Peak level 95.0 %
Extraction speed 3.8 X
Track quality 100.0 %
Test CRC 8E9FFE62
Copy CRC 8E9FFE62
Track not present in AccurateRip database
Copy OK

Track 12

Filename F:\2004.Count Basie - Classic Jazz Archive (2CD)\CD2 - Rhythm Man\12. High Tide (I Ain't Mad At You).wav

Pre-gap length 0:00:02.00

Peak level 100.0 %
Extraction speed 4.1 X
Track quality 100.0 %
Test CRC BD69818C
Copy CRC BD69818C
Track not present in AccurateRip database
Copy OK

Track 13

Filename F:\2004.Count Basie - Classic Jazz Archive (2CD)\CD2 - Rhythm Man\13. Taps Miller.wav

Pre-gap length 0:00:02.00

Peak level 94.3 %
Extraction speed 4.2 X
Track quality 100.0 %
Test CRC A0171727
Copy CRC A0171727
Track not present in AccurateRip database
Copy OK

Track 14

Filename F:\2004.Count Basie - Classic Jazz Archive (2CD)\CD2 - Rhythm Man\14. Red Bank Boogie.wav

Pre-gap length 0:00:02.00

Peak level 88.3 %
Extraction speed 3.8 X
Track quality 100.0 %
Test CRC DD59297E
Copy CRC DD59297E
Track not present in AccurateRip database
Copy OK

Track 15

Filename F:\2004.Count Basie - Classic Jazz Archive (2CD)\CD2 - Rhythm Man\15. Playhouse No. 2 Stomp (Variations On I Got Rhythm).wav

Pre-gap length 0:00:02.00

Peak level 86.6 %
Extraction speed 4.4 X
Track quality 100.0 %
Test CRC 1A40344D
Copy CRC 1A40344D
Track not present in AccurateRip database
Copy OK

Track 16

Filename F:\2004.Count Basie - Classic Jazz Archive (2CD)\CD2 - Rhythm Man\16. Old Manuscript.wav

Pre-gap length 0:00:02.00

Peak level 97.0 %
Extraction speed 4.4 X
Track quality 100.0 %
Test CRC 10532248
Copy CRC 10532248
Track not present in AccurateRip database
Copy OK

Track 17

Filename F:\2004.Count Basie - Classic Jazz Archive (2CD)\CD2 - Rhythm Man\17. On The Upbeat.wav

Pre-gap length 0:00:02.00

Peak level 86.9 %
Extraction speed 4.6 X
Track quality 100.0 %
Test CRC 8609DB56
Copy CRC 8609DB56
Track not present in AccurateRip database
Copy OK

Track 18

Filename F:\2004.Count Basie - Classic Jazz Archive (2CD)\CD2 - Rhythm Man\18. Patience & Fortitude.wav

Pre-gap length 0:00:02.00

Peak level 100.0 %
Extraction speed 4.0 X
Track quality 99.9 %
Test CRC 03217A29
Copy CRC 03217A29
Track not present in AccurateRip database
Copy OK

Track 19

Filename F:\2004.Count Basie - Classic Jazz Archive (2CD)\CD2 - Rhythm Man\19. The King.wav

Pre-gap length 0:00:01.74

Peak level 100.0 %
Extraction speed 4.6 X
Track quality 100.0 %
Test CRC D7A27776
Copy CRC D7A27776
Track not present in AccurateRip database
Copy OK

Track 20

Filename F:\2004.Count Basie - Classic Jazz Archive (2CD)\CD2 - Rhythm Man\20. Mutton Leg.wav

Pre-gap length 0:00:02.00

Peak level 100.0 %
Extraction speed 4.8 X
Track quality 100.0 %
Test CRC 3BD24C3E
Copy CRC 3BD24C3E
Track not present in AccurateRip database
Copy OK

Track 21

Filename F:\2004.Count Basie - Classic Jazz Archive (2CD)\CD2 - Rhythm Man\21. Wild Bill's Boogie.wav

Pre-gap length 0:00:02.00

Peak level 100.0 %
Extraction speed 4.6 X
Track quality 100.0 %
Test CRC 09C732FC
Copy CRC 09C732FC
Track not present in AccurateRip database
Copy OK

Track 22

Filename F:\2004.Count Basie - Classic Jazz Archive (2CD)\CD2 - Rhythm Man\22. Seventh Avenue Express.wav

Pre-gap length 0:00:02.00

Peak level 100.0 %
Extraction speed 4.8 X
Track quality 100.0 %
Test CRC 28060C8B
Copy CRC 28060C8B
Track not present in AccurateRip database
Copy OK


None of the tracks are present in the AccurateRip database

No errors occurred

End of status report

==== Log checksum B6EB8CBA583701230D540F65D5F5D372F1FCD606499DA0D2C191DD98C0025DF9 ====

[CUETools log; Date: 30.12.2018 1:43:18; Version: 2.1.4]
[CTDB TOCID: 19tHd_AxsaECZSlgN8k8iPiqESY-] found.
Track | CTDB Status
1 | (4/4) Accurately ripped
2 | (4/4) Accurately ripped
3 | (4/4) Accurately ripped
4 | (4/4) Accurately ripped
5 | (4/4) Accurately ripped
6 | (4/4) Accurately ripped
7 | (4/4) Accurately ripped
8 | (4/4) Accurately ripped
9 | (4/4) Accurately ripped
10 | (4/4) Accurately ripped
11 | (4/4) Accurately ripped
12 | (4/4) Accurately ripped
13 | (4/4) Accurately ripped
14 | (4/4) Accurately ripped
15 | (4/4) Accurately ripped
16 | (4/4) Accurately ripped
17 | (4/4) Accurately ripped
18 | (4/4) Accurately ripped
19 | (4/4) Accurately ripped
20 | (4/4) Accurately ripped
21 | (4/4) Accurately ripped
22 | (4/4) Accurately ripped
[AccurateRip ID: 003fb3b5-040543e7-5512b316] disk not present in database.

Track Peak [ CRC32 ] [W/O NULL] [ LOG ]
– 100,0 [ADA11D30] [31CA0D4E]
01 99,9 [A22C8FDC] [B1603FFD] CRC32
02 99,9 [F03F87EE] [5F667EB9] CRC32
03 99,8 [5C5E53BF] [E0572C89] CRC32
04 100,0 [A56168EC] [3812BB9B] CRC32
05 98,1 [A0928533] [6F8CAEE6] CRC32
06 100,0 [C2A260EF] [502814FE] CRC32
07 99,9 [773CB5F1] [319C6BA2] CRC32
08 75,9 [5D1C7E1A] [98791709] CRC32
09 99,6 [4A2DA40F] [36049A6E] CRC32
10 88,6 [F96D96D5] [6A03395A] CRC32
11 95,0 [8E9FFE62] [86EEFD37] CRC32
12 100,0 [BD69818C] [553CFB97] CRC32
13 94,3 [A0171727] [3B67A987] CRC32
14 88,3 [DD59297E] [DF05E165] CRC32
15 86,6 [1A40344D] [BB138A6F] CRC32
16 97,0 [10532248] [AE7F250A] CRC32
17 86,9 [8609DB56] [563CB81C] CRC32
18 100,0 [03217A29] [5FD4008E] CRC32
19 100,0 [D7A27776] [0887E08D] CRC32
20 100,0 [3BD24C3E] [EEF750E5] CRC32
21 99,9 [09C732FC] [42F35D4B] CRC32
22 99,9 [28060C8B] [875F8794] CRC32

Thanks to ssagwebster

See also:

Count Basie - Chairman Of The Board (1959) [Reissue 2003]
Count Basie & His Orchestra - On My Way & Shoutin' Again (1962) [Reissue 2009]
Frank Sinatra & Count Basie - Sinatra-Basie: An Historic Musical First (1962)
Count Basie - Li'l Ol' Groovemaker… Basie! (1963)
Count Basie - This Time by Basie! Hits of the 50's & 60's (1963) [Reissue 2012]
Count Basie - Basie Land (1964) [Reissue 2009]
Ella Fitzgerald & Count Basie - On The Sunny Side Of The Street (1963)
Count Basie & His Orchestra - Basie's Beatle Bag (1966) [Reissue 1998]
Count Basie And His Orchestra - Basic Basie (1969)
Count Basie & Joe Turner - The Bosses (1974) [Reissue 1994]
Count Basie - Basie Big Band (1975)
Count Basie - Kansas City 5 (1977) [Reissue 1996]
Count Basie - Count Basie Jam (Montreux '77) (1977) [Reissue 1989]
Count Basie and Dizzy Gillespie - The Gifted Ones (1977) [Reissue 1996]
Oscar Peterson & Count Basie - Satch & Josh….Again (1978) [Reissue 2006]
Ella Fitzgerald & Count Basie - A Perfect Match (1979)
Ella Fitzgerald & Count Basie - A Classy Pair (1979)
Count Basie and Orchestra - On The Road (1980)
Sarah Vaughan and The Count Basie Orchestra - Send In The Clowns (1981) [Reissue 2006]
The Count Basie Kansas City Septem - Mostly Blues…and Some Others (1986)
Count Basie And His Orchestra - Rock-a-Bye Basie: Live in '38 & '39 (1991)
Count Basie - The Complete Decca Recordings [Recorded 1937-1939, 3CD Box Set] (1992)
Count Basie And His Orchestra - 1952-1953 (2005)
Count Basie - On The Sunny Side Of The Street [Recorded 1969-1970] (2006)
Count Basie And His Orchestra - 1953-1954 (2007)
Count Basie and his Orchestra - Four Classic Albums (2008)