Subcategories

Count Basie Trio - For The First Time (1974) {Pablo}

Posted By: tiburon
Count Basie Trio - For The First Time (1974) {Pablo}

Count Basie Trio - For The First Time (1974) {Pablo}
EAC 0.99pb5 | FLAC Image level 6 | Cue+Log | Full Scans 300dpi | 246MB + 5% Recovery
MP3 CBR 320 Kbps | 132MB + 5% Recovery
Genre: Straight-Ahead Jazz, Post-Bop
Count Basie Trio - For The First Time (1974) {Pablo}

Throughout his career, Count Basie was modest about his own abilities as a pianist, and his success at streamlining his style to the bare essentials often made listeners underrate his playing talents. This 1974 session was a rarity, an opportunity for Basie to be featured in a trio setting (with bassist Ray Brown and drummer Louie Bellson), during which he provides enough variety to hold one's interest and enough technique to lead many to reassess his piano skills.
Track List
01. Baby Lawrence (3:12)
02. Pres (3:29)
03. I'll Always Be In Love With You (5:56)
04. Blues In The Church (5:01)
05. Lady Be Good (Concept I) (5:32)
06. Lady Be Good (Concept II) (3:59)
07. Blues In The Alley (6:45)
08. As Long As I Live (3:34)
09. Song Of The Islands (4:53)
10. Royal Garden Blues (4:30)
11. (Un) Easy Does It (4:09)
12. O.P. (4:50)

musicians
Count Basie - piano, organ
Ray Brown - bass
Louis Bellson - drums

Prouced by Norman Granz


Exact Audio Copy V0.99 prebeta 5 from 4. May 2009

EAC extraction logfile from 17. December 2010, 7:32

The Count Basie Trio / For The First Time

Used drive : _NEC DVD_RW ND-3500AG Adapter: 0 ID: 0

Read mode : Secure
Utilize accurate stream : Yes
Defeat audio cache : Yes
Make use of C2 pointers : No

Read offset correction : 48
Overread into Lead-In and Lead-Out : No
Fill up missing offset samples with silence : Yes
Delete leading and trailing silent blocks : No
Null samples used in CRC calculations : Yes
Used interface : Native Win32 interface for Win NT & 2000

Used output format : User Defined Encoder
Selected bitrate : 768 kBit/s
Quality : High
Add ID3 tag : No
Command line compressor : C:\Program Files\Exact Audio Copy\FLAC\FLAC.EXE
Additional command line options : -6 -V -T "ARTIST=%a" -T "TITLE=%t" -T "ALBUM=%g" -T "DATE=%y" -T "TRACKNUMBER=%n" -T "GENRE=%m" -T "COMMENT=%e" %s -o %d


TOC of the extracted CD

Track | Start | Length | Start sector | End sector
––––––––––––––––––––––––––––-
1 | 0:00.00 | 3:12.07 | 0 | 14406
2 | 3:12.07 | 3:29.20 | 14407 | 30101
3 | 6:41.27 | 5:56.23 | 30102 | 56824
4 | 12:37.50 | 5:01.05 | 56825 | 79404
5 | 17:38.55 | 5:32.20 | 79405 | 104324
6 | 23:11.00 | 3:59.17 | 104325 | 122266
7 | 27:10.17 | 6:44.68 | 122267 | 152634
8 | 33:55.10 | 3:34.27 | 152635 | 168711
9 | 37:29.37 | 4:53.13 | 168712 | 190699
10 | 42:22.50 | 4:29.42 | 190700 | 210916
11 | 46:52.17 | 4:09.18 | 210917 | 229609
12 | 51:01.35 | 4:50.02 | 229610 | 251361


Range status and errors

Selected range

Filename J:\eMusic\Rip\The Count Basie Trio - For The First Time.wav

Peak level 91.5 %
Range quality 100.0 %
Test CRC 7CAE37CC
Copy CRC 7CAE37CC
Copy OK

No errors occurred


AccurateRip summary

Track 1 accurately ripped (confidence 1) [0C678D3F]
Track 2 accurately ripped (confidence 1) [1D4C8FE6]
Track 3 accurately ripped (confidence 1) [DAA9DE5B]
Track 4 accurately ripped (confidence 1) [E7DA7D7C]
Track 5 accurately ripped (confidence 1) [4E2602A5]
Track 6 accurately ripped (confidence 1) [4DF4394D]
Track 7 accurately ripped (confidence 1) [B618E0D1]
Track 8 accurately ripped (confidence 1) [ACEE4814]
Track 9 accurately ripped (confidence 1) [C491DF93]
Track 10 accurately ripped (confidence 1) [956A6767]
Track 11 accurately ripped (confidence 1) [A67B9B54]
Track 12 accurately ripped (confidence 1) [180E8E67]

All tracks accurately ripped

End of status report


––––––––––––––––––––––––––––––––––––––––
Analyzed: The Count Basie Trio / For The First Time
––––––––––––––––––––––––––––––––––––––––

DR Peak RMS Duration Track
––––––––––––––––––––––––––––––––––––––––
DR14 -2.40 dB -20.45 dB 3:12 01-Baby Lawrence
DR14 -3.03 dB -21.75 dB 3:29 02-Pres
DR14 -5.69 dB -22.22 dB 5:56 03-I'll Always Be In Love With You
DR15 -0.77 dB -21.55 dB 5:01 04-Blues In The Church
DR16 -2.33 dB -21.64 dB 5:32 05-Lady Be Good (Concept I)
DR14 -4.31 dB -22.17 dB 3:59 06-Lady Be Good (Concept II)
DR15 -4.09 dB -22.63 dB 6:45 07-Blues In The Alley
DR14 -4.10 dB -21.74 dB 3:34 08-As Long As I Live
DR15 -1.14 dB -20.73 dB 4:53 09-Song Of The Islands
DR13 -3.97 dB -20.64 dB 4:30 10-Royal Garden Blues
DR14 -5.45 dB -22.07 dB 4:09 11-(Un) Easy Does It
DR16 -3.38 dB -22.43 dB 4:50 12-O.P.
––––––––––––––––––––––––––––––––––––––––

Number of tracks: 12
Official DR value: DR14

Samplerate: 44100 Hz
Channels: 2
Bits per sample: 16
Bitrate: 607 kbps
Codec: FLAC
================================================================================

Count Basie Trio - For The First Time (1974) {Pablo}
Count Basie Trio - For The First Time (1974) {Pablo}
Count Basie Trio - For The First Time (1974) {Pablo}


Thanks to the original ripper