Subcategories

Cradle Of Filth - Cryptoriana - The Seductiveness Of Decay (2017) [Limited Edition, Digipak]

Posted By: Andi_Deris
Cradle Of Filth - Cryptoriana - The Seductiveness Of Decay (2017) [Limited Edition, Digipak]

Cradle Of Filth - Cryptoriana - The Seductiveness Of Decay (2017) [Limited Edition, Digipak]
EAC Rip | FLAC: Image+Cue+Log | 499 Mb | Scans | 47 Mb | 01:05:50
Nuclear Blast | NB 3805-0 27361 38050
Extreme Gothic Metal/Symphonic Black Metal

A monstrous tour-de-force of utterly distinctive but reassuringly destructive heavy fucking metal, laced with spectral disquiet but delivered with muscular aplomb, »Cryptoriana« was conceived during the summer of 2016 as CRADLE OF FILTH convened in Ashok and Škaroupka’s native Czech Republic, before being meticulously pieced together by the band and now long-time producer Scott Atkins back in the UK during the first half of 2017. From the exhilarating melodrama of opening two-fisted salvo 'Exquisite Torments Await' and 'Heartbreak And Seance' onwards, the twelfth CRADLE album manifestly represents yet another wild expansion of the band’s sonic manifesto across nine epic and elaborate new anti-hymns and, as Dani mentions, a fervent blast through Canadian thrash legends ANNIHILATOR’s ageless 'Alison Hell'. From 'Achingly Beautiful'’s synapse-scorching holocaust of the heart to the flesh-ripping, thrash-driven grandeur of 'Wester, Vespertine' and the pitch-black lysergic gargoyle attack of 'You Will Know The Lion By His Claw', »Cryptoriana« is simply the most musically and visually startling record in CRADLE’s history; one that grittily upholds the band’s tradition of conjuring warped narratives that linger long in the memory.

Cradle Of Filth - Cryptoriana - The Seductiveness Of Decay (2017) [Limited Edition, Digipak]




Track Listing

01. Exquisite Torments Await (02:15)
02. Heartbreak And Seance (06:26)
03. Achingly Beautiful (07:04)
04. Wester Vespertine (07:31)
05. The Seductiveness Of Decay (07:41)
06. Vengeful Spirit (06:02)
07. You Will Know The Lion By His Claw (07:25)
08. Death And The Maiden (08:50)

Bonus Tracks
09. The Night At Catafalque Manor (07:33)
10. Alison Hell (Annihilator cover) (05:02)

Produced by Scott Atkins

The Band

• Dani Filth - lead vocals
• Richard Shaw - guitar
• Marek 'Ashok' Šmerda - guitar
• Daniel Firth - bass guitar
• Lindsay Schoolcraft - narrative vocals
• Martin Marthus Škaroupka - drums, keyboards, orchestration

*****
Liv Kristine - female vocals on "Vengeful Spirit"

Exact Audio Copy V1.1 from 23. June 2015

EAC extraction logfile from 21. September 2017, 10:56

Cradle Of Filth / Cryptoriana - The Seductiveness Of Decay

Used drive : HP DVD Writer 1170d Adapter: 1 ID: 1

Read mode : Secure
Utilize accurate stream : Yes
Defeat audio cache : Yes
Make use of C2 pointers : No

Read offset correction : 6
Overread into Lead-In and Lead-Out : No
Fill up missing offset samples with silence : Yes
Delete leading and trailing silent blocks : No
Null samples used in CRC calculations : Yes
Used interface : Native Win32 interface for Win NT & 2000

Used output format : User Defined Encoder
Selected bitrate : 1024 kBit/s
Quality : High
Add ID3 tag : No
Command line compressor : C:\Program Files (x86)\Exact Audio Copy\Flac\flac.exe
Additional command line options : -V -8 -T "Date=%year%" -T "Genre=%genre%" %source%


TOC of the extracted CD

Track | Start | Length | Start sector | End sector
––––––––––––––––––––––––––––-
1 | 0:00.00 | 2:15.30 | 0 | 10154
2 | 2:15.30 | 6:26.12 | 10155 | 39116
3 | 8:41.42 | 7:04.17 | 39117 | 70933
4 | 15:45.59 | 7:31.22 | 70934 | 104780
5 | 23:17.06 | 7:40.48 | 104781 | 139328
6 | 30:57.54 | 6:02.34 | 139329 | 166512
7 | 37:00.13 | 7:24.62 | 166513 | 199874
8 | 44:25.00 | 8:50.05 | 199875 | 239629
9 | 53:15.05 | 7:33.18 | 239630 | 273622
10 | 60:48.23 | 5:01.61 | 273623 | 296258


Range status and errors

Selected range

Filename C:\EAC\Ungern666\Cradle Of Filth - Cryptoriana - The Seductiveness Of Decay.wav

Peak level 96.8 %
Extraction speed 7.3 X
Range quality 99.9 %
Test CRC DA79634C
Copy CRC DA79634C
Copy OK

No errors occurred


AccurateRip summary

Track 1 not present in database
Track 2 not present in database
Track 3 not present in database
Track 4 not present in database
Track 5 not present in database
Track 6 not present in database
Track 7 not present in database
Track 8 not present in database
Track 9 not present in database
Track 10 not present in database

None of the tracks are present in the AccurateRip database

End of status report

–– CUETools DB Plugin V2.1.6

[CTDB TOCID: t_7uG.ssP_CTct6ydyymhVEZLTg-] found
Submit result: t_7uG.ssP_CTct6ydyymhVEZLTg- has been confirmed
Track | CTDB Status
1 | (1/1) Accurately ripped
2 | (1/1) Accurately ripped
3 | (1/1) Accurately ripped
4 | (1/1) Accurately ripped
5 | (1/1) Accurately ripped
6 | (1/1) Accurately ripped
7 | (1/1) Accurately ripped
8 | (1/1) Accurately ripped
9 | (1/1) Accurately ripped
10 | (1/1) Accurately ripped


==== Log checksum D28BA7630212F8D9BD2187534AFDC51CD8D1A00D1869C9B453AF1BBEED19660B ====


Many thanks to the original uploader: ungern666

SEE also:
Cradle Of Filth 2012 The Manticore And Other Horrors [Limited Ed.]



Password: pass