Subcategories

Cradle Of Filth - Dusk... And Her Embrace - The Original Sin (2016)

Posted By: apocalipsys2014
Cradle Of Filth - Dusk... And Her Embrace - The Original Sin (2016)

Cradle Of Filth - Dusk… And Her Embrace - The Original Sin (2016)
Year & Label: 2016, | CD#: Cacophonous Records #NIHIL 46CD
Flac (image) | MP3 CBR 320 Kbps | Artwork (JPG, 300 dpi) | File-hosts: Nitroflare.com
Black/Extreme Gothic Metal | FLAC: 550 MB | Artwork: 50 MB | MP3: 180 MB | 5% WinRAR Recovery

EAC Secure-rip with LOG+CUE+COVERS | Source: eMule

Recorded at Birmingham's Zella Studios in the Spring of 1995, 'DUSK… AND HER EMBRACE - THE ORIGINAL SIN' saw CRADLE OF FILTH introduce Gothic elements to their extreme sound, focusing on decadent vampyric romanticism, death and loss, and forbidden love. However soon after recording the band split, half of the band forming The Blood Divine, and the remaining members made the collective decision at the time to not release a record that was not representative of the new line-up.

Now with the resurrection of Cacophonous, 'DUSK… AND HER EMBRACE - THE ORIGINAL SIN' will see the light of day. Re-mastered by Scott Atkins at Ipswich's Grindstone Studio, the record comprises of 10 studio album tracks, 2 bonus demo tracks and artwork by Drake Mefestta. Guest vocal appearances come from Cronos (Venom) and Steve Grimmett (Grim Reaper).

www.metal-archives.com
Musicians:

Vocals : Daniel Lloyd Davey
Guitars : Paul Ryan
Guitars : Paul Allender
Bass : Jon Kennedy
Drums : Nicholas Barker
Keyboards : Benjamin Ryan

Recorded at Zella Studios, Birmingham in 1995.
Mastered by Scott Atknis at Grindstone Sutdios, Suffolk.

Track List:

01. Macabre, This Banquet [1:33]
02. Nocturnal Supremacy [6:04]
03. Heaven Torn Asunder [6:56]
04. Dusk And Her Embrace [6:14]
05. A Gothic Romance [8:46]
06. The Graveyard By Moonlight [2:02]
07. Funeral In Carpathia [8:21]
08. Beauty Slept In Sodom [6:36]
09. The Haunted Shores Of Avalon [7:12]
10. Carmilla's Masque [2:59]
11. A Gothic Romance (Demo) [8:25]
12. Nocturnal Supremacy (Demo) [6:15]

Exact Audio Copy V1.1 from 23. June 2015

EAC extraction logfile from 17. July 2016, 18:11

Cradle Of Filth / Dusk… And Her Embrace - The Original Sin

Used drive : PIONEER BD-RW BDR-206D Adapter: 1 ID: 0

Read mode : Secure
Utilize accurate stream : Yes
Defeat audio cache : Yes
Make use of C2 pointers : No

Read offset correction : 667
Overread into Lead-In and Lead-Out : No
Fill up missing offset samples with silence : Yes
Delete leading and trailing silent blocks : No
Null samples used in CRC calculations : Yes
Used interface : Native Win32 interface for Win NT & 2000

Used output format : User Defined Encoder
Selected bitrate : 896 kBit/s
Quality : High
Add ID3 tag : No
Command line compressor : C:\Progs\!Portable\Exact Audio Copy\Flac\flac.exe
Additional command line options : -8 -V -T "ARTIST=%artist%" -T "TITLE=%title%" -T "ALBUM=%albumtitle%" -T "DATE=%year%" -T "TRACKNUMBER=%tracknr%" -T "GENRE=%genre%" -T "PERFORMER=%albuminterpret%" -T "COMPOSER=%composer%" %haslyrics%–tag-from-file=LYRICS="%lyricsfile%"%haslyrics% -T "ALBUMARTIST=%albumartist%" -T "DISCNUMBER=%cdnumber%" -T "TOTALDISCS=%totalcds%" -T "TOTALTRACKS=%numtracks%" -T "COMMENT=%comment%" %source% -o %dest%


TOC of the extracted CD

Track | Start | Length | Start sector | End sector
––––––––––––––––––––––––––––-
1 | 0:00.00 | 1:33.10 | 0 | 6984
2 | 1:33.10 | 6:03.60 | 6985 | 34269
3 | 7:36.70 | 6:55.51 | 34270 | 65445
4 | 14:32.46 | 6:13.67 | 65446 | 93487
5 | 20:46.38 | 8:45.65 | 93488 | 132927
6 | 29:32.28 | 2:02.18 | 132928 | 142095
7 | 31:34.46 | 8:20.58 | 142096 | 179653
8 | 39:55.29 | 6:35.64 | 179654 | 209342
9 | 46:31.18 | 7:11.40 | 209343 | 241707
10 | 53:42.58 | 2:59.35 | 241708 | 255167
11 | 56:42.18 | 8:25.17 | 255168 | 293059
12 | 65:07.35 | 6:14.46 | 293060 | 321155


Range status and errors

Selected range

Filename D:\Temp\Cradle Of Filth - 2016 - Dusk… And Her Embrace - The Original Sin\Cradle Of Filth - 2016 - Dusk… And Her Embrace - The Original Sin.wav

Peak level 100.0 %
Extraction speed 7.7 X
Range quality 100.0 %
Test CRC A7B5C4BD
Copy CRC A7B5C4BD
Copy OK

No errors occurred


AccurateRip summary

Track 1 not present in database
Track 2 not present in database
Track 3 not present in database
Track 4 not present in database
Track 5 not present in database
Track 6 not present in database
Track 7 not present in database
Track 8 not present in database
Track 9 not present in database
Track 10 not present in database
Track 11 not present in database
Track 12 not present in database

None of the tracks are present in the AccurateRip database

End of status report

–– CUETools DB Plugin V2.1.6

[CTDB TOCID: gtUKh7sg7qXlV8r8hQ0pkll7pRw-] found
Submit result: gtUKh7sg7qXlV8r8hQ0pkll7pRw- has been confirmed
Track | CTDB Status
1 | (6/6) Accurately ripped
2 | (6/6) Accurately ripped
3 | (6/6) Accurately ripped
4 | (6/6) Accurately ripped
5 | (6/6) Accurately ripped
6 | (6/6) Accurately ripped
7 | (6/6) Accurately ripped
8 | (6/6) Accurately ripped
9 | (6/6) Accurately ripped
10 | (6/6) Accurately ripped
11 | (6/6) Accurately ripped
12 | (6/6) Accurately ripped


==== Log checksum 05B07D45146FF4B828CF510E0BB099A755F6C0F525CCE24DB5286E8304456D69 ====


Not my rip, not my scan-job. Thx very much to the original uploader acmodeu [MMT]!
5% WinRar Recovery Record for all files.
Try before you might buy. Support the artists you like and buy their stuff whenever you can afford it.
FLAC, image + atrwork or mp3 at Nitroflare.com:
FLAC | Artwork | Mp3 320 kbps