Subcategories
Tags
Language
Tags

Creedence Clearwater Revival - Cosmo's Factory (1970) {2008, Remastered, 40th Anniversary Edition} Re-Up

Posted By: popsakov
Creedence Clearwater Revival - Cosmo's Factory (1970) {2008, Remastered, 40th Anniversary Edition} Re-Up

Creedence Clearwater Revival - Cosmo's Factory (1970) {2008, Remastered, 40th Anniversary Edition}
EAC Rip | FLAC (Img) + Cue + Log ~ 371 Mb | MP3 CBR320 ~ 129 Mb
Full Scans ~ 44 Mb | 00:53:26 | RAR 5% Recovery
Roots Rock / Blues Rock / Southern Rock / Classic Rock / Rock & Roll
Fantasy Records #0888072308800

Cosmo's Factory is the fifth studio album by American rock band Creedence Clearwater Revival, released by Fantasy Records in 1970. The name of the album comes from the warehouse in Berkeley where the band rehearsed early in their career. It was dubbed "The Factory" by drummer Doug "Cosmo" Clifford, because bandleader John Fogerty made them practice there almost every day. The album was certified Gold by the Recording Industry Association of America on December 16, 1970. Almost twenty years later, on December 13, 1990, it received a certification of four times platinum with sales of over four million copies.

Throughout 1969 and into 1970, CCR toured incessantly and recorded nearly as much. Appropriately, Cosmo's Factory's first single was the working band's anthem "Travelin' Band," a funny, piledriving rocker with a blaring horn section – the first indication their sonic palette was broadening. Two more singles appeared prior to the album's release, backed by John Fogerty originals that rivaled the A-side or paled just slightly. When it came time to assemble a full album, Fogerty had only one original left, the claustrophobic, paranoid rocker "Ramble Tamble." Unlike some extended instrumentals, this was dramatic and had a direction – a distinction made clear by the meandering jam that brings CCR's version of "I Heard It Through the Grapevine" to 11 minutes. Even if it wanders, their take on the Marvin Gaye classic isn't unpleasant, and their faithful, exuberant takes on the Sun classics "Ooby Dooby" and "My Baby Left Me" are joyous tributes. Still, the heart of the album lays in those six fantastic songs released on singles. "Up Around the Bend" is a searing rocker, one of their best, balanced by the menacing murkiness of "Run Through the Jungle." "Who'll Stop the Rain"'s poignant melody and melancholy undertow has a counterpart in Fogerty's dope song, "Lookin' out My Back Door," a charming, bright shuffle, filled with dancing animals and domestic bliss - he had never been as sweet and silly as he is here. On "Long as I Can See the Light," the record's final song, he again finds solace in home, anchored by a soulful, laid-back groove. It hits a comforting, elegiac note, the perfect way to draw Cosmo's Factory – an album made during stress and chaos, filled with raging rockers, covers, and intense jams – to a close.

~ Stephen Thomas Erlewine, All Music

***************

Creedence Clearwater Revival - Cosmo's Factory (1970) {2008, Remastered, 40th Anniversary Edition} Re-Up

Track List:

01. Ramble Tamble [7:11]
02. Before You Accuse Me [3:27]
03. Travelin' Band [2:07]
04. Ooby Dooby [2:07]
05. Lookin' Out My Back Door [2:32]
06. Run Through the Jungle [3:05]
07. Up Around the Bend [2:41]
08. My Baby Left Me [2:19]
09. Who'll Stop the Rain [2:27]
10. I Heard It Through The Grapevine [11:03]
11. Long As I Can See the Light [3:31]
12. Travelin' Band (Remake Take) [2:15]
13. Up Around the Bend (Live in Amsterdam, 09-10-71) [2:42]
14. Born on the Bayou (feat. Booker T. & The MGs at Fantasy Studios, 1970) [5:58]

Personnel:
John Fogerty - lead guitar, lead vocals, piano, electric piano, keyboards, saxophone, harmonica
Tom Fogerty - rhythm guitar, backing vocals
Stu Cook - bass, backing vocals
Doug Clifford - drums, cowbell

Exact Audio Copy V1.3 from 2. September 2016

EAC extraction logfile from 14. September 2018, 17:51

Creedence Clearwater Revival / Cosmo's Factory

Used drive : TSSTcorpCDDVDW TS-L633B Adapter: 1 ID: 0

Read mode : Secure
Utilize accurate stream : Yes
Defeat audio cache : Yes
Make use of C2 pointers : No

Read offset correction : 6
Overread into Lead-In and Lead-Out : No
Fill up missing offset samples with silence : Yes
Delete leading and trailing silent blocks : No
Null samples used in CRC calculations : Yes
Used interface : Native Win32 interface for Win NT & 2000

Used output format : Internal WAV Routines
Sample format : 44.100 Hz; 16 Bit; Stereo


TOC of the extracted CD

Track | Start | Length | Start sector | End sector
––––––––––––––––––––––––––––-
1 | 0:00.00 | 7:11.17 | 0 | 32341
2 | 7:11.17 | 3:26.42 | 32342 | 47833
3 | 10:37.59 | 2:07.37 | 47834 | 57395
4 | 12:45.21 | 2:07.04 | 57396 | 66924
5 | 14:52.25 | 2:32.34 | 66925 | 78358
6 | 17:24.59 | 3:04.56 | 78359 | 92214
7 | 20:29.40 | 2:41.35 | 92215 | 104324
8 | 23:11.00 | 2:18.38 | 104325 | 114712
9 | 25:29.38 | 2:27.37 | 114713 | 125774
10 | 27:57.00 | 11:02.58 | 125775 | 175482
11 | 38:59.58 | 3:30.65 | 175483 | 191297
12 | 42:30.48 | 2:15.35 | 191298 | 201457
13 | 44:46.08 | 2:41.59 | 201458 | 213591
14 | 47:27.67 | 5:58.17 | 213592 | 240458


Range status and errors

Selected range

Filename F:\Alexharvey\Creedence Clearwater Revival - Cosmo's Factory.wav

Peak level 98.8 %
Extraction speed 2.8 X
Range quality 99.9 %
Test CRC 8E35342D
Copy CRC 8E35342D
Copy OK

No errors occurred


AccurateRip summary

Track 1 accurately ripped (confidence 200) [E2675171] (AR v2)
Track 2 accurately ripped (confidence 200) [D051199A] (AR v2)
Track 3 accurately ripped (confidence 200) [C4796356] (AR v2)
Track 4 accurately ripped (confidence 200) [B187832E] (AR v2)
Track 5 accurately ripped (confidence 200) [D4A53C29] (AR v2)
Track 6 accurately ripped (confidence 200) [C5CB50BC] (AR v2)
Track 7 accurately ripped (confidence 200) [452424BF] (AR v2)
Track 8 accurately ripped (confidence 200) [E12A5AFA] (AR v2)
Track 9 accurately ripped (confidence 200) [84E79395] (AR v2)
Track 10 accurately ripped (confidence 200) [74E29F58] (AR v2)
Track 11 accurately ripped (confidence 200) [4B236692] (AR v2)
Track 12 accurately ripped (confidence 200) [F1B63683] (AR v2)
Track 13 accurately ripped (confidence 200) [7E6EB627] (AR v2)
Track 14 accurately ripped (confidence 200) [8038041B] (AR v2)

All tracks accurately ripped

End of status report

–– CUETools DB Plugin V2.1.6

[CTDB TOCID: hIsMX8CQadDktR7Cos3k8QMoXwU-] found
Submit result: hIsMX8CQadDktR7Cos3k8QMoXwU- has been confirmed
Track | CTDB Status
1 | (502/507) Accurately ripped
2 | (505/507) Accurately ripped
3 | (505/507) Accurately ripped
4 | (506/507) Accurately ripped
5 | (505/507) Accurately ripped
6 | (506/507) Accurately ripped
7 | (506/507) Accurately ripped
8 | (506/507) Accurately ripped
9 | (506/507) Accurately ripped
10 | (504/507) Accurately ripped
11 | (506/507) Accurately ripped
12 | (506/507) Accurately ripped
13 | (506/507) Accurately ripped
14 | (505/507) Accurately ripped


==== Log checksum 0DB89C9BB22A9BAA8019693A47B70281F6069BF32456BA67040643B263C350C4 ====

foobar2000 1.3.19 / Dynamic Range Meter 1.1.1
log date: 2018-09-14 20:32:33

––––––––––––––––––––––––––––––––––––––––
Analyzed: Creedence Clearwater Revival / Cosmo's Factory
––––––––––––––––––––––––––––––––––––––––

DR Peak RMS Duration Track
––––––––––––––––––––––––––––––––––––––––
DR8 -0.10 dB -9.97 dB 7:11 01-Ramble Tamble
DR10 -0.10 dB -11.65 dB 3:27 02-Before You Accuse Me
DR10 -0.10 dB -10.82 dB 2:07 03-Travelin' Band
DR9 -0.10 dB -10.81 dB 2:07 04-Ooby Dooby
DR8 -0.10 dB -10.19 dB 2:32 05-Lookin' Out My Back Door
DR9 -0.10 dB -10.47 dB 3:05 06-Run Through the Jungle
DR9 -0.10 dB -9.93 dB 2:41 07-Up Around the Bend
DR9 -0.10 dB -10.74 dB 2:19 08-My Baby Left Me
DR9 -0.10 dB -10.53 dB 2:27 09-Who'll Stop the Rain
DR8 -0.10 dB -9.83 dB 11:03 10-I Heard It Through The Grapevine
DR9 -0.10 dB -11.41 dB 3:31 11-Long As I Can See the Light
DR8 -0.10 dB -9.60 dB 2:15 12-Travelin' Band (Remake Take)
DR10 -0.10 dB -10.83 dB 2:42 13-Up Around the Bend (Live in Amsterdam, 09-10-71)
DR8 -0.10 dB -8.88 dB 5:58 14-Born on the Bayou (feat. Booker T. & The MGs at Fantasy Studios, 1970)
––––––––––––––––––––––––––––––––––––––––

Number of tracks: 14
Official DR value: DR9

Samplerate: 44100 Hz
Channels: 2
Bits per sample: 16
Bitrate: 921 kbps
Codec: FLAC
================================================================================

[CUETools log; Date: 14.09.2018 20:32:55; Version: 2.1.6]
[CTDB TOCID: hIsMX8CQadDktR7Cos3k8QMoXwU-] found.
Track | CTDB Status
1 | (503/508) Accurately ripped
2 | (506/508) Accurately ripped
3 | (506/508) Accurately ripped
4 | (507/508) Accurately ripped
5 | (506/508) Accurately ripped
6 | (507/508) Accurately ripped
7 | (507/508) Accurately ripped
8 | (507/508) Accurately ripped
9 | (507/508) Accurately ripped
10 | (505/508) Accurately ripped
11 | (507/508) Accurately ripped
12 | (507/508) Accurately ripped
13 | (507/508) Accurately ripped
14 | (506/508) Accurately ripped
[AccurateRip ID: 001a955e-01199936-d10c860e] found.
Track [ CRC | V2 ] Status
01 [e2a407f3|e2675171] (167+200/374) Accurately ripped
02 [f94214d1|d051199a] (167+200/374) Accurately ripped
03 [dad9dbfa|c4796356] (168+200/375) Accurately ripped
04 [b34ea5de|b187832e] (170+200/376) Accurately ripped
05 [0a003153|d4a53c29] (169+200/376) Accurately ripped
06 [0363fd30|c5cb50bc] (170+200/377) Accurately ripped
07 [ee22deb8|452424bf] (169+200/375) Accurately ripped
08 [bceb02bd|e12a5afa] (169+200/375) Accurately ripped
09 [9107b689|84e79395] (169+200/376) Accurately ripped
10 [ea07f2f9|74e29f58] (164+200/373) Accurately ripped
11 [4f7f72da|4b236692] (170+200/377) Accurately ripped
12 [77a411d3|f1b63683] (167+200/374) Accurately ripped
13 [9465a878|7e6eb627] (166+200/373) Accurately ripped
14 [f96b9a36|8038041b] (160+200/367) Accurately ripped
Offsetted by -676:
01 [e919ae5b] (002/374) Accurately ripped
02 [60d69b6d] (002/374) Accurately ripped
03 [575bebc4] (002/375) Accurately ripped
04 [f8bada27] (002/376) Accurately ripped
05 [c21b986d] (002/376) Accurately ripped
06 [99652122] (002/377) Accurately ripped
07 [07bd8911] (002/375) Accurately ripped
08 [66547ea6] (002/375) Accurately ripped
09 [cab29475] (002/376) Accurately ripped
10 [c142299f] (002/373) Accurately ripped
11 [36663189] (002/377) Accurately ripped
12 [b4c61c27] (002/374) Accurately ripped
13 [4558f3dd] (002/373) Accurately ripped
14 [9c17eebb] (002/367) Accurately ripped
Offsetted by -18:
01 [e8e500f2] (002/374) Accurately ripped
02 [8c2250bb] (002/374) Accurately ripped
03 [bcb973b4] (002/375) Accurately ripped
04 [50dd836e] (002/376) Accurately ripped
05 [7d4d07df] (002/376) Accurately ripped
06 [013bdcef] (002/377) Accurately ripped
07 [6818ceb1] (002/375) Accurately ripped
08 [e453e0b3] (002/375) Accurately ripped
09 [12e58dbb] (002/376) Accurately ripped
10 [64c97cb3] (002/373) Accurately ripped
11 [38ace278] (002/377) Accurately ripped
12 [17471fe4] (002/374) Accurately ripped
13 [24a41d2d] (002/373) Accurately ripped
14 [c872d3b7] (002/367) Accurately ripped
Offsetted by 6:
01 [3a03cd97] (003/374) Accurately ripped
02 [c91c57dd] (003/374) Accurately ripped
03 [14fa24c0] (003/375) Accurately ripped
04 [048531eb] (002/376) Accurately ripped
05 [d9af71b3] (003/376) Accurately ripped
06 [28caf7f4] (003/377) Accurately ripped
07 [1a32afcb] (002/375) Accurately ripped
08 [d2eaa8a2] (002/375) Accurately ripped
09 [262b0425] (003/376) Accurately ripped
10 [c748b2d7] (003/373) Accurately ripped
11 [12f7d985] (003/377) Accurately ripped
12 [edd15d8e] (003/374) Accurately ripped
13 [1e9495cf] (003/373) Accurately ripped
14 [09b38732] (003/367) Accurately ripped

Track Peak [ CRC32 ] [W/O NULL] [ LOG ]
– 98,8 [8E35342D] [617B9F69] CRC32
01 98,8 [64650B50] [5CDDA781]
02 98,8 [58F45012] [F991CA32]
03 98,8 [4359F0C0] [A1EA4C1E]
04 98,8 [7F9E000F] [57D6E89D]
05 98,8 [59CFA1E4] [D7261262]
06 98,8 [1B9FF194] [E876AACE]
07 98,8 [63C3749D] [18ACB050]
08 98,8 [5E1BF994] [0F528A79]
09 98,8 [84A565A8] [DF1D47DD]
10 98,8 [1F731CE8] [F9CB5557]
11 98,8 [305FA875] [76204CAB]
12 98,8 [8A2C2047] [BAA27391]
13 98,8 [0F9C15BC] [16C6E62D]
14 98,8 [DA7523F0] [A3C667D5]

Creedence Clearwater Revival - Cosmo's Factory (1970) {2008, Remastered, 40th Anniversary Edition} Re-Up


All thanks go to Alexharvey

>>> CCR in my Blog <<<

DOWNLOAD: