Subcategories

Creedence Clearwater Revival - Greatest Hits (1992)

Posted By: popsakov
Creedence Clearwater Revival - Greatest Hits (1992)

Creedence Clearwater Revival - Greatest Hits (1992)
EAC Rip | FLAC (Img) + Cue + Log ~ 448 Mb | MP3 CBR320 ~ 172 Mb
Scans Included (JPG, 300 dpi) | RAR 5% Recovery
Classic Rock | Universe #UN 3 117

Creedence Clearwater Revival was an American rock band active in the late 1960s and early 1970s. The band consisted of lead vocalist, lead guitarist, and primary songwriter John Fogerty, his brother rhythm guitarist Tom Fogerty, bassist Stu Cook and drummer Doug Clifford. Their musical style encompassed the roots rock, swamp rock, and blues rock genres. Despite their San Francisco Bay Area origins, they played in a Southern rock style, with lyrics about bayous, catfish, the Mississippi River, and other popular elements of Southern United States iconography, as well as political and socially-conscious lyrics about topics including the Vietnam War. The band performed at 1969's famed Woodstock Festival. The band has sold 26 million albums in the United States alone. Rolling Stone ranked the band 82nd on its list of the 100 greatest artists of all time.

***************

Creedence Clearwater Revival - Greatest Hits (1992)

Track List:

01. Suzie Q [8:39]
02. Born On The Bayou [5:18]
03. Gloomy [3:52]
04. Penthouse Pauper [3:41]
05. Walk On The Water [4:43]
06. Porterville [2:26]
07. Good Golly Miss Molly [2:44]
08. Graveyard Train [8:39]
09. Bad Moon Rising [2:23]
10. Get Down Woman [3:11]
11. The Working Man [3:06]
12. Keep On Chooglin' [7:44]
13. Bootleg [3:04]
14. 99 1/2 (Won't Do) [3:40]
15. I Put A Spell On You [4:34]
16. Proud Mary [3:06]

Exact Audio Copy V1.0 beta 3 from 29. August 2011

EAC extraction logfile from 24. March 2017, 10:11

Creedence Clearwater Revival / Greatest Hits

Used drive : TSSTcorpCDDVDW SH-216DB Adapter: 0 ID: 0

Read mode : Secure
Utilize accurate stream : Yes
Defeat audio cache : Yes
Make use of C2 pointers : No

Read offset correction : 6
Overread into Lead-In and Lead-Out : No
Fill up missing offset samples with silence : Yes
Delete leading and trailing silent blocks : No
Null samples used in CRC calculations : Yes
Used interface : Native Win32 interface for Win NT & 2000

Used output format : User Defined Encoder
Selected bitrate : 1024 kBit/s
Quality : High
Add ID3 tag : No
Command line compressor : C:\Program Files (x86)\Exact Audio Copy\Flac\flac.exe
Additional command line options : -V -8 -T "Date=%year%" -T "Genre=%genre%" %source%


TOC of the extracted CD

Track | Start | Length | Start sector | End sector
––––––––––––––––––––––––––––-
1 | 0:00.10 | 8:38.55 | 10 | 38914
2 | 8:38.65 | 5:17.53 | 38915 | 62742
3 | 13:56.43 | 3:51.57 | 62743 | 80124
4 | 17:48.25 | 3:40.68 | 80125 | 96692
5 | 21:29.18 | 4:43.05 | 96693 | 117922
6 | 26:12.23 | 2:26.20 | 117923 | 128892
7 | 28:38.43 | 2:44.00 | 128893 | 141192
8 | 31:22.43 | 8:38.62 | 141193 | 180104
9 | 40:01.30 | 2:22.63 | 180105 | 190817
10 | 42:24.18 | 3:11.05 | 190818 | 205147
11 | 45:35.23 | 3:05.57 | 205148 | 219079
12 | 48:41.05 | 7:43.65 | 219080 | 253869
13 | 56:24.70 | 3:04.13 | 253870 | 267682
14 | 59:29.08 | 3:40.20 | 267683 | 284202
15 | 63:09.28 | 4:33.57 | 284203 | 304734
16 | 67:43.10 | 3:06.33 | 304735 | 318717


Range status and errors

Selected range

Filename L:\Private\My Audio Ripps\ CD - RIPS\CCR - Greatest Hits\Creedence Clearwater Revival - Greatest Hits.wav

Peak level 89.4 %
Extraction speed 2.4 X
Range quality 100.0 %
Test CRC 987E22B7
Copy CRC 987E22B7
Copy OK

No errors occurred


AccurateRip summary

Track 1 accurately ripped (confidence 4) [7804B24D] (AR v2)
Track 2 accurately ripped (confidence 4) [7668E4F1] (AR v2)
Track 3 accurately ripped (confidence 4) [C711C663] (AR v2)
Track 4 accurately ripped (confidence 4) [DB4A5B21] (AR v2)
Track 5 accurately ripped (confidence 4) [CA970219] (AR v2)
Track 6 accurately ripped (confidence 4) [F0885912] (AR v2)
Track 7 accurately ripped (confidence 4) [E3540DBC] (AR v2)
Track 8 accurately ripped (confidence 4) [E6CC7E74] (AR v2)
Track 9 accurately ripped (confidence 4) [D8A67D83] (AR v2)
Track 10 accurately ripped (confidence 4) [248327C3] (AR v2)
Track 11 accurately ripped (confidence 4) [2C74B300] (AR v2)
Track 12 accurately ripped (confidence 3) [32CA20F1] (AR v2)
Track 13 accurately ripped (confidence 4) [59AF99D0] (AR v2)
Track 14 accurately ripped (confidence 4) [6346BEE9] (AR v2)
Track 15 accurately ripped (confidence 2) [6680AACC] (AR v2)
Track 16 accurately ripped (confidence 2) [6369BC91] (AR v2)

All tracks accurately ripped

End of status report

==== Log checksum 702D2A12108CF98C19C217A31DC11F3E6D1CFCE7635A2C5497E8E84D3CAA7621 ====

foobar2000 1.2.6 / Dynamic Range Meter 1.1.1
log date: 2017-03-25 15:22:30

––––––––––––––––––––––––––––––––––––––––
Analyzed: Creedence Clearwater Revival / Greatest Hits
––––––––––––––––––––––––––––––––––––––––

DR Peak RMS Duration Track
––––––––––––––––––––––––––––––––––––––––
DR15 -1.77 dB -21.30 dB 8:39 01-Suzie Q
DR18 -0.97 dB -22.08 dB 5:18 02-Born On The Bayou
DR15 -2.20 dB -21.28 dB 3:52 03-Gloomy
DR18 -3.75 dB -23.25 dB 3:41 04-Penthouse Pauper
DR14 -3.82 dB -20.47 dB 4:43 05-Walk On The Water
DR13 -5.28 dB -21.26 dB 2:26 06-Porterville
DR18 -2.70 dB -22.89 dB 2:44 07-Good Golly Miss Molly
DR15 -7.51 dB -25.01 dB 8:39 08-Graveyard Train
DR15 -6.64 dB -22.88 dB 2:23 09-Bad Moon Rising
DR14 -4.81 dB -20.75 dB 3:11 10-Get Down Woman
DR15 -2.85 dB -19.68 dB 3:06 11-The Working Man
DR15 -5.81 dB -25.03 dB 7:44 12-Keep On Chooglin'
DR20 -1.86 dB -24.69 dB 3:04 13-Bootleg
DR14 -5.28 dB -21.68 dB 3:40 14-99 1/2 (Won't Do)
DR15 -3.68 dB -21.86 dB 4:34 15-I Put A Spell On You
DR15 -6.16 dB -23.09 dB 3:06 16-Proud Mary
––––––––––––––––––––––––––––––––––––––––

Number of tracks: 16
Official DR value: DR16

Samplerate: 44100 Hz
Channels: 2
Bits per sample: 16
Bitrate: 838 kbps
Codec: FLAC
================================================================================

[CUETools log; Date: 25.03.2017 15:22:36; Version: 2.1.5]
Pregap length 00:00:10.
[CTDB TOCID: FSIeMqJqdEwPD6rrUl3P9UPELpo-] found.
Track | CTDB Status
1 | (4/4) Accurately ripped
2 | (3/4) Accurately ripped
3 | (3/4) Accurately ripped
4 | (4/4) Accurately ripped
5 | (4/4) Accurately ripped
6 | (3/4) Accurately ripped
7 | (4/4) Accurately ripped
8 | (3/4) Accurately ripped
9 | (3/4) Accurately ripped
10 | (3/4) Accurately ripped
11 | (3/4) Accurately ripped
12 | (3/4) Accurately ripped
13 | (3/4) Accurately ripped
14 | (3/4) Accurately ripped
15 | (3/4) Accurately ripped
16 | (3/4) Accurately ripped
[AccurateRip ID: 002c1c67-02043063-e5109910] found.
Track [ CRC | V2 ] Status
01 [aa7de6f7|7804b24d] (0+4/4) Accurately ripped
02 [1f399511|7668e4f1] (0+4/4) Accurately ripped
03 [ede0fbf6|c711c663] (0+4/4) Accurately ripped
04 [4c3f4b85|db4a5b21] (0+4/4) Accurately ripped
05 [7aa8a1c6|ca970219] (0+4/4) Accurately ripped
06 [279baf58|f0885912] (0+4/4) Accurately ripped
07 [6ad61f9a|e3540dbc] (0+4/4) Accurately ripped
08 [0050996d|e6cc7e74] (0+4/4) Accurately ripped
09 [e739c5a5|d8a67d83] (0+4/4) Accurately ripped
10 [6c48bee4|248327c3] (0+4/4) Accurately ripped
11 [684c8e24|2c74b300] (0+4/4) Accurately ripped
12 [8e038b21|32ca20f1] (0+3/3) Accurately ripped
13 [65b47bd5|59af99d0] (0+4/4) Accurately ripped
14 [8f08adc7|6346bee9] (0+4/4) Accurately ripped
15 [67b66b47|6680aacc] (0+2/2) Accurately ripped
16 [09d656af|6369bc91] (0+2/2) Accurately ripped

Track Peak [ CRC32 ] [W/O NULL] [ LOG ]
– 89,4 [987E22B7] [3B721F16] CRC32
01 81,5 [8DD26DE3] [365CD5BA]
02 89,4 [E3124506] [320D2BCD]
03 77,5 [0AD05490] [4141F705]
04 64,9 [360B3114] [DA26FCEE]
05 64,4 [08631190] [26182119]
06 54,4 [2B73796A] [5AA0311C]
07 73,2 [82687DEC] [A8E7B211]
08 42,1 [E16F7614] [0EA80407]
09 46,5 [3D207A7B] [C1C8C0FA]
10 57,4 [81B06795] [F3E41C9E]
11 72,0 [6A708E06] [E86D97DD]
12 51,2 [0272588A] [97AF351C]
13 80,7 [4D45ED48] [620F7C7B]
14 54,4 [D9A5D54B] [B5E3CB0E]
15 65,4 [5D2FE2A8] [CAFCD1A7]
16 49,2 [FF183ED8] [520466EF]

Creedence Clearwater Revival - Greatest Hits (1992)

Creedence Clearwater Revival - Greatest Hits (1992)