Subcategories

Creedence Clearwater Revival - Cosmo's Factory (1970)

Posted By: v3122
Creedence Clearwater Revival - Cosmo's Factory (1970)

Creedence Clearwater Revival - Cosmo's Factory (1970)
EAC | Flac(Image) + Cue + Log & MP3 CBR 320Kbps
Fantasy, CDFE 505 | ~ 258 or 101 Mb | Scans(jpg) -> 41 Mb
Rock & Roll / Southern Rock / Classic Rock

Throughout 1969 and into 1970, CCR toured incessantly and recorded nearly as much. Appropriately, Cosmo's Factory's first single was the working band's anthem "Travelin' Band," a funny, piledriving rocker with a blaring horn section – the first indication their sonic palette was broadening. Two more singles appeared prior to the album's release, backed by John Fogerty originals that rivaled the A-side or paled just slightly. When it came time to assemble a full album, Fogerty had only one original left, the claustrophobic, paranoid rocker "Ramble Tamble." Unlike some extended instrumentals, this was dramatic and had a direction – a distinction made clear by the meandering jam that brings CCR's version of "I Heard It Through the Grapevine" to 11 minutes. Even if it wanders, their take on the Marvin Gaye classic isn't unpleasant, and their faithful, exuberant takes on the Sun classics "Ooby Dooby" and "My Baby Left Me" are joyous tributes. Still, the heart of the album lays in those six fantastic songs released on singles. "Up Around the Bend" is a searing rocker, one of their best, balanced by the menacing murkiness of "Run Through the Jungle." "Who'll Stop the Rain"'s poignant melody and melancholy undertow has a counterpart in Fogerty's dope song, "Lookin' out My Back Door," a charming, bright shuffle, filled with dancing animals and domestic bliss - he had never been as sweet and silly as he is here. On "Long as I Can See the Light," the record's final song, he again finds solace in home, anchored by a soulful, laid-back groove. It hits a comforting, elegiac note, the perfect way to draw Cosmo's Factory – an album made during stress and chaos, filled with raging rockers, covers, and intense jams – to a close.

by Stephen Thomas Erlewine, allmusic
Creedence Clearwater Revival - Cosmo's Factory (1970)


Creedence Clearwater Revival - Cosmo's Factory (1970):

Creedence Clearwater Revival - Cosmo's Factory (1970)

Tracklist:

01. Ramble Tamble 7:12
02. Before You Accuse Me 3:28
03. Travelin' Band 2:09
04. Ooby Dooby 2:08
05. Lookin' Out My Back Door 2:35
06. Run Through The Jungle 3:08
07. Up Around The Bend 2:44
08. My Baby Left Me 2:20
09. Who'll Stop The Rain 2:30
10. I Heard It Through The Grapevine 11:07
11. Long As I Can See The Light 3:32

Exact Audio Copy V1.1 from 23. June 2015

EAC extraction logfile from 18. June 2016, 0:01

Creedence Clearwater Revival / Cosmo's Factory (CDFE 505)

Used drive : PLEXTOR DVDR PX-891SA Adapter: 1 ID: 0

Read mode : Secure
Utilize accurate stream : Yes
Defeat audio cache : Yes
Make use of C2 pointers : No

Read offset correction : 6
Overread into Lead-In and Lead-Out : No
Fill up missing offset samples with silence : Yes
Delete leading and trailing silent blocks : No
Null samples used in CRC calculations : Yes
Used interface : Native Win32 interface for Win NT & 2000

Used output format : User Defined Encoder
Selected bitrate : 128 kBit/s
Quality : High
Add ID3 tag : No
Command line compressor : C:\Program Files (x86)\Exact Audio Copy\Flac\flac.exe
Additional command line options : -V -8 -T "Genre=%genre%" -T "Artist=%artist%" -T "Title=%title%" -T "Album=%albumtitle%" -T "Date=%year%" -T "Tracknumber=%tracknr%" -T "Comment=%comment%" %source%


TOC of the extracted CD

Track | Start | Length | Start sector | End sector
––––––––––––––––––––––––––––-
1 | 0:00.00 | 7:12.27 | 0 | 32426
2 | 7:12.27 | 3:28.35 | 32427 | 48061
3 | 10:40.62 | 2:08.40 | 48062 | 57701
4 | 12:49.27 | 2:08.05 | 57702 | 67306
5 | 14:57.32 | 2:34.40 | 67307 | 78896
6 | 17:31.72 | 3:07.40 | 78897 | 92961
7 | 20:39.37 | 2:43.40 | 92962 | 105226
8 | 23:23.02 | 2:20.28 | 105227 | 115754
9 | 25:43.30 | 2:30.35 | 115755 | 127039
10 | 28:13.65 | 11:07.00 | 127040 | 177064
11 | 39:20.65 | 3:31.72 | 177065 | 192961


Range status and errors

Selected range

Filename H:\dafnaplus\Creedence Clearwater Revival - Cosmo's Factory\Creedence Clearwater Revival - Cosmo's Factory (CDFE 505).wav

Peak level 79.1 %
Extraction speed 7.5 X
Range quality 100.0 %
Test CRC BC7FD1CF
Copy CRC BC7FD1CF
Copy OK

No errors occurred


AccurateRip summary

Track 1 accurately ripped (confidence 3) [058A42CB] (AR v2)
Track 2 accurately ripped (confidence 3) [5E1FE667] (AR v2)
Track 3 accurately ripped (confidence 3) [64F0B08D] (AR v2)
Track 4 accurately ripped (confidence 3) [92503678] (AR v2)
Track 5 accurately ripped (confidence 3) [DEA8F580] (AR v2)
Track 6 accurately ripped (confidence 3) [FC82D072] (AR v2)
Track 7 accurately ripped (confidence 3) [6B3896EE] (AR v2)
Track 8 accurately ripped (confidence 3) [15B3D76B] (AR v2)
Track 9 accurately ripped (confidence 3) [5C5CE6D1] (AR v2)
Track 10 accurately ripped (confidence 3) [B1C5B533] (AR v2)
Track 11 accurately ripped (confidence 3) [C25BB065] (AR v2)

All tracks accurately ripped

End of status report

–– CUETools DB Plugin V2.1.6

[CTDB TOCID: kgUa9T9wco3wP2ukLijCNDlms78-] found
Submit result: already submitted
Track | CTDB Status
1 | (19/19) Accurately ripped
2 | (19/19) Accurately ripped
3 | (19/19) Accurately ripped
4 | (19/19) Accurately ripped
5 | (19/19) Accurately ripped
6 | (19/19) Accurately ripped
7 | (19/19) Accurately ripped
8 | (19/19) Accurately ripped
9 | (19/19) Accurately ripped
10 | (19/19) Accurately ripped
11 | (19/19) Accurately ripped


==== Log checksum 887E99582CAEAF2EA4AE8C3F8F59ECDD3C50EFAC425043540CAB15897AA35101 ====

foobar2000 1.2.9 / Dynamic Range Meter 1.1.1
log date: 2016-11-14 00:43:03

––––––––––––––––––––––––––––––––––––––––
Analyzed: Creedence Clearwater Revival / Cosmo's Factory (CDFE 505)
––––––––––––––––––––––––––––––––––––––––

DR Peak RMS Duration Track
––––––––––––––––––––––––––––––––––––––––
DR13 -2.44 dB -18.10 dB 7:12 01-Ramble Tamble
DR15 -3.59 dB -21.24 dB 3:28 02-Before You Accuse Me
DR14 -2.56 dB -18.31 dB 2:09 03-Travelin' Band
DR13 -3.24 dB -18.35 dB 2:08 04-Ooby Dooby
DR14 -3.83 dB -20.66 dB 2:35 05-Lookin' Out My Back Door
DR13 -5.09 dB -20.77 dB 3:08 06-Run Through The Jungle
DR12 -4.73 dB -18.64 dB 2:44 07-Up Around The Bend
DR13 -2.86 dB -18.14 dB 2:20 08-My Baby Left Me
DR14 -4.21 dB -21.04 dB 2:30 09-Who'll Stop The Rain
DR14 -2.03 dB -18.68 dB 11:07 10-I Heard It Through The Grapevine
DR14 -3.98 dB -21.46 dB 3:32 11-Long As I Can See The Light
––––––––––––––––––––––––––––––––––––––––

Number of tracks: 11
Official DR value: DR14

Samplerate: 44100 Hz
Channels: 2
Bits per sample: 16
Bitrate: 802 kbps
Codec: FLAC

[CUETools log; Date: 14.11.2016 0:35:04; Version: 2.1.4]
[CTDB TOCID: kgUa9T9wco3wP2ukLijCNDlms78-] found.
Track | CTDB Status
1 | (21/21) Accurately ripped
2 | (21/21) Accurately ripped
3 | (21/21) Accurately ripped
4 | (21/21) Accurately ripped
5 | (21/21) Accurately ripped
6 | (21/21) Accurately ripped
7 | (21/21) Accurately ripped
8 | (21/21) Accurately ripped
9 | (21/21) Accurately ripped
10 | (21/21) Accurately ripped
11 | (21/21) Accurately ripped
[AccurateRip ID: 0010b6ee-008e2d8a-8e0a0c0b] found.
Track [ CRC | V2 ] Status
01 [53ddc968|058a42cb] (08+03/28) Accurately ripped
02 [619cd47b|5e1fe667] (09+03/29) Accurately ripped
03 [0bbc4520|64f0b08d] (09+03/29) Accurately ripped
04 [5b9814d7|92503678] (09+03/29) Accurately ripped
05 [1b657b0c|dea8f580] (09+03/29) Accurately ripped
06 [1bbb1c0f|fc82d072] (09+03/29) Accurately ripped
07 [ea774ed5|6b3896ee] (09+03/30) Accurately ripped
08 [06af0a6f|15b3d76b] (09+03/29) Accurately ripped
09 [90cc2d8b|5c5ce6d1] (09+03/29) Accurately ripped
10 [ec75528b|b1c5b533] (09+03/29) Accurately ripped
11 [a321a158|c25bb065] (09+03/29) Accurately ripped
Offsetted by -657:
01 [854bc7ff] (02/28) Accurately ripped
02 [9ffbc75f] (02/29) Accurately ripped
03 [ae6d4fe6] (02/29) Accurately ripped
04 [afb5beea] (02/29) Accurately ripped
05 [0c92176d] (02/29) Accurately ripped
06 [61941625] (02/29) Accurately ripped
07 [9c16a397] (02/30) Accurately ripped
08 [f241a7a7] (02/29) Accurately ripped
09 [9d8953bd] (02/29) Accurately ripped
10 [03696788] (02/29) Accurately ripped
11 [2f7859f8] (02/29) Accurately ripped
Offsetted by 818:
01 [82990913] (08/28) Accurately ripped
02 [1b8a4d7a] (08/29) Accurately ripped
03 [c65a91e9] (08/29) Accurately ripped
04 [5c4a9aea] (08/29) Accurately ripped
05 [30efb395] (08/29) Accurately ripped
06 [a0ee6cda] (08/29) Accurately ripped
07 [cfacf312] (09/30) Accurately ripped
08 [56d3cdf0] (08/29) Accurately ripped
09 [96f1bf42] (08/29) Accurately ripped
10 [f5ff16ee] (08/29) Accurately ripped
11 [db5e10fe] (08/29) Accurately ripped

Track Peak [ CRC32 ] [W/O NULL] [ LOG ]
– 79,1 [BC7FD1CF] [B5291678] CRC32
01 75,5 [8A304C03] [4D395B5B]
02 66,1 [56C8F5F4] [EA9561C4]
03 74,5 [D6AB63D0] [527158B6]
04 68,8 [9766DFF4] [B3346AE2]
05 64,3 [2CFA75D8] [B1750DD9]
06 55,6 [B7085017] [A4B8E4FF]
07 58,0 [254B3FE5] [B08DAC5D]
08 71,9 [F98586C7] [642F99DC]
09 61,5 [9EDBC779] [66C7B7EE]
10 79,1 [A6033B03] [83B403FF]
11 63,2 [085D098D] [8FF386F8]

Creedence Clearwater Revival - Cosmo's Factory (1970)

All thanks go to dafnaplus

Creedence Clearwater Revival in my Blog

Download Creedence Clearwater Revival - Cosmo's Factory (1970):