Voces Suaves, Francesco Saverio Pedrini, Concerto Scirocco & Giulia Genini - Croce: Motetti & Sacrae Cantiones (2017)

Posted By: SERTiL
Voces Suaves, Francesco Saverio Pedrini, Concerto Scirocco & Giulia Genini - Croce: Motetti & Sacrae Cantiones (2017)

Voces Suaves, Francesco Saverio Pedrini, Concerto Scirocco & Giulia Genini - Croce: Motetti & Sacrae Cantiones
Classical, Vocal | WEB FLAC (tracks) & d. booklet | 52:15 min | 287 MB
Label: Arcana | Tracks: 16 | Rls.date: 2017

Venice, July 1603: Giovanni Croce, known as ‘il Chiozzotto’, a priest at the church of Santa Maria Formosa, was appointed maestro di cappella of St Mark’s basilica, one of the most prestigious posts in the musical world of the time.

A controversial biography, many aspects of which have not yet been elucidated, and a musical output of excellent quality constitute the appeal of this composer born in Chioggia, who is still overshadowed today by his famous successors. Yet Giovanni Croce proves to be an extraordinary figure, halfway between the conservative Venetian school of Gioseffo Zarlino and the modernism of Claudio Monteverdi. He makes masterly use of double chorus and of such special devices as echo effects, while maintaining a fine transparency in his counterpoint that links him with classical polyphony.

Two exceptional young Swiss ensembles, the vocal group Voces Suaves (which has won several prizes for its first two recordings) and the instrumental ensemble Concerto Scirocco, combine here in the magnificent surroundings of the palatine basilica of Santa Barbara in Mantua, where they have the advantage of the outstanding Antegnati organ built in 1565, to honour Giovanni Croce and his contemporaries and introduce us to other aspects of the glorious musical activity at St Mark’s.

TRACKLIST

Giovanni Croce (1557 - 1609)

01. Omnes gentes
02. Canzon Decimaquarta
03. Anima mea liquefacta est
04. Percussit Saul mille
05. Toccata
06. Egredimini et videte
07. Canzon III a 4, Ch. 188
08. Ornaverunt faciem templi
09. Canzon ariosa
10. Ave virgo
11. Canzon Terza
12. Virgo decus nemorum
13. Canzon Settimadecima
14. Hodie completi sunt
15. Toccata Terza
16. Quaeramus cum pastoribus

PERSONNEL
Voces Suaves
Concerto Scirocco
Giula Genini, direction

PERFORMER: auCDtect Task Manager, ver. 1.6.0 RC1 build 1.6.0.1
Copyright © 2008-2010 y-soft. All rights reserved

ANALYZER: auCDtect: CD records authenticity detector, version 0.8.2
Copyright © 2004 Oleg Berngardt. All rights reserved.
Copyright © 2004 Alexander Djourik. All rights reserved.


FILE: 16. Quaeramus cum pastoribus.flac
Size: 40544788 Hash: FB24F7B73A26FDD3FFBB15EC88AB2A9D Accuracy: -m0
Conclusion: CDDA 100%
Signature: 5CFF40986C2269841CF20BCACD592EBA753A282D
FILE: 15. Toccata Terza.flac
Size: 32297639 Hash: 398E110C4E141B0EAABB43A3F025DD43 Accuracy: -m0
Conclusion: CDDA 100%
Signature: 97CDE7E11308CF578144458C811399C7FBE4B58B
FILE: 14. Hodie completi sunt.flac
Size: 13752919 Hash: 47A3B6AA9784B10B2E87F5FF7A4BD95E Accuracy: -m0
Conclusion: CDDA 100%
Signature: F4E4DAB14309DBEA7456815285D3CED574DBDA26
FILE: 13. Canzon Settimadecima.flac
Size: 14737835 Hash: 7D4C9B84B7BF864EB3D65FE23DF67BA8 Accuracy: -m0
Conclusion: CDDA 100%
Signature: 31CC526215856E52A4CCBDD1CA44E6B14AC606C0
FILE: 12. Virgo decus nemorum.flac
Size: 17590781 Hash: 8230587EA7BEA94DA4A8D19195493495 Accuracy: -m0
Conclusion: CDDA 100%
Signature: 466D749F6750693B737278B471F63F613F0A52BE
FILE: 11. Canzon Terza.flac
Size: 16105944 Hash: E1B273258413962DBDC80855538C5576 Accuracy: -m0
Conclusion: CDDA 100%
Signature: BBBF62BFA5488BDA8C720B02E753A37BD6927258
FILE: 10. Ave virgo.flac
Size: 16550809 Hash: 1927ED244661A9F6F1452868CF109C7B Accuracy: -m0
Conclusion: CDDA 100%
Signature: 5235710A93F0D55470424041FD0344ADA5A95CE7
FILE: 09. Canzon ariosa.flac
Size: 16008769 Hash: 7B0414C7735D46A487AD805209928A3D Accuracy: -m0
Conclusion: CDDA 100%
Signature: 08EC4F6ED185435C03E63D957B1E9FAA7735069A
FILE: 08. Ornaverunt faciem templi.flac
Size: 16688484 Hash: 251FA3F24E3916540EF2C3881817AA05 Accuracy: -m0
Conclusion: CDDA 100%
Signature: C6E8BF76BB77DC49EABB65B7B204D599C0B117F9
FILE: 07. Canzon III a 4, Ch. 188.flac
Size: 9930126 Hash: 3F76D0349AA7CCE4E153DDFBCCC88464 Accuracy: -m0
Conclusion: CDDA 100%
Signature: 24D8F354527B8F29CD2ADB47CA0724C9701CD496
FILE: 06. Egredimini et videte.flac
Size: 15338240 Hash: 8932CB47BEA1F61837BC63A5D31B8FAF Accuracy: -m0
Conclusion: CDDA 100%
Signature: 524A1654A25E70281ED283ACFA25F54A2B12C163
FILE: 05. Toccata.flac
Size: 20300551 Hash: ADB550B830F70EFB12D8B3057B1AE65D Accuracy: -m0
Conclusion: CDDA 100%
Signature: 09F94DFA951DE73F14DA87F6E44BE788A741ECAB
FILE: 04. Percussit Saul mille.flac
Size: 13161183 Hash: 57B7C348CAE7C02705BF7603DD83B015 Accuracy: -m0
Conclusion: CDDA 100%
Signature: EB9E70C103EE74AFBC0BD6283A95C714D346B194
FILE: 03. Anima mea liquefacta est.flac
Size: 17174006 Hash: C5E6623199337EE0F7AD32B78C70292D Accuracy: -m0
Conclusion: CDDA 100%
Signature: 308EAAE83E21ECF13923BEBFC39D91FFA03D7B94
FILE: 02. Canzon Decimaquarta.flac
Size: 21929538 Hash: 5D956E200CAEEB4CEADA218F34CFA082 Accuracy: -m0
Conclusion: CDDA 99%
Signature: 06EFA1E04D9F85C3B1AB8A27A27A2D7C0826BD1A
FILE: 01. Omnes gentes.flac
Size: 17068056 Hash: 758D06D64075A139DBEE2AF5EA80269E Accuracy: -m0
Conclusion: CDDA 100%
Signature: A040F13DA4F21FED622275B04DC96CCB3F0D7B21

foobar2000 1.3.7 / Dynamic Range Meter 1.1.1
log date: 2017-10-16 20:41:28

––––––––––––––––––––––––––––––––––––––––
Analyzed: Concerto Scirocco / Giulia Genini / Croce: Motetti & Sacrae Cantiones (1-4)
Francesco Saverio Pedrini / Croce: Motetti & Sacrae Cantiones (5-7)
Voces Suaves / Francesco Saverio Pedrini / Concerto Scirocco / Giulia Genini / Croce: Motetti & Sacrae Cantiones (8-15)
Voces Suaves / Francesco Saverio Pedrini / Croce: Motetti & Sacrae Cantiones (16)
––––––––––––––––––––––––––––––––––––––––

DR Peak RMS Duration Track
––––––––––––––––––––––––––––––––––––––––
DR9 -2.96 dB -15.03 dB 3:45 02-Canzon Decimaquarta
DR10 -3.55 dB -15.38 dB 1:57 07-Canzon III a 4, Ch. 188
DR10 -2.53 dB -14.44 dB 2:51 11-Canzon Terza
DR9 -2.79 dB -13.97 dB 2:47 13-Canzon Settimadecima
DR9 -7.21 dB -19.04 dB 3:25 05-Toccata
DR9 -8.54 dB -21.13 dB 3:01 09-Canzon ariosa
DR10 -4.52 dB -15.31 dB 4:53 15-Toccata Terza
DR10 -2.25 dB -13.89 dB 2:58 01-Omnes gentes
DR9 -1.17 dB -13.05 dB 2:11 04-Percussit Saul mille
DR10 -2.99 dB -16.64 dB 2:41 06-Egredimini et videte
DR10 -2.15 dB -14.57 dB 2:47 08-Ornaverunt faciem templi
DR10 -1.86 dB -14.91 dB 2:48 10-Ave virgo
DR11 -2.57 dB -17.80 dB 3:15 12-Virgo decus nemorum
DR10 -1.93 dB -14.67 dB 2:36 14-Hodie completi sunt
DR10 -2.76 dB -16.93 dB 7:28 16-Quaeramus cum pastoribus
DR11 -2.65 dB -16.32 dB 3:01 03-Anima mea liquefacta est
––––––––––––––––––––––––––––––––––––––––

Number of tracks: 16
Official DR value: DR10

Samplerate: 44100 Hz
Channels: 2
Bits per sample: 16
Bitrate: 740 kbps
Codec: FLAC
================================================================================


Thanks to the Original customer.