Subcategories

V.A. - Crossroads: Eric Clapton Guitar Festival (2013) [2 Blu-ray Discs]

Posted By: Andi_Deris
V.A. - Crossroads: Eric Clapton Guitar Festival (2013) [2 Blu-ray Discs]

V.A. - Crossroads: Eric Clapton Guitar Festival (2013) [2 Blu-ray Discs]
2xBlu-ray (BD50) | BDMV | Video: MPEG-4 AVC / 1080p / 23,976 fps / 16:9 / High Profile 4.1 | Audio: DTS-HD MA 5.1/ LPCM 2.0
Disc 1 | 42.3 Gb | Disc 2 | 40.6 Gb | Scans | 53 Mb
Genre: Blues, Modern Electric Blues, Chicago Blues, Texas Blues | Label: Rhino | Cat.№: 0349790772

On 12 and 13 April in New York City, Clapton once again assembled an unparalleled lineup of the world’s most celebrated guitarists for the fourth incarnation of his legendary Crossroads Guitar Festival. While the previous three festivals were all hosted in sprawling outdoor stadiums, Clapton took the festivities indoors for the first time this year to “The World’s Most Famous Arena,” Madison Square Garden.

V.A. - Crossroads: Eric Clapton Guitar Festival (2013) [2 Blu-ray Discs]




V.A. - Crossroads: Eric Clapton Guitar Festival (2013) [2 Blu-ray Discs]


Disc 1

01. Tears In Heaven - Eric Clapton
02. Spider Jiving - Eric Clapton with Andy Fairweather Low
03. Lay Down Sally - Eric Clapton with Vince Gill
04. Time Is Tight - Booker T. with Steve Cropper
05. Born Under A Bad Sign - Booker T. with Steve Cropper, Keb’ Mo’, Blake Mills, Matt “Guitar” Murphy & Albert Lee
06. Green Onions - Booker T. with Steve Cropper, Keb’ Mo’, Blake Mills, Matt “Guitar” Murphy & Albert Lee
07. Great Big Old House - The Robert Cray Band
08. Everyday I Have The Blues - The Robert Cray Band with B.B. King, Eric Clapton & Jimmie Vaughan
09. Next Of Kindred Spirit - Sonny Landreth
10. Cry - Doyle Bramhall II with Alice Smith
11. Bullet And A Target - Doyle Bramhall II with Citizen Cope
12. She’s Alright - Doyle Bramhall II with Gary Clark Jr.
13. This Time - Earl Klugh
14. Mirabella - Earl Klugh
15. Heavenly Bodies - Kurt Rosenwinkel
16. Big Road Blues - Kurt Rosenwinkel with Eric Clapton
17. Next Door Neighbor Blues - Gary Clark Jr.
18. Queen Of California - John Mayer
19. Don’t Let Me Down - John Mayer with Keith Urban
20. Damn Right, I’ve Got The Blues - Buddy Guy with Robert Randolph & Quinn Sullivan
21. Why Does Love Got To Be So Sad - The Allman Brothers Band with Eric Clapton
22. Whipping Post - The Allman Brothers Band

The Modern Witchcraft Grimoire: Your Complete Guide to Creating Your Own Book of Shadows [Kindle Edition]

The Modern Witchcraft Grimoire: Your Complete Guide to Creating Your Own Book of Shadows [Kindle Edition]
The Modern Witchcraft Grimoire: Your Complete Guide to Creating Your Own Book of Shadows [Kindle Edition]
The Modern Witchcraft Grimoire: Your Complete Guide to Creating Your Own Book of Shadows [Kindle Edition]
The Modern Witchcraft Grimoire: Your Complete Guide to Creating Your Own Book of Shadows [Kindle Edition]
The Modern Witchcraft Grimoire: Your Complete Guide to Creating Your Own Book of Shadows [Kindle Edition]


The Modern Witchcraft Grimoire: Your Complete Guide to Creating Your Own Book of Shadows [Kindle Edition]


Disc 2

01. Congo Square - Sonny Landreth with Derek Trucks
02. Change It - John Mayer with Doyle Bramhall II
03. Ooh-Ooh-Ooh - Jimmie Vaughan
04. Save The Last Dance For Me - Blake Mills with Derek Trucks
05. Don’t Worry Baby - Los Lobos
06. I Got To Let You Know - Los Lobos with Robert Cray
07. The Needle And The Damage Done” - Gregg Allman, Warren Haynes & Derek Trucks
08. Midnight Rider - Gregg Allman, Warren Haynes & Derek Trucks
09. I Ain’t Living Long Like This - Vince Gill with Albert Lee
10. Tumbling Dice - Vince Gill with Keith Urban & Albert Lee
11. Walkin’ Blues - Taj Mahal with Keb’ Mo’
12. Diving Duck Blues - Taj Mahal with Keb’ Mo’
13. When My Train Pulls In - Gary Clark Jr.
14. Please Come Home - Gary Clark Jr.
15. Going Down - Jeff Beck with Beth Hart
16. Mná Na Heireann - Jeff Beck
17. Key To The Highway - Eric Clapton with Keith Richards
18. I Shall Be Released - Eric Clapton with Robbie Robertson
19. Gin House Blues - Andy Fairweather Low with Eric Clapton
20. Got To Get Better In A Little While - Eric Clapton
21. Crossroads - Eric Clapton
22. Sunshine Of Your Love - Eric Clapton
23. High Time We Went - Ensemble

The Modern Witchcraft Grimoire: Your Complete Guide to Creating Your Own Book of Shadows [Kindle Edition]

The Modern Witchcraft Grimoire: Your Complete Guide to Creating Your Own Book of Shadows [Kindle Edition]
The Modern Witchcraft Grimoire: Your Complete Guide to Creating Your Own Book of Shadows [Kindle Edition]
The Modern Witchcraft Grimoire: Your Complete Guide to Creating Your Own Book of Shadows [Kindle Edition]
The Modern Witchcraft Grimoire: Your Complete Guide to Creating Your Own Book of Shadows [Kindle Edition]
The Modern Witchcraft Grimoire: Your Complete Guide to Creating Your Own Book of Shadows [Kindle Edition]


Produced by Eric Clapton, Peter Jackson, James Pluta, Scooter Weintraub, John Beug & Michael Eaton

Disc Size: 44 280 053 063 bytes
Protection: AACS
BD-Java: Yes
BDInfo: 0.5.3

Notes:

BDINFO HOME:
Cinema Squid
http://www.cinemasquid.com/blu-ray/tools/bdinfo

INCLUDES FORUMS REPORT FOR:
AVS Forum Blu-ray Audio and Video Specifications Thread
http://www.avsforum.com/avs-vb/showthread.php?t=1155731

********************
PLAYLIST: 00001.MPLS
********************

<–- BEGIN FORUMS PASTE –->
Код:
Total Video
Title Codec Length Movie Size Disc Size Bitrate Bitrate Main Audio Track Secondary Audio Track
––- ––– –––- ––––––– ––––––– –––- –––- ––––––––– ––––––––––-
00001.MPLS AVC 2:16:47 43 660 406 784 44 280 053 063 42,56 33,22 DTS-HD Master 5.1 4894Kbps (48kHz/24-bit) LPCM 2.0 2304Kbps (48kHz/24-bit)
Код:
DISC INFO:

Disc Title:
Disc Size: 44 280 053 063 bytes
Protection: AACS
BD-Java: Yes
BDInfo: 0.5.3

PLAYLIST REPORT:

Name: 00001.MPLS
Length: 2:16:47 (h:m:s)
Size: 43 660 406 784 bytes
Total Bitrate: 42,56 Mbps

VIDEO:

Codec Bitrate Description
––- –––- –––––-
MPEG-4 AVC Video 33220 kbps 1080p / 23,976 fps / 16:9 / High Profile 4.1

AUDIO:

Codec Language Bitrate Description
––- –––– –––- –––––-
DTS-HD Master Audio English 4894 kbps 5.1 / 48 kHz / 4894 kbps / 24-bit (DTS Core: 5.1 / 48 kHz / 1509 kbps / 24-bit)
LPCM Audio English 2304 kbps 2.0 / 48 kHz / 2304 kbps / 24-bit

FILES:

Name Time In Length Size Total Bitrate
–– –––- ––– –– ––––––-
00001.M2TS 0:00:00.000 2:16:47.240 43 660 406 784 42 558

CHAPTERS:

Number Time In Length Avg Video Rate Max 1-Sec Rate Max 1-Sec Time Max 5-Sec Rate Max 5-Sec Time Max 10Sec Rate Max 10Sec Time Avg Frame Size Max Frame Size Max Frame Time
––– –––- ––– ––––––– ––––––– ––––––– ––––––– ––––––– ––––––– ––––––– ––––––– ––––––– –––––––
1 0:00:00.000 2:16:47.240 33 220 kbps 44 597 kbps 01:00:29.626 35 787 kbps 00:26:35.218 34 615 kbps 00:36:24.348 173 193 bytes 741 718 bytes 01:21:33.555

STREAM DIAGNOSTICS:

File PID Type Codec Language Seconds Bitrate Bytes Packets
–– –- –– ––- –––– ––––––– ––––––– ––––––- ––-
00001.M2TS 4113 (0x1011) 0x1B AVC 8207,157 33 220 34 080 249 272 185 333 827
00001.M2TS 4352 (0x1100) 0x80 LPCM eng (English) 8207,157 2 310 2 370 237 916 13 131 519
00001.M2TS 4353 (0x1101) 0x86 DTS-HD MA eng (English) 8207,157 4 894 5 021 117 972 28 567 896
<–– END FORUMS PASTE ––>

QUICK SUMMARY:

Disc Title:
Disc Size: 44 280 053 063 bytes
Protection: AACS
BD-Java: Yes
Playlist: 00001.MPLS
Size: 43 660 406 784 bytes
Length: 2:16:47
Total Bitrate: 42,56 Mbps
Video: MPEG-4 AVC Video / 33220 kbps / 1080p / 23,976 fps / 16:9 / High Profile 4.1
Audio: English / DTS-HD Master Audio / 5.1 / 48 kHz / 4894 kbps / 24-bit (DTS Core: 5.1 / 48 kHz / 1509 kbps / 24-bit)
Audio: English / LPCM Audio / 2.0 / 48 kHz / 2304 kbps / 24-bit

********************
PLAYLIST: 01001.MPLS
********************

<–- BEGIN FORUMS PASTE –->
Код:
Total Video
Title Codec Length Movie Size Disc Size Bitrate Bitrate Main Audio Track Secondary Audio Track
––- ––– –––- ––––––– ––––––– –––- –––- ––––––––– ––––––––––-
01001.MPLS AVC 2:16:47 43 660 406 784 44 280 053 063 42,56 33,22 DTS-HD Master 5.1 4894Kbps (48kHz/24-bit) LPCM 2.0 2304Kbps (48kHz/24-bit)
Код:
DISC INFO:

Disc Title:
Disc Size: 44 280 053 063 bytes
Protection: AACS
BD-Java: Yes
BDInfo: 0.5.3

PLAYLIST REPORT:

Name: 01001.MPLS
Length: 2:16:47 (h:m:s)
Size: 43 660 406 784 bytes
Total Bitrate: 42,56 Mbps

VIDEO:

Codec Bitrate Description
––- –––- –––––-
MPEG-4 AVC Video 33220 kbps 1080p / 23,976 fps / 16:9 / High Profile 4.1

AUDIO:

Codec Language Bitrate Description
––- –––– –––- –––––-
DTS-HD Master Audio English 4894 kbps 5.1 / 48 kHz / 4894 kbps / 24-bit (DTS Core: 5.1 / 48 kHz / 1509 kbps / 24-bit)
LPCM Audio English 2304 kbps 2.0 / 48 kHz / 2304 kbps / 24-bit

FILES:

Name Time In Length Size Total Bitrate
–– –––- ––– –– ––––––-
00001.M2TS 0:00:00.000 2:16:47.240 43 660 406 784 42 558

CHAPTERS:

Number Time In Length Avg Video Rate Max 1-Sec Rate Max 1-Sec Time Max 5-Sec Rate Max 5-Sec Time Max 10Sec Rate Max 10Sec Time Avg Frame Size Max Frame Size Max Frame Time
––– –––- ––– ––––––– ––––––– ––––––– ––––––– ––––––– ––––––– ––––––– ––––––– ––––––– –––––––
1 0:00:00.000 0:03:07.020 30 370 kbps 42 206 kbps 00:02:14.634 35 227 kbps 00:01:41.518 34 479 kbps 00:02:43.037 158 299 bytes 701 766 bytes 00:01:57.742
2 0:03:07.020 0:04:55.962 33 395 kbps 43 246 kbps 00:06:20.463 35 314 kbps 00:04:29.227 34 489 kbps 00:04:29.143 174 106 bytes 618 689 bytes 00:07:14.809
3 0:08:02.982 0:04:04.410 32 953 kbps 42 367 kbps 00:09:10.508 35 690 kbps 00:11:53.546 34 433 kbps 00:09:01.499 171 802 bytes 549 049 bytes 00:09:12.760
4 0:12:07.393 0:04:48.579 33 390 kbps 41 249 kbps 00:13:13.459 35 167 kbps 00:15:11.535 34 184 kbps 00:14:57.021 174 081 bytes 663 246 bytes 00:14:57.271
5 0:16:55.973 0:03:47.810 33 352 kbps 41 923 kbps 00:18:07.419 35 137 kbps 00:17:43.645 34 246 kbps 00:17:43.645 173 884 bytes 707 448 bytes 00:17:44.021
6 0:20:43.784 0:05:26.200 33 419 kbps 41 310 kbps 00:23:44.840 35 237 kbps 00:24:54.451 34 194 kbps 00:24:14.161 174 231 bytes 606 704 bytes 00:20:43.825
7 0:26:09.985 0:05:58.983 33 402 kbps 41 288 kbps 00:31:56.998 35 787 kbps 00:26:35.218 34 534 kbps 00:26:29.337 174 141 bytes 677 157 bytes 00:29:36.191
8 0:32:08.968 0:06:45.363 33 003 kbps 43 395 kbps 00:37:51.060 35 752 kbps 00:37:45.263 34 615 kbps 00:36:24.348 172 065 bytes 644 783 bytes 00:36:46.954
9 0:38:54.332 0:07:19.647 33 400 kbps 43 395 kbps 00:45:56.003 35 309 kbps 00:39:58.354 34 257 kbps 00:39:53.349 174 134 bytes 612 361 bytes 00:41:38.329
10 0:46:13.979 0:04:22.011 33 402 kbps 41 316 kbps 00:48:17.102 34 967 kbps 00:48:13.432 34 135 kbps 00:47:00.192 174 141 bytes 585 351 bytes 00:47:16.583
11 0:50:35.991 0:07:08.970 33 417 kbps 42 487 kbps 00:57:29.904 35 334 kbps 00:57:25.900 34 299 kbps 00:55:29.367 174 223 bytes 672 208 bytes 00:55:29.534
12 0:57:44.961 0:06:27.011 33 156 kbps 44 597 kbps 01:00:29.626 35 618 kbps 01:03:55.748 34 585 kbps 01:00:20.617 172 861 bytes 674 611 bytes 01:01:46.869
13 1:04:11.973 0:06:57.041 33 414 kbps 41 579 kbps 01:10:53.249 35 110 kbps 01:07:16.240 34 313 kbps 01:04:17.562 174 208 bytes 699 100 bytes 01:05:59.121
14 1:11:09.014 0:02:13.967 33 419 kbps 40 567 kbps 01:12:33.766 34 791 kbps 01:12:05.863 34 108 kbps 01:11:24.488 174 232 bytes 600 807 bytes 01:12:28.302
15 1:13:22.981 0:01:25.001 33 421 kbps 41 172 kbps 01:14:11.947 34 789 kbps 01:14:09.194 34 241 kbps 01:14:05.524 174 243 bytes 545 495 bytes 01:14:30.466
16 1:14:47.983 0:06:03.196 33 407 kbps 43 551 kbps 01:16:04.726 35 121 kbps 01:20:39.960 34 262 kbps 01:19:16.668 174 169 bytes 655 693 bytes 01:16:28.250
17 1:20:51.179 0:05:21.821 33 405 kbps 43 733 kbps 01:21:56.244 35 201 kbps 01:22:21.811 34 379 kbps 01:21:22.669 174 160 bytes 741 718 bytes 01:21:33.555
18 1:26:13.001 0:04:11.000 33 400 kbps 43 525 kbps 01:30:13.699 35 324 kbps 01:27:13.519 34 297 kbps 01:27:48.930 174 132 bytes 678 816 bytes 01:30:15.576
19 1:30:24.001 0:09:10.007 33 400 kbps 43 534 kbps 01:35:39.775 35 418 kbps 01:35:35.729 34 376 kbps 01:31:39.660 174 134 bytes 693 550 bytes 01:34:38.422
20 1:39:34.009 0:08:01.981 33 020 kbps 43 317 kbps 01:44:52.828 35 124 kbps 01:43:13.979 34 259 kbps 01:40:43.120 172 151 bytes 687 522 bytes 01:46:54.032
21 1:47:35.991 0:07:00.336 33 405 kbps 42 775 kbps 01:53:14.704 35 228 kbps 01:49:37.696 34 315 kbps 01:53:22.879 174 158 bytes 651 900 bytes 01:50:55.065
22 1:54:36.327 0:08:50.655 33 085 kbps 42 043 kbps 01:54:48.256 35 442 kbps 02:02:24.628 34 451 kbps 02:02:24.587 172 488 bytes 716 482 bytes 01:58:51.916
23 2:03:26.982 0:13:18.172 33 217 kbps 42 716 kbps 02:06:49.685 35 340 kbps 02:04:22.413 34 543 kbps 02:14:39.905 173 180 bytes 695 785 bytes 02:03:31.195
24 2:16:45.155 0:00:02.085 329 kbps 633 kbps 02:16:45.155 0 kbps 00:00:00.000 0 kbps 00:00:00.000 1 786 bytes 38 352 bytes 02:16:45.197

STREAM DIAGNOSTICS:

File PID Type Codec Language Seconds Bitrate Bytes Packets
–– –- –– ––- –––– ––––––– ––––––– ––––––- ––-
00001.M2TS 4113 (0x1011) 0x1B AVC 8207,157 33 220 34 080 249 272 185 333 827
00001.M2TS 4352 (0x1100) 0x80 LPCM eng (English) 8207,157 2 310 2 370 237 916 13 131 519
00001.M2TS 4353 (0x1101) 0x86 DTS-HD MA eng (English) 8207,157 4 894 5 021 117 972 28 567 896
<–– END FORUMS PASTE ––>

QUICK SUMMARY:

Disc Title:
Disc Size: 44 280 053 063 bytes
Protection: AACS
BD-Java: Yes
Playlist: 01001.MPLS
Size: 43 660 406 784 bytes
Length: 2:16:47
Total Bitrate: 42,56 Mbps
Video: MPEG-4 AVC Video / 33220 kbps / 1080p / 23,976 fps / 16:9 / High Profile 4.1
Audio: English / DTS-HD Master Audio / 5.1 / 48 kHz / 4894 kbps / 24-bit (DTS Core: 5.1 / 48 kHz / 1509 kbps / 24-bit)
Audio: English / LPCM Audio / 2.0 / 48 kHz / 2304 kbps / 24-bit

********************
PLAYLIST: 01002.MPLS
********************

<–- BEGIN FORUMS PASTE –->
Код:
Total Video
Title Codec Length Movie Size Disc Size Bitrate Bitrate Main Audio Track Secondary Audio Track
––- ––– –––- ––––––– ––––––– –––- –––- ––––––––– ––––––––––-
01002.MPLS AVC 2:16:47 43 660 406 784 44 280 053 063 42,56 33,22 DTS-HD Master 5.1 4894Kbps (48kHz/24-bit) LPCM 2.0 2304Kbps (48kHz/24-bit)
Код:
DISC INFO:

Disc Title:
Disc Size: 44 280 053 063 bytes
Protection: AACS
BD-Java: Yes
BDInfo: 0.5.3

PLAYLIST REPORT:

Name: 01002.MPLS
Length: 2:16:47 (h:m:s)
Size: 43 660 406 784 bytes
Total Bitrate: 42,56 Mbps

VIDEO:

Codec Bitrate Description
––- –––- –––––-
MPEG-4 AVC Video 33220 kbps 1080p / 23,976 fps / 16:9 / High Profile 4.1

AUDIO:

Codec Language Bitrate Description
––- –––– –––- –––––-
DTS-HD Master Audio English 4894 kbps 5.1 / 48 kHz / 4894 kbps / 24-bit (DTS Core: 5.1 / 48 kHz / 1509 kbps / 24-bit)
LPCM Audio English 2304 kbps 2.0 / 48 kHz / 2304 kbps / 24-bit

FILES:

Name Time In Length Size Total Bitrate
–– –––- ––– –– ––––––-
00001.M2TS 0:00:00.000 2:16:47.240 43 660 406 784 42 558

CHAPTERS:

Number Time In Length Avg Video Rate Max 1-Sec Rate Max 1-Sec Time Max 5-Sec Rate Max 5-Sec Time Max 10Sec Rate Max 10Sec Time Avg Frame Size Max Frame Size Max Frame Time
––– –––- ––– ––––––– ––––––– ––––––– ––––––– ––––––– ––––––– ––––––– ––––––– ––––––– –––––––
1 0:00:00.000 0:03:07.020 30 370 kbps 42 206 kbps 00:02:14.634 35 227 kbps 00:01:41.518 34 479 kbps 00:02:43.037 158 299 bytes 701 766 bytes 00:01:57.742
2 0:03:07.020 0:04:55.962 33 395 kbps 43 246 kbps 00:06:20.463 35 314 kbps 00:04:29.227 34 489 kbps 00:04:29.143 174 106 bytes 618 689 bytes 00:07:14.809
3 0:08:02.982 0:04:04.410 32 953 kbps 42 367 kbps 00:09:10.508 35 690 kbps 00:11:53.546 34 433 kbps 00:09:01.499 171 802 bytes 549 049 bytes 00:09:12.760
4 0:12:07.393 0:04:48.579 33 390 kbps 41 249 kbps 00:13:13.459 35 167 kbps 00:15:11.535 34 184 kbps 00:14:57.021 174 081 bytes 663 246 bytes 00:14:57.271
5 0:16:55.973 0:03:47.810 33 352 kbps 41 923 kbps 00:18:07.419 35 137 kbps 00:17:43.645 34 246 kbps 00:17:43.645 173 884 bytes 707 448 bytes 00:17:44.021
6 0:20:43.784 0:05:26.200 33 419 kbps 41 310 kbps 00:23:44.840 35 237 kbps 00:24:54.451 34 194 kbps 00:24:14.161 174 231 bytes 606 704 bytes 00:20:43.825
7 0:26:09.985 0:05:58.983 33 402 kbps 41 288 kbps 00:31:56.998 35 787 kbps 00:26:35.218 34 534 kbps 00:26:29.337 174 141 bytes 677 157 bytes 00:29:36.191
8 0:32:08.968 0:06:45.363 33 003 kbps 43 395 kbps 00:37:51.060 35 752 kbps 00:37:45.263 34 615 kbps 00:36:24.348 172 065 bytes 644 783 bytes 00:36:46.954
9 0:38:54.332 0:07:19.647 33 400 kbps 43 395 kbps 00:45:56.003 35 309 kbps 00:39:58.354 34 257 kbps 00:39:53.349 174 134 bytes 612 361 bytes 00:41:38.329
10 0:46:13.979 0:04:22.011 33 402 kbps 41 316 kbps 00:48:17.102 34 967 kbps 00:48:13.432 34 135 kbps 00:47:00.192 174 141 bytes 585 351 bytes 00:47:16.583
11 0:50:35.991 0:07:08.970 33 417 kbps 42 487 kbps 00:57:29.904 35 334 kbps 00:57:25.900 34 299 kbps 00:55:29.367 174 223 bytes 672 208 bytes 00:55:29.534
12 0:57:44.961 0:06:27.011 33 156 kbps 44 597 kbps 01:00:29.626 35 618 kbps 01:03:55.748 34 585 kbps 01:00:20.617 172 861 bytes 674 611 bytes 01:01:46.869
13 1:04:11.973 0:06:57.041 33 414 kbps 41 579 kbps 01:10:53.249 35 110 kbps 01:07:16.240 34 313 kbps 01:04:17.562 174 208 bytes 699 100 bytes 01:05:59.121
14 1:11:09.014 0:02:13.967 33 419 kbps 40 567 kbps 01:12:33.766 34 791 kbps 01:12:05.863 34 108 kbps 01:11:24.488 174 232 bytes 600 807 bytes 01:12:28.302
15 1:13:22.981 0:01:25.001 33 421 kbps 41 172 kbps 01:14:11.947 34 789 kbps 01:14:09.194 34 241 kbps 01:14:05.524 174 243 bytes 545 495 bytes 01:14:30.466
16 1:14:47.983 0:06:03.196 33 407 kbps 43 551 kbps 01:16:04.726 35 121 kbps 01:20:39.960 34 262 kbps 01:19:16.668 174 169 bytes 655 693 bytes 01:16:28.250
17 1:20:51.179 0:05:21.821 33 405 kbps 43 733 kbps 01:21:56.244 35 201 kbps 01:22:21.811 34 379 kbps 01:21:22.669 174 160 bytes 741 718 bytes 01:21:33.555
18 1:26:13.001 0:04:11.000 33 400 kbps 43 525 kbps 01:30:13.699 35 324 kbps 01:27:13.519 34 297 kbps 01:27:48.930 174 132 bytes 678 816 bytes 01:30:15.576
19 1:30:24.001 0:09:10.007 33 400 kbps 43 534 kbps 01:35:39.775 35 418 kbps 01:35:35.729 34 376 kbps 01:31:39.660 174 134 bytes 693 550 bytes 01:34:38.422
20 1:39:34.009 0:08:01.981 33 020 kbps 43 317 kbps 01:44:52.828 35 124 kbps 01:43:13.979 34 259 kbps 01:40:43.120 172 151 bytes 687 522 bytes 01:46:54.032
21 1:47:35.991 0:07:00.336 33 405 kbps 42 775 kbps 01:53:14.704 35 228 kbps 01:49:37.696 34 315 kbps 01:53:22.879 174 158 bytes 651 900 bytes 01:50:55.065
22 1:54:36.327 0:08:50.655 33 085 kbps 42 043 kbps 01:54:48.256 35 442 kbps 02:02:24.628 34 451 kbps 02:02:24.587 172 488 bytes 716 482 bytes 01:58:51.916
23 2:03:26.982 0:13:18.172 33 217 kbps 42 716 kbps 02:06:49.685 35 340 kbps 02:04:22.413 34 543 kbps 02:14:39.905 173 180 bytes 695 785 bytes 02:03:31.195
24 2:16:45.155 0:00:02.085 329 kbps 633 kbps 02:16:45.155 0 kbps 00:00:00.000 0 kbps 00:00:00.000 1 786 bytes 38 352 bytes 02:16:45.197

STREAM DIAGNOSTICS:

File PID Type Codec Language Seconds Bitrate Bytes Packets
–– –- –– ––- –––– ––––––– ––––––– ––––––- ––-
00001.M2TS 4113 (0x1011) 0x1B AVC 8207,157 33 220 34 080 249 272 185 333 827
00001.M2TS 4352 (0x1100) 0x80 LPCM eng (English) 8207,157 2 310 2 370 237 916 13 131 519
00001.M2TS 4353 (0x1101) 0x86 DTS-HD MA eng (English) 8207,157 4 894 5 021 117 972 28 567 896
<–– END FORUMS PASTE ––>

QUICK SUMMARY:

Disc Title:
Disc Size: 44 280 053 063 bytes
Protection: AACS
BD-Java: Yes
Playlist: 01002.MPLS
Size: 43 660 406 784 bytes
Length: 2:16:47
Total Bitrate: 42,56 Mbps
Video: MPEG-4 AVC Video / 33220 kbps / 1080p / 23,976 fps / 16:9 / High Profile 4.1
Audio: English / DTS-HD Master Audio / 5.1 / 48 kHz / 4894 kbps / 24-bit (DTS Core: 5.1 / 48 kHz / 1509 kbps / 24-bit)
Audio: English / LPCM Audio / 2.0 / 48 kHz / 2304 kbps / 24-bit

********************
PLAYLIST: 00000.MPLS
********************

<–- BEGIN FORUMS PASTE –->
Код:
Total Video
Title Codec Length Movie Size Disc Size Bitrate Bitrate Main Audio Track Secondary Audio Track
––- ––– –––- ––––––– ––––––– –––- –––- ––––––––– ––––––––––-
00000.MPLS AVC 0:02:01 606 560 256 44 280 053 063 40,09 33,62 LPCM 2.0 2304Kbps (48kHz/24-bit) LPCM 2.0 2304Kbps (48kHz/24-bit)
Код:
DISC INFO:

Disc Title:
Disc Size: 44 280 053 063 bytes
Protection: AACS
BD-Java: Yes
BDInfo: 0.5.3

PLAYLIST REPORT:

Name: 00000.MPLS
Length: 0:02:01 (h:m:s)
Size: 606 560 256 bytes
Total Bitrate: 40,09 Mbps

VIDEO:

Codec Bitrate Description
––- –––- –––––-
MPEG-4 AVC Video 33625 kbps 1080p / 23,976 fps / 16:9 / High Profile 4.1

AUDIO:

Codec Language Bitrate Description
––- –––– –––- –––––-
LPCM Audio English 2304 kbps 2.0 / 48 kHz / 2304 kbps / 24-bit
LPCM Audio English 2304 kbps 2.0 / 48 kHz / 2304 kbps / 24-bit

FILES:

Name Time In Length Size Total Bitrate
–– –––- ––– –– ––––––-
00000.M2TS 0:00:00.000 0:02:01.037 606 560 256 40 091

CHAPTERS:

Number Time In Length Avg Video Rate Max 1-Sec Rate Max 1-Sec Time Max 5-Sec Rate Max 5-Sec Time Max 10Sec Rate Max 10Sec Time Avg Frame Size Max Frame Size Max Frame Time
––– –––- ––– ––––––– ––––––– ––––––– ––––––– ––––––– ––––––– ––––––– ––––––– ––––––– –––––––
1 0:00:00.000 0:02:01.037 33 625 kbps 40 146 kbps 00:00:54.095 35 165 kbps 00:00:34.451 34 562 kbps 00:00:54.387 175 304 bytes 645 316 bytes 00:00:05.505

STREAM DIAGNOSTICS:

File PID Type Codec Language Seconds Bitrate Bytes Packets
–– –- –– ––- –––– ––––––– ––––––– ––––––- ––-
00000.M2TS 4113 (0x1011) 0x1B AVC 120,954 33 648 508 732 358 2 766 559
00000.M2TS 4352 (0x1100) 0x80 LPCM eng (English) 120,954 2 311 34 944 800 193 600
00000.M2TS 4353 (0x1101) 0x80 LPCM eng (English) 120,954 2 311 34 944 800 193 600
<–– END FORUMS PASTE ––>

QUICK SUMMARY:

Disc Title:
Disc Size: 44 280 053 063 bytes
Protection: AACS
BD-Java: Yes
Playlist: 00000.MPLS
Size: 606 560 256 bytes
Length: 0:02:01
Total Bitrate: 40,09 Mbps
Video: MPEG-4 AVC Video / 33625 kbps / 1080p / 23,976 fps / 16:9 / High Profile 4.1
Audio: English / LPCM Audio / 2.0 / 48 kHz / 2304 kbps / 24-bit
Audio: English / LPCM Audio / 2.0 / 48 kHz / 2304 kbps / 24-bit

********************
PLAYLIST: 01000.MPLS
********************

<–- BEGIN FORUMS PASTE –->
Код:
Total Video
Title Codec Length Movie Size Disc Size Bitrate Bitrate Main Audio Track Secondary Audio Track
––- ––– –––- ––––––– ––––––– –––- –––- ––––––––– ––––––––––-
01000.MPLS AVC 0:02:01 606 560 256 44 280 053 063 40,09 33,62 LPCM 2.0 2304Kbps (48kHz/24-bit) LPCM 2.0 2304Kbps (48kHz/24-bit)
Код:
DISC INFO:

Disc Title:
Disc Size: 44 280 053 063 bytes
Protection: AACS
BD-Java: Yes
BDInfo: 0.5.3

PLAYLIST REPORT:

Name: 01000.MPLS
Length: 0:02:01 (h:m:s)
Size: 606 560 256 bytes
Total Bitrate: 40,09 Mbps

VIDEO:

Codec Bitrate Description
––- –––- –––––-
MPEG-4 AVC Video 33625 kbps 1080p / 23,976 fps / 16:9 / High Profile 4.1

AUDIO:

Codec Language Bitrate Description
––- –––– –––- –––––-
LPCM Audio English 2304 kbps 2.0 / 48 kHz / 2304 kbps / 24-bit
LPCM Audio English 2304 kbps 2.0 / 48 kHz / 2304 kbps / 24-bit

FILES:

Name Time In Length Size Total Bitrate
–– –––- ––– –– ––––––-
00000.M2TS 0:00:00.000 0:02:01.037 606 560 256 40 091

CHAPTERS:

Number Time In Length Avg Video Rate Max 1-Sec Rate Max 1-Sec Time Max 5-Sec Rate Max 5-Sec Time Max 10Sec Rate Max 10Sec Time Avg Frame Size Max Frame Size Max Frame Time
––– –––- ––– ––––––– ––––––– ––––––– ––––––– ––––––– ––––––– ––––––– ––––––– ––––––– –––––––
1 0:00:00.000 0:01:59.911 33 853 kbps 40 146 kbps 00:00:54.095 35 165 kbps 00:00:34.451 34 562 kbps 00:00:54.387 176 434 bytes 645 316 bytes 00:00:05.505
2 0:01:59.911 0:00:01.126 9 285 kbps 10 175 kbps 00:01:59.911 0 kbps 00:00:00.000 0 kbps 00:00:00.000 50 271 bytes 485 925 bytes 00:02:00.203

STREAM DIAGNOSTICS:

File PID Type Codec Language Seconds Bitrate Bytes Packets
–– –- –– ––- –––– ––––––– ––––––– ––––––- ––-
00000.M2TS 4113 (0x1011) 0x1B AVC 120,954 33 648 508 732 358 2 766 559
00000.M2TS 4352 (0x1100) 0x80 LPCM eng (English) 120,954 2 311 34 944 800 193 600
00000.M2TS 4353 (0x1101) 0x80 LPCM eng (English) 120,954 2 311 34 944 800 193 600
<–– END FORUMS PASTE ––>

QUICK SUMMARY:

Disc Title:
Disc Size: 44 280 053 063 bytes
Protection: AACS
BD-Java: Yes
Playlist: 01000.MPLS
Size: 606 560 256 bytes
Length: 0:02:01
Total Bitrate: 40,09 Mbps
Video: MPEG-4 AVC Video / 33625 kbps / 1080p / 23,976 fps / 16:9 / High Profile 4.1
Audio: English / LPCM Audio / 2.0 / 48 kHz / 2304 kbps / 24-bit
Audio: English / LPCM Audio / 2.0 / 48 kHz / 2304 kbps / 24-bit

Disc Size: 42 547 587 063 bytes
Protection: AACS
BD-Java: Yes
BDInfo: 0.5.3

Notes:

BDINFO HOME:
Cinema Squid
http://www.cinemasquid.com/blu-ray/tools/bdinfo

INCLUDES FORUMS REPORT FOR:
AVS Forum Blu-ray Audio and Video Specifications Thread
http://www.avsforum.com/avs-vb/showthread.php?t=1155731

********************
PLAYLIST: 00001.MPLS
********************

<–- BEGIN FORUMS PASTE –->
Код:
Total Video
Title Codec Length Movie Size Disc Size Bitrate Bitrate Main Audio Track Secondary Audio Track
––- ––– –––- ––––––– ––––––– –––- –––- ––––––––– ––––––––––-
00001.MPLS AVC 2:32:23 41 934 716 928 42 547 587 063 36,69 27,48 DTS-HD Master 5.1 5008Kbps (48kHz/24-bit) LPCM 2.0 2304Kbps (48kHz/24-bit)
Код:
DISC INFO:

Disc Title:
Disc Size: 42 547 587 063 bytes
Protection: AACS
BD-Java: Yes
BDInfo: 0.5.3

PLAYLIST REPORT:

Name: 00001.MPLS
Length: 2:32:23 (h:m:s)
Size: 41 934 716 928 bytes
Total Bitrate: 36,69 Mbps

VIDEO:

Codec Bitrate Description
––- –––- –––––-
MPEG-4 AVC Video 27483 kbps 1080p / 23,976 fps / 16:9 / High Profile 4.1

AUDIO:

Codec Language Bitrate Description
––- –––– –––- –––––-
DTS-HD Master Audio English 5008 kbps 5.1 / 48 kHz / 5008 kbps / 24-bit (DTS Core: 5.1 / 48 kHz / 1509 kbps / 24-bit)
LPCM Audio English 2304 kbps 2.0 / 48 kHz / 2304 kbps / 24-bit

FILES:

Name Time In Length Size Total Bitrate
–– –––- ––– –– ––––––-
00001.M2TS 0:00:00.000 2:32:23.342 41 934 716 928 36 691

CHAPTERS:

Number Time In Length Avg Video Rate Max 1-Sec Rate Max 1-Sec Time Max 5-Sec Rate Max 5-Sec Time Max 10Sec Rate Max 10Sec Time Avg Frame Size Max Frame Size Max Frame Time
––– –––- ––– ––––––– ––––––– ––––––– ––––––– ––––––– ––––––– ––––––– ––––––– ––––––– –––––––
1 0:00:00.000 2:32:23.342 27 483 kbps 49 809 kbps 00:32:03.546 40 395 kbps 00:21:00.342 37 279 kbps 00:38:57.668 143 286 bytes 677 327 bytes 01:37:41.856

STREAM DIAGNOSTICS:

File PID Type Codec Language Seconds Bitrate Bytes Packets
–– –- –– ––- –––– ––––––– ––––––– ––––––- ––-
00001.M2TS 4113 (0x1011) 0x1B AVC 9143,259 27 484 31 411 298 427 170 841 944
00001.M2TS 4352 (0x1100) 0x80 LPCM eng (English) 9143,259 2 310 2 640 583 596 14 629 279
00001.M2TS 4353 (0x1101) 0x86 DTS-HD MA eng (English) 9143,259 5 008 5 723 461 088 32 532 456
<–– END FORUMS PASTE ––>

QUICK SUMMARY:

Disc Title:
Disc Size: 42 547 587 063 bytes
Protection: AACS
BD-Java: Yes
Playlist: 00001.MPLS
Size: 41 934 716 928 bytes
Length: 2:32:23
Total Bitrate: 36,69 Mbps
Video: MPEG-4 AVC Video / 27483 kbps / 1080p / 23,976 fps / 16:9 / High Profile 4.1
Audio: English / DTS-HD Master Audio / 5.1 / 48 kHz / 5008 kbps / 24-bit (DTS Core: 5.1 / 48 kHz / 1509 kbps / 24-bit)
Audio: English / LPCM Audio / 2.0 / 48 kHz / 2304 kbps / 24-bit

********************
PLAYLIST: 01001.MPLS
********************

<–- BEGIN FORUMS PASTE –->
Код:
Total Video
Title Codec Length Movie Size Disc Size Bitrate Bitrate Main Audio Track Secondary Audio Track
––- ––– –––- ––––––– ––––––– –––- –––- ––––––––– ––––––––––-
01001.MPLS AVC 2:32:23 41 934 716 928 42 547 587 063 36,69 27,48 DTS-HD Master 5.1 5008Kbps (48kHz/24-bit) LPCM 2.0 2304Kbps (48kHz/24-bit)
Код:
DISC INFO:

Disc Title:
Disc Size: 42 547 587 063 bytes
Protection: AACS
BD-Java: Yes
BDInfo: 0.5.3

PLAYLIST REPORT:

Name: 01001.MPLS
Length: 2:32:23 (h:m:s)
Size: 41 934 716 928 bytes
Total Bitrate: 36,69 Mbps

VIDEO:

Codec Bitrate Description
––- –––- –––––-
MPEG-4 AVC Video 27483 kbps 1080p / 23,976 fps / 16:9 / High Profile 4.1

AUDIO:

Codec Language Bitrate Description
––- –––– –––- –––––-
DTS-HD Master Audio English 5008 kbps 5.1 / 48 kHz / 5008 kbps / 24-bit (DTS Core: 5.1 / 48 kHz / 1509 kbps / 24-bit)
LPCM Audio English 2304 kbps 2.0 / 48 kHz / 2304 kbps / 24-bit

FILES:

Name Time In Length Size Total Bitrate
–– –––- ––– –– ––––––-
00001.M2TS 0:00:00.000 2:32:23.342 41 934 716 928 36 691

CHAPTERS:

Number Time In Length Avg Video Rate Max 1-Sec Rate Max 1-Sec Time Max 5-Sec Rate Max 5-Sec Time Max 10Sec Rate Max 10Sec Time Avg Frame Size Max Frame Size Max Frame Time
––– –––- ––– ––––––– ––––––– ––––––– ––––––– ––––––– ––––––– ––––––– ––––––– ––––––– –––––––
1 0:00:00.000 0:02:08.002 28 461 kbps 42 129 kbps 00:00:49.632 32 287 kbps 00:00:34.743 31 540 kbps 00:00:30.947 148 332 bytes 525 739 bytes 00:02:01.538
2 0:02:08.002 0:07:40.001 28 535 kbps 47 663 kbps 00:07:30.908 34 320 kbps 00:02:21.474 31 151 kbps 00:02:16.845 148 770 bytes 579 113 bytes 00:02:26.104
3 0:09:48.004 0:05:18.985 28 054 kbps 38 979 kbps 00:14:07.096 32 883 kbps 00:14:04.301 30 804 kbps 00:14:00.047 146 263 bytes 515 902 bytes 00:11:45.621
4 0:15:06.989 0:06:28.971 28 758 kbps 45 464 kbps 00:21:00.676 40 395 kbps 00:21:00.342 34 607 kbps 00:21:12.646 149 931 bytes 550 820 bytes 00:18:42.996
5 0:21:35.961 0:03:45.016 28 704 kbps 44 601 kbps 00:24:40.770 37 921 kbps 00:23:16.019 36 590 kbps 00:23:14.226 149 651 bytes 550 637 bytes 00:24:41.730
6 0:25:20.977 0:06:35.019 28 536 kbps 43 650 kbps 00:27:05.165 34 108 kbps 00:31:29.721 32 891 kbps 00:28:46.683 148 773 bytes 557 286 bytes 00:27:06.124
7 0:31:55.997 0:03:52.982 28 416 kbps 49 809 kbps 00:32:03.546 37 518 kbps 00:33:39.142 35 574 kbps 00:33:37.306 148 148 bytes 646 270 bytes 00:32:04.047
8 0:35:48.980 0:03:08.313 27 931 kbps 38 898 kbps 00:38:29.265 33 909 kbps 00:37:49.058 33 145 kbps 00:37:30.164 145 619 bytes 528 780 bytes 00:35:53.442
9 0:38:57.293 0:04:16.839 28 180 kbps 44 245 kbps 00:38:57.668 38 245 kbps 00:38:57.668 37 279 kbps 00:38:57.668 146 917 bytes 502 630 bytes 00:38:59.545
10 0:43:14.133 0:06:29.847 29 040 kbps 41 565 kbps 00:49:40.060 33 380 kbps 00:49:37.975 32 033 kbps 00:44:58.278 151 401 bytes 557 135 bytes 00:49:40.102
11 0:49:43.981 0:05:40.006 28 451 kbps 38 787 kbps 00:53:22.699 33 963 kbps 00:53:21.781 31 402 kbps 00:53:17.360 148 332 bytes 629 880 bytes 00:51:17.199
12 0:55:23.987 0:05:18.985 28 519 kbps 38 659 kbps 00:55:46.593 32 387 kbps 00:56:18.666 30 554 kbps 00:55:43.381 148 687 bytes 530 586 bytes 00:57:49.090
13 1:00:42.972 0:06:40.024 27 566 kbps 42 125 kbps 01:07:19.910 33 910 kbps 01:07:17.825 30 225 kbps 01:01:47.954 143 715 bytes 506 310 bytes 01:02:58.691
14 1:07:22.997 0:10:08.733 29 236 kbps 42 094 kbps 01:15:31.109 36 377 kbps 01:07:30.588 35 164 kbps 01:08:45.329 152 422 bytes 586 767 bytes 01:17:28.727
15 1:17:31.730 0:06:43.236 28 412 kbps 37 407 kbps 01:23:53.486 32 656 kbps 01:20:58.812 30 696 kbps 01:23:45.270 148 125 bytes 528 398 bytes 01:23:54.446
16 1:24:14.966 0:05:21.029 28 464 kbps 41 193 kbps 01:28:18.710 34 076 kbps 01:28:16.624 32 572 kbps 01:28:13.538 148 397 bytes 539 137 bytes 01:28:23.339
17 1:29:35.995 0:06:07.992 28 487 kbps 49 351 kbps 01:34:54.730 39 445 kbps 01:34:54.730 35 451 kbps 01:34:54.730 148 518 bytes 546 085 bytes 01:35:26.011
18 1:35:43.988 0:05:05.805 28 488 kbps 49 024 kbps 01:37:39.979 38 036 kbps 01:37:39.728 35 719 kbps 01:37:39.895 148 521 bytes 677 327 bytes 01:37:41.856
19 1:40:49.793 0:05:51.809 28 512 kbps 42 404 kbps 01:45:38.498 34 262 kbps 01:46:19.289 32 203 kbps 01:40:51.003 148 647 bytes 547 396 bytes 01:46:21.792
20 1:46:41.603 0:06:00.401 28 563 kbps 49 610 kbps 01:48:07.731 39 213 kbps 01:48:06.688 34 696 kbps 01:46:41.603 148 913 bytes 641 229 bytes 01:48:07.772
21 1:52:42.005 0:10:18.993 27 381 kbps 41 393 kbps 01:57:41.596 35 565 kbps 01:57:40.094 33 949 kbps 01:52:54.058 142 753 bytes 516 641 bytes 01:57:41.637
22 2:03:00.998 0:04:34.774 28 777 kbps 48 252 kbps 02:05:13.547 36 898 kbps 02:05:09.585 32 167 kbps 02:05:04.538 150 028 bytes 561 050 bytes 02:05:13.631
23 2:07:35.773 0:06:12.205 30 110 kbps 44 490 kbps 02:08:00.589 38 493 kbps 02:12:40.494 35 988 kbps 02:12:39.534 156 980 bytes 582 385 bytes 02:10:04.004
24 2:13:47.978 0:12:37.006 28 291 kbps 43 179 kbps 02:16:38.273 33 810 kbps 02:14:59.049 30 795 kbps 02:14:54.044 147 499 bytes 592 407 bytes 02:14:14.921
25 2:26:24.984 0:05:57.023 2 878 kbps 8 116 kbps 02:30:47.621 6 761 kbps 02:30:47.621 6 290 kbps 02:30:44.869 15 007 bytes 176 199 bytes 02:30:48.581
26 2:32:22.007 0:00:01.334 50 kbps 50 kbps 02:32:22.299 0 kbps 00:00:00.000 0 kbps 00:00:00.000 271 bytes 681 bytes 02:32:23.300

STREAM DIAGNOSTICS:

File PID Type Codec Language Seconds Bitrate Bytes Packets
–– –- –– ––- –––– ––––––– ––––––– ––––––- ––-
00001.M2TS 4113 (0x1011) 0x1B AVC 9143,259 27 484 31 411 298 427 170 841 944
00001.M2TS 4352 (0x1100) 0x80 LPCM eng (English) 9143,259 2 310 2 640 583 596 14 629 279
00001.M2TS 4353 (0x1101) 0x86 DTS-HD MA eng (English) 9143,259 5 008 5 723 461 088 32 532 456
<–– END FORUMS PASTE ––>

QUICK SUMMARY:

Disc Title:
Disc Size: 42 547 587 063 bytes
Protection: AACS
BD-Java: Yes
Playlist: 01001.MPLS
Size: 41 934 716 928 bytes
Length: 2:32:23
Total Bitrate: 36,69 Mbps
Video: MPEG-4 AVC Video / 27483 kbps / 1080p / 23,976 fps / 16:9 / High Profile 4.1
Audio: English / DTS-HD Master Audio / 5.1 / 48 kHz / 5008 kbps / 24-bit (DTS Core: 5.1 / 48 kHz / 1509 kbps / 24-bit)
Audio: English / LPCM Audio / 2.0 / 48 kHz / 2304 kbps / 24-bit

********************
PLAYLIST: 01002.MPLS
********************

<–- BEGIN FORUMS PASTE –->
Код:
Total Video
Title Codec Length Movie Size Disc Size Bitrate Bitrate Main Audio Track Secondary Audio Track
––- ––– –––- ––––––– ––––––– –––- –––- ––––––––– ––––––––––-
01002.MPLS AVC 2:32:23 41 934 716 928 42 547 587 063 36,69 27,48 DTS-HD Master 5.1 5008Kbps (48kHz/24-bit) LPCM 2.0 2304Kbps (48kHz/24-bit)
Код:
DISC INFO:

Disc Title:
Disc Size: 42 547 587 063 bytes
Protection: AACS
BD-Java: Yes
BDInfo: 0.5.3

PLAYLIST REPORT:

Name: 01002.MPLS
Length: 2:32:23 (h:m:s)
Size: 41 934 716 928 bytes
Total Bitrate: 36,69 Mbps

VIDEO:

Codec Bitrate Description
––- –––- –––––-
MPEG-4 AVC Video 27483 kbps 1080p / 23,976 fps / 16:9 / High Profile 4.1

AUDIO:

Codec Language Bitrate Description
––- –––– –––- –––––-
DTS-HD Master Audio English 5008 kbps 5.1 / 48 kHz / 5008 kbps / 24-bit (DTS Core: 5.1 / 48 kHz / 1509 kbps / 24-bit)
LPCM Audio English 2304 kbps 2.0 / 48 kHz / 2304 kbps / 24-bit

FILES:

Name Time In Length Size Total Bitrate
–– –––- ––– –– ––––––-
00001.M2TS 0:00:00.000 2:32:23.342 41 934 716 928 36 691

CHAPTERS:

Number Time In Length Avg Video Rate Max 1-Sec Rate Max 1-Sec Time Max 5-Sec Rate Max 5-Sec Time Max 10Sec Rate Max 10Sec Time Avg Frame Size Max Frame Size Max Frame Time
––– –––- ––– ––––––– ––––––– ––––––– ––––––– ––––––– ––––––– ––––––– ––––––– ––––––– –––––––
1 0:00:00.000 0:02:08.002 28 461 kbps 42 129 kbps 00:00:49.632 32 287 kbps 00:00:34.743 31 540 kbps 00:00:30.947 148 332 bytes 525 739 bytes 00:02:01.538
2 0:02:08.002 0:07:40.001 28 535 kbps 47 663 kbps 00:07:30.908 34 320 kbps 00:02:21.474 31 151 kbps 00:02:16.845 148 770 bytes 579 113 bytes 00:02:26.104
3 0:09:48.004 0:05:18.985 28 054 kbps 38 979 kbps 00:14:07.096 32 883 kbps 00:14:04.301 30 804 kbps 00:14:00.047 146 263 bytes 515 902 bytes 00:11:45.621
4 0:15:06.989 0:06:28.971 28 758 kbps 45 464 kbps 00:21:00.676 40 395 kbps 00:21:00.342 34 607 kbps 00:21:12.646 149 931 bytes 550 820 bytes 00:18:42.996
5 0:21:35.961 0:03:45.016 28 704 kbps 44 601 kbps 00:24:40.770 37 921 kbps 00:23:16.019 36 590 kbps 00:23:14.226 149 651 bytes 550 637 bytes 00:24:41.730
6 0:25:20.977 0:06:35.019 28 536 kbps 43 650 kbps 00:27:05.165 34 108 kbps 00:31:29.721 32 891 kbps 00:28:46.683 148 773 bytes 557 286 bytes 00:27:06.124
7 0:31:55.997 0:03:52.982 28 416 kbps 49 809 kbps 00:32:03.546 37 518 kbps 00:33:39.142 35 574 kbps 00:33:37.306 148 148 bytes 646 270 bytes 00:32:04.047
8 0:35:48.980 0:03:08.313 27 931 kbps 38 898 kbps 00:38:29.265 33 909 kbps 00:37:49.058 33 145 kbps 00:37:30.164 145 619 bytes 528 780 bytes 00:35:53.442
9 0:38:57.293 0:04:16.839 28 180 kbps 44 245 kbps 00:38:57.668 38 245 kbps 00:38:57.668 37 279 kbps 00:38:57.668 146 917 bytes 502 630 bytes 00:38:59.545
10 0:43:14.133 0:06:29.847 29 040 kbps 41 565 kbps 00:49:40.060 33 380 kbps 00:49:37.975 32 033 kbps 00:44:58.278 151 401 bytes 557 135 bytes 00:49:40.102
11 0:49:43.981 0:05:40.006 28 451 kbps 38 787 kbps 00:53:22.699 33 963 kbps 00:53:21.781 31 402 kbps 00:53:17.360 148 332 bytes 629 880 bytes 00:51:17.199
12 0:55:23.987 0:05:18.985 28 519 kbps 38 659 kbps 00:55:46.593 32 387 kbps 00:56:18.666 30 554 kbps 00:55:43.381 148 687 bytes 530 586 bytes 00:57:49.090
13 1:00:42.972 0:06:40.024 27 566 kbps 42 125 kbps 01:07:19.910 33 910 kbps 01:07:17.825 30 225 kbps 01:01:47.954 143 715 bytes 506 310 bytes 01:02:58.691
14 1:07:22.997 0:10:08.733 29 236 kbps 42 094 kbps 01:15:31.109 36 377 kbps 01:07:30.588 35 164 kbps 01:08:45.329 152 422 bytes 586 767 bytes 01:17:28.727
15 1:17:31.730 0:06:43.236 28 412 kbps 37 407 kbps 01:23:53.486 32 656 kbps 01:20:58.812 30 696 kbps 01:23:45.270 148 125 bytes 528 398 bytes 01:23:54.446
16 1:24:14.966 0:05:21.029 28 464 kbps 41 193 kbps 01:28:18.710 34 076 kbps 01:28:16.624 32 572 kbps 01:28:13.538 148 397 bytes 539 137 bytes 01:28:23.339
17 1:29:35.995 0:06:07.992 28 487 kbps 49 351 kbps 01:34:54.730 39 445 kbps 01:34:54.730 35 451 kbps 01:34:54.730 148 518 bytes 546 085 bytes 01:35:26.011
18 1:35:43.988 0:05:05.805 28 488 kbps 49 024 kbps 01:37:39.979 38 036 kbps 01:37:39.728 35 719 kbps 01:37:39.895 148 521 bytes 677 327 bytes 01:37:41.856
19 1:40:49.793 0:05:51.809 28 512 kbps 42 404 kbps 01:45:38.498 34 262 kbps 01:46:19.289 32 203 kbps 01:40:51.003 148 647 bytes 547 396 bytes 01:46:21.792
20 1:46:41.603 0:06:00.401 28 563 kbps 49 610 kbps 01:48:07.731 39 213 kbps 01:48:06.688 34 696 kbps 01:46:41.603 148 913 bytes 641 229 bytes 01:48:07.772
21 1:52:42.005 0:10:18.993 27 381 kbps 41 393 kbps 01:57:41.596 35 565 kbps 01:57:40.094 33 949 kbps 01:52:54.058 142 753 bytes 516 641 bytes 01:57:41.637
22 2:03:00.998 0:04:34.774 28 777 kbps 48 252 kbps 02:05:13.547 36 898 kbps 02:05:09.585 32 167 kbps 02:05:04.538 150 028 bytes 561 050 bytes 02:05:13.631
23 2:07:35.773 0:06:12.205 30 110 kbps 44 490 kbps 02:08:00.589 38 493 kbps 02:12:40.494 35 988 kbps 02:12:39.534 156 980 bytes 582 385 bytes 02:10:04.004
24 2:13:47.978 0:12:37.006 28 291 kbps 43 179 kbps 02:16:38.273 33 810 kbps 02:14:59.049 30 795 kbps 02:14:54.044 147 499 bytes 592 407 bytes 02:14:14.921
25 2:26:24.984 0:05:57.023 2 878 kbps 8 116 kbps 02:30:47.621 6 761 kbps 02:30:47.621 6 290 kbps 02:30:44.869 15 007 bytes 176 199 bytes 02:30:48.581
26 2:32:22.007 0:00:01.334 50 kbps 50 kbps 02:32:22.299 0 kbps 00:00:00.000 0 kbps 00:00:00.000 271 bytes 681 bytes 02:32:23.300

STREAM DIAGNOSTICS:

File PID Type Codec Language Seconds Bitrate Bytes Packets
–– –- –– ––- –––– ––––––– ––––––– ––––––- ––-
00001.M2TS 4113 (0x1011) 0x1B AVC 9143,259 27 484 31 411 298 427 170 841 944
00001.M2TS 4352 (0x1100) 0x80 LPCM eng (English) 9143,259 2 310 2 640 583 596 14 629 279
00001.M2TS 4353 (0x1101) 0x86 DTS-HD MA eng (English) 9143,259 5 008 5 723 461 088 32 532 456
<–– END FORUMS PASTE ––>

QUICK SUMMARY:

Disc Title:
Disc Size: 42 547 587 063 bytes
Protection: AACS
BD-Java: Yes
Playlist: 01002.MPLS
Size: 41 934 716 928 bytes
Length: 2:32:23
Total Bitrate: 36,69 Mbps
Video: MPEG-4 AVC Video / 27483 kbps / 1080p / 23,976 fps / 16:9 / High Profile 4.1
Audio: English / DTS-HD Master Audio / 5.1 / 48 kHz / 5008 kbps / 24-bit (DTS Core: 5.1 / 48 kHz / 1509 kbps / 24-bit)
Audio: English / LPCM Audio / 2.0 / 48 kHz / 2304 kbps / 24-bit

********************
PLAYLIST: 00000.MPLS
********************

<–- BEGIN FORUMS PASTE –->
Код:
Total Video
Title Codec Length Movie Size Disc Size Bitrate Bitrate Main Audio Track Secondary Audio Track
––- ––– –––- ––––––– ––––––– –––- –––- ––––––––– ––––––––––-
00000.MPLS AVC 0:02:01 591 052 800 42 547 587 063 38,79 32,37 LPCM 2.0 2304Kbps (48kHz/24-bit) LPCM 2.0 2304Kbps (48kHz/24-bit)
Код:
DISC INFO:

Disc Title:
Disc Size: 42 547 587 063 bytes
Protection: AACS
BD-Java: Yes
BDInfo: 0.5.3

PLAYLIST REPORT:

Name: 00000.MPLS
Length: 0:02:01 (h:m:s)
Size: 591 052 800 bytes
Total Bitrate: 38,79 Mbps

VIDEO:

Codec Bitrate Description
––- –––- –––––-
MPEG-4 AVC Video 32374 kbps 1080p / 23,976 fps / 16:9 / High Profile 4.1

AUDIO:

Codec Language Bitrate Description
––- –––– –––- –––––-
LPCM Audio English 2304 kbps 2.0 / 48 kHz / 2304 kbps / 24-bit
LPCM Audio English 2304 kbps 2.0 / 48 kHz / 2304 kbps / 24-bit

FILES:

Name Time In Length Size Total Bitrate
–– –––- ––– –– ––––––-
00000.M2TS 0:00:00.000 0:02:01.913 591 052 800 38 785

CHAPTERS:

Number Time In Length Avg Video Rate Max 1-Sec Rate Max 1-Sec Time Max 5-Sec Rate Max 5-Sec Time Max 10Sec Rate Max 10Sec Time Avg Frame Size Max Frame Size Max Frame Time
––– –––- ––– ––––––– ––––––– ––––––– ––––––– ––––––– ––––––– ––––––– ––––––– ––––––– –––––––
1 0:00:00.000 0:02:01.913 32 374 kbps 39 277 kbps 00:01:56.491 34 002 kbps 00:01:42.102 33 370 kbps 00:01:09.069 168 781 bytes 633 870 bytes 00:02:01.121

STREAM DIAGNOSTICS:

File PID Type Codec Language Seconds Bitrate Bytes Packets
–– –- –– ––- –––– ––––––– ––––––– ––––––- ––-
00000.M2TS 4113 (0x1011) 0x1B AVC 121,830 32 396 493 346 400 2 682 955
00000.M2TS 4352 (0x1100) 0x80 LPCM eng (English) 121,830 2 311 35 197 500 195 000
00000.M2TS 4353 (0x1101) 0x80 LPCM eng (English) 121,830 2 311 35 197 500 195 000
<–– END FORUMS PASTE ––>

QUICK SUMMARY:

Disc Title:
Disc Size: 42 547 587 063 bytes
Protection: AACS
BD-Java: Yes
Playlist: 00000.MPLS
Size: 591 052 800 bytes
Length: 0:02:01
Total Bitrate: 38,79 Mbps
Video: MPEG-4 AVC Video / 32374 kbps / 1080p / 23,976 fps / 16:9 / High Profile 4.1
Audio: English / LPCM Audio / 2.0 / 48 kHz / 2304 kbps / 24-bit
Audio: English / LPCM Audio / 2.0 / 48 kHz / 2304 kbps / 24-bit

********************
PLAYLIST: 01000.MPLS
********************

<–- BEGIN FORUMS PASTE –->
Код:
Total Video
Title Codec Length Movie Size Disc Size Bitrate Bitrate Main Audio Track Secondary Audio Track
––- ––– –––- ––––––– ––––––– –––- –––- ––––––––– ––––––––––-
01000.MPLS AVC 0:02:01 591 052 800 42 547 587 063 38,79 32,37 LPCM 2.0 2304Kbps (48kHz/24-bit) LPCM 2.0 2304Kbps (48kHz/24-bit)
Код:
DISC INFO:

Disc Title:
Disc Size: 42 547 587 063 bytes
Protection: AACS
BD-Java: Yes
BDInfo: 0.5.3

PLAYLIST REPORT:

Name: 01000.MPLS
Length: 0:02:01 (h:m:s)
Size: 591 052 800 bytes
Total Bitrate: 38,79 Mbps

VIDEO:

Codec Bitrate Description
––- –––- –––––-
MPEG-4 AVC Video 32374 kbps 1080p / 23,976 fps / 16:9 / High Profile 4.1

AUDIO:

Codec Language Bitrate Description
––- –––– –––- –––––-
LPCM Audio English 2304 kbps 2.0 / 48 kHz / 2304 kbps / 24-bit
LPCM Audio English 2304 kbps 2.0 / 48 kHz / 2304 kbps / 24-bit

FILES:

Name Time In Length Size Total Bitrate
–– –––- ––– –– ––––––-
00000.M2TS 0:00:00.000 0:02:01.913 591 052 800 38 785

CHAPTERS:

Number Time In Length Avg Video Rate Max 1-Sec Rate Max 1-Sec Time Max 5-Sec Rate Max 5-Sec Time Max 10Sec Rate Max 10Sec Time Avg Frame Size Max Frame Size Max Frame Time
––– –––- ––– ––––––– ––––––– ––––––– ––––––– ––––––– ––––––– ––––––– ––––––– ––––––– –––––––
1 0:00:00.000 0:02:00.161 32 732 kbps 39 277 kbps 00:01:56.491 34 002 kbps 00:01:42.102 33 370 kbps 00:01:09.069 170 590 bytes 589 821 bytes 00:00:00.000
2 0:02:00.161 0:00:01.751 7 788 kbps 12 944 kbps 00:02:00.161 0 kbps 00:00:00.000 0 kbps 00:00:00.000 41 591 bytes 633 870 bytes 00:02:01.121

STREAM DIAGNOSTICS:

File PID Type Codec Language Seconds Bitrate Bytes Packets
–– –- –– ––- –––– ––––––– ––––––– ––––––- ––-
00000.M2TS 4113 (0x1011) 0x1B AVC 121,830 32 396 493 346 400 2 682 955
00000.M2TS 4352 (0x1100) 0x80 LPCM eng (English) 121,830 2 311 35 197 500 195 000
00000.M2TS 4353 (0x1101) 0x80 LPCM eng (English) 121,830 2 311 35 197 500 195 000
<–– END FORUMS PASTE ––>

QUICK SUMMARY:

Disc Title:
Disc Size: 42 547 587 063 bytes
Protection: AACS
BD-Java: Yes
Playlist: 01000.MPLS
Size: 591 052 800 bytes
Length: 0:02:01
Total Bitrate: 38,79 Mbps
Video: MPEG-4 AVC Video / 32374 kbps / 1080p / 23,976 fps / 16:9 / High Profile 4.1
Audio: English / LPCM Audio / 2.0 / 48 kHz / 2304 kbps / 24-bit
Audio: English / LPCM Audio / 2.0 / 48 kHz / 2304 kbps / 24-bit


Many thanks to the original uploader: gerrV

See also:
Eric Clapton 1998 Pilgrim [Japanese Ed.]
Eric Clapton 2010 Clapton [Special Edition]