Subcategories

Cuby + Blizzards - Alles Uit Grolloo (2016) {28CD Box Set, CD6-CD10}

Posted By: popsakov
Cuby + Blizzards - Alles Uit Grolloo (2016) {28CD Box Set, CD6-CD10}

Cuby + Blizzards - Alles Uit Grolloo (2016) {28CD Box Set, CD6-CD10}
EAC Rip | FLAC (Img) + Cue + Log ~ 1,24 Gb | MP3 CBR320 ~ 515 Mb
Scans Included | RAR 5% Recovery
Electric Blues, Blues Rock | Universal Music #477 115-4

Limited 29 disc (28 CDs + DVD) box. As a tribute to the one and only Dutch Blues legend Harry Muskee, 2016 will see the release of Alles Uit Grolloo. The box set contains all the original studio albums by Cuby + Blizzards plus the official live albums and all other projects of Muskee. Especially for this release the first albums are mastered in their mono versions. Even releases that have long been deleted, such as Kid Blue, Old Times Good Times, Forgotten Tapes, Afscheidsconcert and Red, White & Blue, are present here. Next to the 27 albums the box set contains a disc with rarities and a DVD with the Classic Albums documentary on the legendary "Groeten Uit Grollo" album.

Cuby + Blizzards – also known as Cuby & the Blizzards were a Dutch blues group, founded in 1964 by vocalist Harry Muskee, and guitarist Eelco Gelling. During the 1960s, the band's mixture of sound, drawing upon a variety of genres which included blues and rock and roll, gave them a pioneering sound which was completely different from any other Dutch band in the same time period, using the name Peter & the Blizzards.

The band's first single, a blues-based track bearing similarities to The Pretty Things output, was "Stumble and Fall" in 1965. From the start, they were a big hit in the Netherlands. In 1967 they toured with Van Morrison (after he had left Them), recorded an album, Praise the Blues with U.S. blues musician Eddie Boyd and scored a hit with "Window of my Eyes". That year, John Mayall stayed at their farm and the next year they regularly played with the 'king of British blues' Alexis Korner, who is featured on their album Live in Düsseldorf (1968).

The line-up of the band changed regularly, but founders Harry Muskee and Eelco Gelling remained at the core of the band until 1976. Herman Brood was the pianist from early 1967 until mid-1969 (which kickstarted his career) and again in 1976. Also in 1976, Gelling left to join Golden Earring. Muskee then decided to drop the name C+B and to form the Harry Muskee Band. This band recorded one album before Muskee decided to leave the music business. In 1980 he formed the Muskee Gang with a line-up of Herman Deinum (bass guitar) and Hans la Faille (drums), who had both joined C+B in 1969, together with saxophonist Rudy van Dijk, Paul Smeenk (guitar) and Jeff Reynolds (trumpet).

In 1996 Cuby + Blizzards re-formed without Eelco Gelling, who was replaced by Erwin Java on guitar. In 2004 they went on a theater tour to honor John Lee Hooker. C+B came to an end when Harry Muskee died of cancer on 26 September 2011.

The band received an Edison award for their debut album Desolation. The song "Window of my Eyes" (a Top 10 hit in The Netherlands in 1968), was featured over the ending credits for the 2010 film The American.
Cuby + Blizzards - Alles Uit Grolloo (2016) {28CD Box Set, CD6-CD10}


***************

Cuby + Blizzards - Alles Uit Grolloo (2016) {28CD Box Set, CD6-CD10}

Cuby + Blizzards - Alles Uit Grolloo (2016) {28CD Box Set, CD6-CD10}

Cuby + Blizzards - Alles Uit Grolloo (2016) {28CD Box Set, CD6-CD10}

Track List CD6 Cuby + Blizzards - Appleknockers Flophouse (1969):

01. Appleknockers Flophouse [2:31]
02. Unknown Boy [6:46]
03. Help Me [5:36]
04. Go Down Sunshine [7:03]
05. Disappointed Blues [3:22]
06. Midnight Mover [2:38]
07. Black Snake [4:20]
08. Checkin' Up On My Baby [3:14]
09. 116 A Queensway [4:10]
10. Because Of Illness [1:59]
11. Wee Wee Baby [3:36]

Exact Audio Copy V1.3 from 2. September 2016

EAC extraction logfile from 14. June 2017, 19:52

Cuby + Blizzards / Appleknockers Flophouse

Used drive : ATAPI iHAS122 C Adapter: 1 ID: 0

Read mode : Secure
Utilize accurate stream : Yes
Defeat audio cache : Yes
Make use of C2 pointers : No

Read offset correction : 6
Overread into Lead-In and Lead-Out : No
Fill up missing offset samples with silence : Yes
Delete leading and trailing silent blocks : No
Null samples used in CRC calculations : Yes
Used interface : Native Win32 interface for Win NT & 2000

Used output format : Internal WAV Routines
Sample format : 44.100 Hz; 16 Bit; Stereo


TOC of the extracted CD

Track | Start | Length | Start sector | End sector
––––––––––––––––––––––––––––-
1 | 0:00.00 | 2:30.52 | 0 | 11301
2 | 2:30.52 | 6:46.06 | 11302 | 41757
3 | 9:16.58 | 5:35.47 | 41758 | 66929
4 | 14:52.30 | 7:03.06 | 66930 | 98660
5 | 21:55.36 | 3:22.08 | 98661 | 113818
6 | 25:17.44 | 2:37.69 | 113819 | 125662
7 | 27:55.38 | 4:20.25 | 125663 | 145187
8 | 32:15.63 | 3:13.41 | 145188 | 159703
9 | 35:29.29 | 4:09.39 | 159704 | 178417
10 | 39:38.68 | 1:59.09 | 178418 | 187351
11 | 41:38.02 | 3:35.53 | 187352 | 203529


Range status and errors

Selected range

Filename C:\Users\London\Desktop\Cuby + Blizzards - Appleknockers Flophouse.wav

Peak level 100.0 %
Extraction speed 3.0 X
Range quality 100.0 %
Test CRC 21763FB5
Copy CRC 21763FB5
Copy OK

No errors occurred


AccurateRip summary

Track 1 accurately ripped (confidence 13) [81B03215] (AR v2)
Track 2 accurately ripped (confidence 13) [47156563] (AR v2)
Track 3 accurately ripped (confidence 13) [104E99F6] (AR v2)
Track 4 accurately ripped (confidence 13) [E2F31AA1] (AR v2)
Track 5 accurately ripped (confidence 13) [25261D1E] (AR v2)
Track 6 accurately ripped (confidence 13) [4C1346EA] (AR v2)
Track 7 accurately ripped (confidence 13) [A151EAFD] (AR v2)
Track 8 accurately ripped (confidence 13) [529C389B] (AR v2)
Track 9 accurately ripped (confidence 13) [03C3C1EA] (AR v2)
Track 10 accurately ripped (confidence 13) [A03EBD1B] (AR v2)
Track 11 accurately ripped (confidence 13) [A7F76850] (AR v2)

All tracks accurately ripped

End of status report

–– CUETools DB Plugin V2.1.6

[CTDB TOCID: 1zd07O1LCoSgke3OMi.kxmXBUOQ-] found
Submit result: 1zd07O1LCoSgke3OMi.kxmXBUOQ- has been confirmed
Track | CTDB Status
1 | (28/28) Accurately ripped
2 | (28/28) Accurately ripped
3 | (28/28) Accurately ripped
4 | (28/28) Accurately ripped
5 | (28/28) Accurately ripped
6 | (28/28) Accurately ripped
7 | (28/28) Accurately ripped
8 | (28/28) Accurately ripped
9 | (28/28) Accurately ripped
10 | (28/28) Accurately ripped
11 | (28/28) Accurately ripped


==== Log checksum 88D7325F15A06C1CBD2BC52CBF2CDF2FA0BC70FB4E6E358A8FF726651A43B729 ====

[CUETools log; Date: 16.06.2017 23:29:27; Version: 2.1.5]
[CTDB TOCID: 1zd07O1LCoSgke3OMi.kxmXBUOQ-] found.
Track | CTDB Status
1 | (29/29) Accurately ripped
2 | (29/29) Accurately ripped
3 | (29/29) Accurately ripped
4 | (29/29) Accurately ripped
5 | (29/29) Accurately ripped
6 | (29/29) Accurately ripped
7 | (29/29) Accurately ripped
8 | (29/29) Accurately ripped
9 | (29/29) Accurately ripped
10 | (29/29) Accurately ripped
11 | (29/29) Accurately ripped
[AccurateRip ID: 00145465-00ad4e0f-910a990b] found.
Track [ CRC | V2 ] Status
01 [d9f3f795|81b03215] (03+13/18) Accurately ripped
02 [06477a0d|47156563] (03+13/18) Accurately ripped
03 [40c678eb|104e99f6] (04+13/19) Accurately ripped
04 [11ec8a31|e2f31aa1] (03+13/18) Accurately ripped
05 [413149bd|25261d1e] (03+13/18) Accurately ripped
06 [f16f8602|4c1346ea] (02+13/17) Accurately ripped
07 [664b8fa3|a151eafd] (02+13/17) Accurately ripped
08 [abf328ae|529c389b] (02+13/17) Accurately ripped
09 [6acac714|03c3c1ea] (02+13/17) Accurately ripped
10 [7e71fe69|a03ebd1b] (02+13/17) Accurately ripped
11 [562d9f35|a7f76850] (02+13/17) Accurately ripped
Offsetted by -86:
01 [cae92958] (02/18) Accurately ripped
02 [fd717c39] (02/18) Accurately ripped
03 [eb9062b7] (02/19) Accurately ripped
04 [44e66db9] (02/18) Accurately ripped
05 [ec830e75] (02/18) Accurately ripped
06 [a926f0b4] (02/17) Accurately ripped
07 [3bb19c81] (02/17) Accurately ripped
08 [0d2750be] (02/17) Accurately ripped
09 [ac64aa62] (02/17) Accurately ripped
10 [78a170d5] (02/17) Accurately ripped
11 [bea357c1] (02/17) Accurately ripped

Track Peak [ CRC32 ] [W/O NULL] [ LOG ]
– 100,0 [21763FB5] [A08BB626] CRC32
01 95,5 [4C8E5C32] [8334BDE3]
02 97,7 [03992BDF] [67AA1A7B]
03 92,0 [454ABD96] [0C77B009]
04 91,8 [E656DD6B] [AF8ACBDB]
05 97,7 [BD4B45FB] [F26A7BEF]
06 97,6 [B28375FE] [6D1719C5]
07 85,9 [A27975DD] [DC69D796]
08 100,0 [7C80050E] [7CF9928F]
09 94,7 [8182D9A3] [7D439334]
10 99,3 [3309F2AE] [2A1CFBF4]
11 97,7 [9DB985CE] [12E03DE8]

***************

Cuby + Blizzards - Alles Uit Grolloo (2016) {28CD Box Set, CD6-CD10}

Cuby + Blizzards - Alles Uit Grolloo (2016) {28CD Box Set, CD6-CD10}

Cuby + Blizzards - Alles Uit Grolloo (2016) {28CD Box Set, CD6-CD10}

Track List CD7 Cuby + Blizzards - Too Blind To See (1970):

01. Thursday Night [3:24]
02. Night Train [4:42]
03. Evil Woman [6:02]
04. Wee Wee Baby [3:39]
05. Too Blind To See [5:15]
06. Birks' Works [3:54]
07. Time Passed Me By [7:20]

Exact Audio Copy V1.3 from 2. September 2016

EAC extraction logfile from 15. June 2017, 17:24

Cuby + Blizzards / Too Blind To See

Used drive : ATAPI iHAS122 C Adapter: 1 ID: 0

Read mode : Secure
Utilize accurate stream : Yes
Defeat audio cache : Yes
Make use of C2 pointers : No

Read offset correction : 6
Overread into Lead-In and Lead-Out : No
Fill up missing offset samples with silence : Yes
Delete leading and trailing silent blocks : No
Null samples used in CRC calculations : Yes
Used interface : Native Win32 interface for Win NT & 2000

Used output format : Internal WAV Routines
Sample format : 44.100 Hz; 16 Bit; Stereo


TOC of the extracted CD

Track | Start | Length | Start sector | End sector
––––––––––––––––––––––––––––-
1 | 0:00.00 | 3:23.41 | 0 | 15265
2 | 3:23.41 | 4:42.34 | 15266 | 36449
3 | 8:06.00 | 6:02.30 | 36450 | 63629
4 | 14:08.30 | 3:38.51 | 63630 | 80030
5 | 17:47.06 | 5:14.63 | 80031 | 103643
6 | 23:01.69 | 3:53.73 | 103644 | 121191
7 | 26:55.67 | 7:19.60 | 121192 | 154176


Range status and errors

Selected range

Filename C:\Users\London\Desktop\Cuby + Blizzards - Too Blind To See.wav

Peak level 99.5 %
Extraction speed 7.4 X
Range quality 100.0 %
Test CRC 37232A32
Copy CRC 37232A32
Copy OK

No errors occurred


AccurateRip summary

Track 1 accurately ripped (confidence 7) [1CF2D9A4] (AR v2)
Track 2 accurately ripped (confidence 7) [99A90FE1] (AR v2)
Track 3 accurately ripped (confidence 7) [A8F49C13] (AR v2)
Track 4 accurately ripped (confidence 7) [E416C3FE] (AR v2)
Track 5 accurately ripped (confidence 7) [C04796BE] (AR v2)
Track 6 accurately ripped (confidence 7) [2F6AFAAF] (AR v2)
Track 7 accurately ripped (confidence 7) [46AF85F6] (AR v2)

All tracks accurately ripped

End of status report

–– CUETools DB Plugin V2.1.6

[CTDB TOCID: ovTU6SZId7rQm2BrsepZXAktt.A-] found
Submit result: ovTU6SZId7rQm2BrsepZXAktt.A- has been confirmed
Track | CTDB Status
1 | (16/16) Accurately ripped
2 | (16/16) Accurately ripped
3 | (16/16) Accurately ripped
4 | (16/16) Accurately ripped
5 | (16/16) Accurately ripped
6 | (16/16) Accurately ripped
7 | (16/16) Accurately ripped


==== Log checksum 95D8B502513D5ADE1CCF30C7D0B137BA437427DCAE62B681E41CDDF4334074D6 ====

[CUETools log; Date: 16.06.2017 23:30:26; Version: 2.1.5]
[CTDB TOCID: ovTU6SZId7rQm2BrsepZXAktt.A-] found.
Track | CTDB Status
1 | (17/17) Accurately ripped
2 | (17/17) Accurately ripped
3 | (17/17) Accurately ripped
4 | (17/17) Accurately ripped
5 | (17/17) Accurately ripped
6 | (17/17) Accurately ripped
7 | (17/17) Accurately ripped
[AccurateRip ID: 0008c3b6-003560c6-58080707] found.
Track [ CRC | V2 ] Status
01 [fd08c425|1cf2d9a4] (0+7/7) Accurately ripped
02 [1f514872|99a90fe1] (0+7/7) Accurately ripped
03 [10c85604|a8f49c13] (0+7/7) Accurately ripped
04 [8e32a3dc|e416c3fe] (0+7/7) Accurately ripped
05 [81f2d0a1|c04796be] (0+7/7) Accurately ripped
06 [ed2e211c|2f6afaaf] (0+7/7) Accurately ripped
07 [373860ae|46af85f6] (0+7/7) Accurately ripped

Track Peak [ CRC32 ] [W/O NULL] [ LOG ]
– 99,5 [37232A32] [D67E62C8] CRC32
01 98,4 [F49C547E] [9B326325]
02 89,1 [36076E15] [B408C5CA]
03 99,5 [A92C6014] [A75EFF4B]
04 85,9 [8B163E83] [8EC25A0E]
05 94,9 [F1729B43] [586ADF27]
06 88,9 [4B98465A] [227E2F93]
07 99,5 [0C4BEDDF] [286EBE1A]

***************

Cuby + Blizzards - Alles Uit Grolloo (2016) {28CD Box Set, CD6-CD10}

Cuby + Blizzards - Alles Uit Grolloo (2016) {28CD Box Set, CD6-CD10}

Cuby + Blizzards - Alles Uit Grolloo (2016) {28CD Box Set, CD6-CD10}

Track List CD8 Cuby & The Blizzards - Simple Man (1971):

01. Simple Man [7:03]
02. The Faker [5:01]
03. When I'm Honest [4:01]
04. Backstreet [3:50]
05. Seasons Come And Seasons Go [5:07]
06. Gave You My Word [4:44]
07. Easy To Leave, Hard To Forget [3:59]

Exact Audio Copy V1.3 from 2. September 2016

EAC extraction logfile from 15. June 2017, 17:39

Cuby & The Blizzards / Simple Man

Used drive : ATAPI iHAS122 C Adapter: 1 ID: 0

Read mode : Secure
Utilize accurate stream : Yes
Defeat audio cache : Yes
Make use of C2 pointers : No

Read offset correction : 6
Overread into Lead-In and Lead-Out : No
Fill up missing offset samples with silence : Yes
Delete leading and trailing silent blocks : No
Null samples used in CRC calculations : Yes
Used interface : Native Win32 interface for Win NT & 2000

Used output format : Internal WAV Routines
Sample format : 44.100 Hz; 16 Bit; Stereo


TOC of the extracted CD

Track | Start | Length | Start sector | End sector
––––––––––––––––––––––––––––-
1 | 0:00.00 | 7:02.42 | 0 | 31691
2 | 7:02.42 | 5:00.61 | 31692 | 54252
3 | 12:03.28 | 4:00.67 | 54253 | 72319
4 | 16:04.20 | 3:49.67 | 72320 | 89561
5 | 19:54.12 | 5:07.15 | 89562 | 112601
6 | 25:01.27 | 4:44.25 | 112602 | 133926
7 | 29:45.52 | 3:58.57 | 133927 | 151833


Range status and errors

Selected range

Filename C:\Users\London\Desktop\Cuby & The Blizzards - Simple Man.wav

Peak level 100.0 %
Extraction speed 7.4 X
Range quality 100.0 %
Test CRC B3C318D2
Copy CRC B3C318D2
Copy OK

No errors occurred


AccurateRip summary

Track 1 accurately ripped (confidence 4) [96192834] (AR v2)
Track 2 accurately ripped (confidence 4) [53E3B98F] (AR v2)
Track 3 accurately ripped (confidence 4) [11D5ECC2] (AR v2)
Track 4 accurately ripped (confidence 4) [95C4FC3F] (AR v2)
Track 5 accurately ripped (confidence 4) [E70518FD] (AR v2)
Track 6 accurately ripped (confidence 4) [15603F38] (AR v2)
Track 7 accurately ripped (confidence 4) [541B3F64] (AR v2)

All tracks accurately ripped

End of status report

–– CUETools DB Plugin V2.1.6

[CTDB TOCID: L08yNJIFFS5cRhKVlhtMpsuGH3E-] found
Submit result: L08yNJIFFS5cRhKVlhtMpsuGH3E- has been confirmed
Track | CTDB Status
1 | (11/11) Accurately ripped
2 | (11/11) Accurately ripped
3 | (11/11) Accurately ripped
4 | (11/11) Accurately ripped
5 | (11/11) Accurately ripped
6 | (11/11) Accurately ripped
7 | (11/11) Accurately ripped


==== Log checksum 5BBC500842918380F1F846E1E9447A0775495F4AF73FBA6681A9A13844E1129F ====

[CUETools log; Date: 16.06.2017 23:31:18; Version: 2.1.5]
[CTDB TOCID: L08yNJIFFS5cRhKVlhtMpsuGH3E-] found.
Track | CTDB Status
1 | (12/12) Accurately ripped
2 | (12/12) Accurately ripped
3 | (12/12) Accurately ripped
4 | (12/12) Accurately ripped
5 | (12/12) Accurately ripped
6 | (12/12) Accurately ripped
7 | (12/12) Accurately ripped
[AccurateRip ID: 0009dc2e-0039d89f-6007e807] found.
Track [ CRC | V2 ] Status
01 [29bb216e|96192834] (0+4/4) Accurately ripped
02 [0b2e241b|53e3b98f] (0+4/4) Accurately ripped
03 [a91eb988|11d5ecc2] (0+4/4) Accurately ripped
04 [3ef30e91|95c4fc3f] (0+4/4) Accurately ripped
05 [8d560988|e70518fd] (0+4/4) Accurately ripped
06 [0b290a8b|15603f38] (0+4/4) Accurately ripped
07 [cf0f8c82|541b3f64] (0+4/4) Accurately ripped

Track Peak [ CRC32 ] [W/O NULL] [ LOG ]
– 100,0 [B3C318D2] [A9724675] CRC32
01 100,0 [BDCEFE2F] [5EF3F142]
02 100,0 [36B420A7] [C710A999]
03 99,3 [E5A73660] [97E9AD3F]
04 100,0 [7D017EFC] [BD69725C]
05 99,9 [481CA89F] [CB2D3AF9]
06 99,9 [1E039FD5] [A49D5B9F]
07 99,9 [AF34B162] [518363A4]

***************

Cuby + Blizzards - Alles Uit Grolloo (2016) {28CD Box Set, CD6-CD10}

Cuby + Blizzards - Alles Uit Grolloo (2016) {28CD Box Set, CD6-CD10}

Cuby + Blizzards - Alles Uit Grolloo (2016) {28CD Box Set, CD6-CD10}

Track List CD9 Cuby & The Blizzards - Sometimes (1972):

01. Pawn Broker [2:42]
02. Straight, No Chaser [3:18]
03. The Way I Feel [8:07]
04. I'm Drinking My Whisky [7:03]
05. Everytime [3:10]
06. Boston [4:25]
07. Sometimes [3:39]
08. Simply Jamming [3:13]

Exact Audio Copy V1.3 from 2. September 2016

EAC extraction logfile from 15. June 2017, 17:49

Cuby & The Blizzards / Sometimes

Used drive : ATAPI iHAS122 C Adapter: 1 ID: 0

Read mode : Secure
Utilize accurate stream : Yes
Defeat audio cache : Yes
Make use of C2 pointers : No

Read offset correction : 6
Overread into Lead-In and Lead-Out : No
Fill up missing offset samples with silence : Yes
Delete leading and trailing silent blocks : No
Null samples used in CRC calculations : Yes
Used interface : Native Win32 interface for Win NT & 2000

Used output format : Internal WAV Routines
Sample format : 44.100 Hz; 16 Bit; Stereo


TOC of the extracted CD

Track | Start | Length | Start sector | End sector
––––––––––––––––––––––––––––-
1 | 0:00.00 | 2:42.18 | 0 | 12167
2 | 2:42.18 | 3:18.09 | 12168 | 27026
3 | 6:00.27 | 8:07.00 | 27027 | 63551
4 | 14:07.27 | 7:02.61 | 63552 | 95262
5 | 21:10.13 | 3:10.21 | 95263 | 109533
6 | 24:20.34 | 4:24.72 | 109534 | 129405
7 | 28:45.31 | 3:39.19 | 129406 | 145849
8 | 32:24.50 | 3:12.69 | 145850 | 160318


Range status and errors

Selected range

Filename C:\Users\London\Desktop\Cuby & The Blizzards - Sometimes.wav

Peak level 100.0 %
Extraction speed 7.6 X
Range quality 100.0 %
Test CRC 76A9CA37
Copy CRC 76A9CA37
Copy OK

No errors occurred


AccurateRip summary

Track 1 accurately ripped (confidence 4) [B7403A89] (AR v2)
Track 2 accurately ripped (confidence 4) [B8077EDF] (AR v2)
Track 3 accurately ripped (confidence 4) [D7E526B6] (AR v2)
Track 4 accurately ripped (confidence 4) [CB89DDED] (AR v2)
Track 5 accurately ripped (confidence 4) [C84B456C] (AR v2)
Track 6 accurately ripped (confidence 4) [C4735159] (AR v2)
Track 7 accurately ripped (confidence 4) [DE8FE8F6] (AR v2)
Track 8 accurately ripped (confidence 4) [0E7B2B0D] (AR v2)

All tracks accurately ripped

End of status report

–– CUETools DB Plugin V2.1.6

[CTDB TOCID: TonvzbPT_kIFxUETvtkOuZTz4MM-] found
Submit result: TonvzbPT_kIFxUETvtkOuZTz4MM- has been confirmed
Track | CTDB Status
1 | (11/11) Accurately ripped
2 | (11/11) Accurately ripped
3 | (11/11) Accurately ripped
4 | (11/11) Accurately ripped
5 | (11/11) Accurately ripped
6 | (11/11) Accurately ripped
7 | (11/11) Accurately ripped
8 | (11/11) Accurately ripped


==== Log checksum 7645C94191717C2BA0CB289DD3BBD5D683A32343FDC950B401060B020FE1DA67 ====

[CUETools log; Date: 16.06.2017 23:32:00; Version: 2.1.5]
[CTDB TOCID: TonvzbPT_kIFxUETvtkOuZTz4MM-] found.
Track | CTDB Status
1 | (12/12) Accurately ripped
2 | (12/12) Accurately ripped
3 | (12/12) Accurately ripped
4 | (12/12) Accurately ripped
5 | (12/12) Accurately ripped
6 | (12/12) Accurately ripped
7 | (12/12) Accurately ripped
8 | (12/12) Accurately ripped
[AccurateRip ID: 000b56cf-004c6d12-6b085908] found.
Track [ CRC | V2 ] Status
01 [add395f3|b7403a89] (0+4/4) Accurately ripped
02 [4030e5a1|b8077edf] (0+4/4) Accurately ripped
03 [360d9689|d7e526b6] (0+4/4) Accurately ripped
04 [c71463f8|cb89dded] (0+4/4) Accurately ripped
05 [e0973acb|c84b456c] (0+4/4) Accurately ripped
06 [3a30bc9e|c4735159] (0+4/4) Accurately ripped
07 [5e077906|de8fe8f6] (0+4/4) Accurately ripped
08 [598c5b1d|0e7b2b0d] (0+4/4) Accurately ripped

Track Peak [ CRC32 ] [W/O NULL] [ LOG ]
– 100,0 [76A9CA37] [C1396D58] CRC32
01 99,6 [D5D0A397] [815D178A]
02 100,0 [28062710] [D84389A9]
03 99,9 [0875E876] [AF3E5C37]
04 100,0 [6D5BCB5C] [BB2997DA]
05 100,0 [C57B03DB] [CE71EF66]
06 100,0 [FCE85823] [924D55AA]
07 100,0 [2E360344] [758D4716]
08 100,0 [169DCC8F] [7D3BEA0E]

***************

Cuby + Blizzards - Alles Uit Grolloo (2016) {28CD Box Set, CD6-CD10}

Cuby + Blizzards - Alles Uit Grolloo (2016) {28CD Box Set, CD6-CD10}

Cuby + Blizzards - Alles Uit Grolloo (2016) {28CD Box Set, CD6-CD10}

Track List CD10 Cuby & The Blizzards - Afscheidsconcert (1974):

01. Rock Me, Baby [5:04]
02. I'm In Love [8:49]
03. Checkin'up On My Baby [5:44]
04. Night Train [6:02]
05. Hobo Blues [7:30]
06. Distant Smile [4:49]
07. Somebody Will Know Someday [7:05]
08. Johnny B. Goode [4:42]

Exact Audio Copy V1.3 from 2. September 2016

EAC extraction logfile from 15. June 2017, 18:04

Cuby & The Blizzards / Afscheidsconcert

Used drive : ATAPI iHAS122 C Adapter: 1 ID: 0

Read mode : Secure
Utilize accurate stream : Yes
Defeat audio cache : Yes
Make use of C2 pointers : No

Read offset correction : 6
Overread into Lead-In and Lead-Out : No
Fill up missing offset samples with silence : Yes
Delete leading and trailing silent blocks : No
Null samples used in CRC calculations : Yes
Used interface : Native Win32 interface for Win NT & 2000

Used output format : Internal WAV Routines
Sample format : 44.100 Hz; 16 Bit; Stereo


TOC of the extracted CD

Track | Start | Length | Start sector | End sector
––––––––––––––––––––––––––––-
1 | 0:00.00 | 5:03.46 | 0 | 22770
2 | 5:03.46 | 8:48.52 | 22771 | 62422
3 | 13:52.23 | 5:44.16 | 62423 | 88238
4 | 19:36.39 | 6:01.53 | 88239 | 115366
5 | 25:38.17 | 7:29.58 | 115367 | 149099
6 | 33:08.00 | 4:49.17 | 149100 | 170791
7 | 37:57.17 | 7:04.45 | 170792 | 202636
8 | 45:01.62 | 4:41.61 | 202637 | 223772


Range status and errors

Selected range

Filename C:\Users\London\Desktop\Cuby & The Blizzards - Afscheidsconcert.wav

Peak level 100.0 %
Extraction speed 8.1 X
Range quality 100.0 %
Test CRC B7400092
Copy CRC B7400092
Copy OK

No errors occurred


AccurateRip summary

Track 1 accurately ripped (confidence 4) [820741FB] (AR v2)
Track 2 accurately ripped (confidence 4) [C181ED5E] (AR v2)
Track 3 accurately ripped (confidence 4) [34ACE6D8] (AR v2)
Track 4 accurately ripped (confidence 4) [651AA053] (AR v2)
Track 5 accurately ripped (confidence 4) [B7FAE43D] (AR v2)
Track 6 accurately ripped (confidence 4) [A8673212] (AR v2)
Track 7 accurately ripped (confidence 4) [92CBB516] (AR v2)
Track 8 accurately ripped (confidence 4) [CAB94928] (AR v2)

All tracks accurately ripped

End of status report

–– CUETools DB Plugin V2.1.6

[CTDB TOCID: YomaWkDITpXfKN6DL_JpuTBJlxU-] found
Submit result: YomaWkDITpXfKN6DL_JpuTBJlxU- has been confirmed
Track | CTDB Status
1 | (11/11) Accurately ripped
2 | (11/11) Accurately ripped
3 | (11/11) Accurately ripped
4 | (11/11) Accurately ripped
5 | (11/11) Accurately ripped
6 | (11/11) Accurately ripped
7 | (11/11) Accurately ripped
8 | (11/11) Accurately ripped


==== Log checksum 816A511F9F5FE6C66534BFDA78EEBD113DC1CF0CEFFED330B65CEA2FFC8866AD ====

[CUETools log; Date: 16.06.2017 23:32:50; Version: 2.1.5]
[CTDB TOCID: YomaWkDITpXfKN6DL_JpuTBJlxU-] found.
Track | CTDB Status
1 | (12/12) Accurately ripped
2 | (12/12) Accurately ripped
3 | (12/12) Accurately ripped
4 | (12/12) Accurately ripped
5 | (12/12) Accurately ripped
6 | (12/12) Accurately ripped
7 | (12/12) Accurately ripped
8 | (12/12) Accurately ripped
[AccurateRip ID: 000fcb5e-00691978-670ba708] found.
Track [ CRC | V2 ] Status
01 [106d2e66|820741fb] (0+4/4) Accurately ripped
02 [65702525|c181ed5e] (0+4/4) Accurately ripped
03 [10d29151|34ace6d8] (0+4/4) Accurately ripped
04 [49213c98|651aa053] (0+4/4) Accurately ripped
05 [0d7e9622|b7fae43d] (0+4/4) Accurately ripped
06 [5518b1f6|a8673212] (0+4/4) Accurately ripped
07 [66c580e6|92cbb516] (0+4/4) Accurately ripped
08 [b3452db5|cab94928] (0+4/4) Accurately ripped

Track Peak [ CRC32 ] [W/O NULL] [ LOG ]
– 100,0 [B7400092] [06184B23] CRC32
01 100,0 [102130F2] [0AE1FEFE]
02 100,0 [D830ACE2] [073B0965]
03 100,0 [435A56E2] [A150B936]
04 100,0 [6DBF0CF2] [CAE2AF3F]
05 100,0 [7EACCCFF] [9B1A4E76]
06 100,0 [7D4FEA65] [E8C37A7E]
07 100,0 [C60D0CC1] [AEE8D371]
08 100,0 [320BBEBA] [F885A691]

Cuby + Blizzards - Alles Uit Grolloo (2016) {28CD Box Set, CD6-CD10}


See also:

Cuby + Blizzards - Alles Ui...6) {28CD Box Set, CD1-CD5}

Cuby + Blizzards - The Universal Masters Collection (2002)

All thanks go to London

>>> My Blog <<<

DOWNLOAD: