Subcategories

Cyrus Chestnut - Blessed Quietness: A Collection Of Hymns, Spirituals And Carols (1996)

Posted By: Designol
Cyrus Chestnut - Blessed Quietness: A Collection Of Hymns, Spirituals And Carols (1996)

Cyrus Chestnut - Blessed Quietness: A Collection Of Hymns, Spirituals And Carols (1996)
EAC | FLAC | Tracks (Cue&Log) ~ 157 Mb | Mp3 (CBR320) ~ 121 Mb | Covers included
Bop, Post-Bop, Piano Jazz | Label: Atlantic Jazz | # 82948-2 | Time: 00:51:29

Cyrus Chestnut covers a wide range of hymns, carols and spirituals on this outstanding solo piano CD. A very dramatic "Holy, Holy, Holy" would inspire any congregation, while the rich voicings in "We Three Kings" are subtle yet moving. "Sometimes I Feel Like a Motherless Child" is the most compelling track, with a thought-provoking arrangement that makes great use of space.

Review by Ken Dryden, Allmusic.com

In the famous 1980 cult film classic The Blues Brothers, Curtis (Cab Calloway) suggests that Jake and Elwood Blues "slide on down to the Triple Rock, and check out the Rev. Cleophus." When Jake resists the suggestion, Curtis snaps "Jake, you get wise…you get to church!" Jake and Elwood heed wise Curtis's advice and are saved. Today's generation of jazz musicians seem to have heeded Curtis' advice as well. Several heavily church influenced projects have hit the jazz shelves over the last few years, with examples of the best being Wynton Marsalis' extended composition In This House, On This Morning, Charlie Haden & Hank Jones' excellent album of spirituals Steal Away, and now Cyrus Chestnut's Blessed Quietness.

For Blessed Quietness (subtitled A Collection Of Hymns, Spirituals and Carols ), Chestnut returns to the Baptist roots of his upbringing, where (he states in the liner notes) he was first exposed to music. In tackling this set of religious classics, Chestnut also chooses to return to solo performing, opting to try for a more individually expressive experience with the music.

Does it work? Hallelujah! While Chestnut's arrangements are at times unconventional, his deep understanding of, and respect for, these songs allows him to bring some of his immense musical training to the table without losing the essence of these wonderful songs. His choice to do a variety of hymns and carols, as well as a few spirituals, keeps the disc from getting too formal, and yet keeps the religious theme constant. His talent as a pianist also adds to the mix, allowing him to flow easily from quick runs to majestic chords. Overall, this disc has the feel of a Sunday afternoon's family entertainment in a traditional Southern parlor, with a family member performing old favorites with just a touch of jazz.

Highlights for the disc will vary from listener to listener depending upon personal preference and religious conservatism. "Amazing Grace" gets a very unique treatment, as does "Holy, Holy, Holy." "What A Friend We Have In Jesus" is gorgeously done, as are "Walk With Me Jesus" and "Jesus Loves Me." "We Three Kings" begins dark and slow before picking up, only to fade back.. Chestnut's version would make an excellent soundtrack to the Magi's journey across the night time desert. "Silent Night" begins with a light, twinkling feel providing a simplicity and pureness that match the song's subject.

Blessed Quietness is a deeply personal album for Cyrus Chestnut, and therefore, a deeply refreshing one for the jazz listener. Much like Jones and Haden with Steal Away, Chestnut has taken a group of songs that already mean a great deal to the listener, and attempts to share what they mean to him. Putting his faith, heritage, and musical talent on full display, Chestnut proves himself the type of musician who is unafraid to strive for direct communication. And with his unique arrangements of several of the pieces, he proves himself a man unafraid to push towards the new.

With success that has grown steadily over the last four years, Cyrus Chestnut has been able to get to a position where he could record a disc such as this, and have it exposed to a large audience. The fact that he took such an opportunity to record this record would make Curtis and the Rev. Cleophus proud.

Highly recommended

Review by All About Jazz STAFF

Cyrus Chestnut - Blessed Quietness: A Collection Of Hymns, Spirituals And Carols (1996)



Recorded at The Power Station, Studio B, New York on April 15-16, 1996.

Tracklist:

01. Over My Head (3:08)
02. Jesus Loves Me (3:54)
03. We Three Kings (3:36)
04. Walk with Me Jesus (4:31)
05. Silent Night (4:08)
06. Amazing Grace (3:06)
07. The Old Rugged Cross (4:12)
08. Holy, Holy, Holy (4:16)
09. The First Noel (3:28)
10. Blessed Quietness (7:27)
11. What a Friend We Have in Jesus (3:17)
12. Sometimes I Feel Like a Motherless Child (6:27)


Exact Audio Copy V1.0 beta 3 from 29. August 2011

EAC extraction logfile from 22. February 2013, 19:05

Cyrus Chestnut / Blessed Quietness: A Collection of Hymns, Spirituals And Carols

Used drive : LITE-ON LTR-40125S Adapter: 3 ID: 0

Read mode : Secure
Utilize accurate stream : Yes
Defeat audio cache : Yes
Make use of C2 pointers : No

Read offset correction : 12
Overread into Lead-In and Lead-Out : No
Fill up missing offset samples with silence : Yes
Delete leading and trailing silent blocks : No
Null samples used in CRC calculations : Yes
Used interface : Native Win32 interface for Win NT & 2000
Gap handling : Appended to previous track

Used output format : User Defined Encoder
Selected bitrate : 1024 kBit/s
Quality : High
Add ID3 tag : No
Command line compressor : C:\Program Files (x86)\Exact Audio Copy\Flac\flac.exe
Additional command line options : -8 -V -T "ARTIST=%artist%" -T "TITLE=%title%" -T "ALBUM=%albumtitle%" -T "DATE=%year%" -T "TRACKNUMBER=%tracknr%" -T "GENRE=%genre%" -T "PERFORMER=%albuminterpret%" -T "COMPOSER=%composer%" %haslyrics%–tag-from-file=LYRICS="%lyricsfile%"%haslyrics% -T "ALBUMARTIST=%albumartist%" -T "DISCNUMBER=%cdnumber%" -T "TOTALDISCS=%totalcds%" -T "TOTALTRACKS=%numtracks%" -T "COMMENT=%comment%" %source% -o %dest%


TOC of the extracted CD

Track | Start | Length | Start sector | End sector
––––––––––––––––––––––––––––-
1 | 0:00.32 | 3:07.65 | 32 | 14121
2 | 3:08.22 | 3:53.70 | 14122 | 31666
3 | 7:02.17 | 3:35.63 | 31667 | 47854
4 | 10:38.05 | 4:30.50 | 47855 | 68154
5 | 15:08.55 | 4:07.50 | 68155 | 86729
6 | 19:16.30 | 3:06.30 | 86730 | 100709
7 | 22:22.60 | 4:11.55 | 100710 | 119589
8 | 26:34.40 | 4:16.27 | 119590 | 138816
9 | 30:50.67 | 3:28.03 | 138817 | 154419
10 | 34:18.70 | 7:26.52 | 154420 | 187921
11 | 41:45.47 | 3:17.08 | 187922 | 202704
12 | 45:02.55 | 6:27.12 | 202705 | 231741


Track 1

Filename C:\Users\Matthew\Desktop\Cyrus Chestnut - Blessed Quietness (1996) [FLAC]\01 Over My Head.wav

Pre-gap length 0:00:02.42

Peak level 87.8 %
Extraction speed 11.5 X
Track quality 99.9 %
Test CRC 1E1B03B6
Copy CRC 1E1B03B6
Accurately ripped (confidence 3) [AE2A7E43] (AR v2)
Copy OK

Track 2

Filename C:\Users\Matthew\Desktop\Cyrus Chestnut - Blessed Quietness (1996) [FLAC]\02 Jesus Loves Me.wav

Pre-gap length 0:00:02.66

Peak level 96.8 %
Extraction speed 15.1 X
Track quality 100.0 %
Test CRC C84833A4
Copy CRC C84833A4
Accurately ripped (confidence 3) [F35E8FDA] (AR v2)
Copy OK

Track 3

Filename C:\Users\Matthew\Desktop\Cyrus Chestnut - Blessed Quietness (1996) [FLAC]\03 We Three Kings.wav

Pre-gap length 0:00:01.77

Peak level 92.2 %
Extraction speed 15.9 X
Track quality 100.0 %
Test CRC CA285C8B
Copy CRC CA285C8B
Accurately ripped (confidence 2) [913234B2] (AR v2)
Copy OK

Track 4

Filename C:\Users\Matthew\Desktop\Cyrus Chestnut - Blessed Quietness (1996) [FLAC]\04 Walk With Me Jesus.wav

Pre-gap length 0:00:02.24

Peak level 96.7 %
Extraction speed 17.0 X
Track quality 100.0 %
Test CRC 020605D2
Copy CRC 020605D2
Accurately ripped (confidence 3) [D6EFBCF4] (AR v2)
Copy OK

Track 5

Filename C:\Users\Matthew\Desktop\Cyrus Chestnut - Blessed Quietness (1996) [FLAC]\05 Silent Night.wav

Pre-gap length 0:00:01.88

Peak level 86.6 %
Extraction speed 13.3 X
Track quality 99.9 %
Test CRC B9AAC445
Copy CRC B9AAC445
Accurately ripped (confidence 3) [D3B2D7F1] (AR v2)
Copy OK

Track 6

Filename C:\Users\Matthew\Desktop\Cyrus Chestnut - Blessed Quietness (1996) [FLAC]\06 Amazing Grace.wav

Pre-gap length 0:00:02.57

Peak level 96.2 %
Extraction speed 13.6 X
Track quality 100.0 %
Test CRC 9CE88883
Copy CRC 9CE88883
Accurately ripped (confidence 2) [482D2D1A] (AR v2)
Copy OK

Track 7

Filename C:\Users\Matthew\Desktop\Cyrus Chestnut - Blessed Quietness (1996) [FLAC]\07 The Old Rugged Cross.wav

Pre-gap length 0:00:02.17

Peak level 97.6 %
Extraction speed 15.3 X
Track quality 100.0 %
Test CRC B82DF694
Copy CRC B82DF694
Accurately ripped (confidence 3) [17370FAE] (AR v2)
Copy OK

Track 8

Filename C:\Users\Matthew\Desktop\Cyrus Chestnut - Blessed Quietness (1996) [FLAC]\08 Holy, Holy, Holy.wav

Pre-gap length 0:00:02.54

Peak level 97.6 %
Extraction speed 16.1 X
Track quality 100.0 %
Test CRC B590C140
Copy CRC B590C140
Accurately ripped (confidence 3) [73130A72] (AR v2)
Copy OK

Track 9

Filename C:\Users\Matthew\Desktop\Cyrus Chestnut - Blessed Quietness (1996) [FLAC]\09 The First Noel.wav

Pre-gap length 0:00:02.80

Peak level 91.4 %
Extraction speed 15.4 X
Track quality 100.0 %
Test CRC EA085724
Copy CRC EA085724
Accurately ripped (confidence 3) [E13E7482] (AR v2)
Copy OK

Track 10

Filename C:\Users\Matthew\Desktop\Cyrus Chestnut - Blessed Quietness (1996) [FLAC]\10 Blessed Quietness.wav

Pre-gap length 0:00:02.94

Peak level 97.6 %
Extraction speed 16.5 X
Track quality 100.0 %
Test CRC C58165BF
Copy CRC C58165BF
Accurately ripped (confidence 2) [76D1FFC6] (AR v2)
Copy OK

Track 11

Filename C:\Users\Matthew\Desktop\Cyrus Chestnut - Blessed Quietness (1996) [FLAC]\11 What A Friend We Have In Jesus.wav

Pre-gap length 0:00:02.10

Peak level 92.1 %
Extraction speed 14.2 X
Track quality 100.0 %
Test CRC F34BB5E5
Copy CRC F34BB5E5
Accurately ripped (confidence 3) [A6E83493] (AR v2)
Copy OK

Track 12

Filename C:\Users\Matthew\Desktop\Cyrus Chestnut - Blessed Quietness (1996) [FLAC]\12 Sometimes I Feel Like A Motherless Child.wav

Pre-gap length 0:00:03.24

Peak level 90.9 %
Extraction speed 19.4 X
Track quality 100.0 %
Test CRC 06FE6C67
Copy CRC 06FE6C67
Accurately ripped (confidence 3) [464E735E] (AR v2)
Copy OK


All tracks accurately ripped

No errors occurred

End of status report

==== Log checksum A21524FBA13346972156A8A94FA39FA4A4456739AF1C7F7E7A6DFA44E21F842B ====

foobar2000 1.2 / Dynamic Range Meter 1.1.1
log date: 2017-12-14 19:24:26

––––––––––––––––––––––––––––––––––––––––
Analyzed: Cyrus Chestnut / Blessed Quietness
––––––––––––––––––––––––––––––––––––––––

DR Peak RMS Duration Track
––––––––––––––––––––––––––––––––––––––––
DR20 -1.12 dB -28.16 dB 3:08 01-Over My Head
DR17 -0.28 dB -22.78 dB 3:54 02-Jesus Loves Me
DR16 -0.70 dB -22.73 dB 3:36 03-We Three Kings
DR15 -0.29 dB -22.05 dB 4:31 04-Walk with Me Jesus
DR15 -1.24 dB -21.83 dB 4:08 05-Silent Night
DR12 -0.33 dB -16.46 dB 3:06 06-Amazing Grace
DR15 -0.21 dB -20.70 dB 4:12 07-The Old Rugged Cross
DR12 -0.21 dB -14.26 dB 4:16 08-Holy, Holy, Holy
DR14 -0.78 dB -19.79 dB 3:28 09-The First Noel
DR15 -0.21 dB -19.13 dB 7:27 10-Blessed Quietness
DR13 -0.71 dB -18.68 dB 3:17 11-What a Friend We Have in Jesus
DR17 -0.82 dB -24.72 dB 6:27 12-Sometimes I Feel Like a Motherless Child
––––––––––––––––––––––––––––––––––––––––

Number of tracks: 12
Official DR value: DR15

Samplerate: 44100 Hz
Channels: 2
Bits per sample: 16
Bitrate: 398 kbps
Codec: FLAC
================================================================================

Cyrus Chestnut - Blessed Quietness: A Collection Of Hymns, Spirituals And Carols (1996)