Subcategories

Daniel May & Carolyn Perteete - Douces nuit: Berceuses de Noël (2008) {Fisher-Price} **[RE-UP]**

Posted By: TestTickles
Daniel May & Carolyn Perteete - Douces nuit: Berceuses de Noël (2008) {Fisher-Price} **[RE-UP]**

Daniel May & Carolyn Perteete - Douces nuit: Berceuses de Noël (2008) {Fisher-Price}
EAC Rip | FLAC with CUE and log | scans | 206 mb
MP3 CBR 320kbps | RAR | 130 mb
Genre: Christmas, children, lullaby

Douces nuit: Berceuses de Noël is a 2008 CD released by Fisher-Price. Arranged by Daniel May & Carolyn Perteete, this is entirely in French. It is a French edition of Silent Night: Christmas Vocal Lullabies.

Daniel May & Carolyn Perteete - Douces nuit: Berceuses de Noël (2008) {Fisher-Price} **[RE-UP]**

1. Il est né le divin enfant
2. Le premier Noëline!
3. Douce nuit
4. Petit papa Noël
5. Quel est l'enfant?
6. Autour de la crèche
7. Adeste fideles
8. La marche de rois mages
9. Les anges dans nos campagnes
10. Ecouter les anges chanter
11. Joie dans le monde
12. Entre le boeuf et l'âne gris
13. Mon beau sapin
14. O village de Bethleem

Exact Audio Copy V1.1 from 23. June 2015

EAC extraction logfile from 5. November 2016, 10:27

Daniel May & Carolyn Perteete / Douce nuit: Berceuses de Noël

Used drive : TEAC DVD-ROM DV-28SW Adapter: 1 ID: 0

Read mode : Secure
Utilize accurate stream : Yes
Defeat audio cache : Yes
Make use of C2 pointers : No

Read offset correction : 6
Overread into Lead-In and Lead-Out : No
Fill up missing offset samples with silence : Yes
Delete leading and trailing silent blocks : No
Null samples used in CRC calculations : Yes
Used interface : Native Win32 interface for Win NT & 2000
Gap handling : Appended to previous track

Used output format : Internal WAV Routines
Sample format : 44.100 Hz; 16 Bit; Stereo


TOC of the extracted CD

Track | Start | Length | Start sector | End sector
––––––––––––––––––––––––––––-
1 | 0:00.00 | 4:02.59 | 0 | 18208
2 | 4:02.59 | 4:59.21 | 18209 | 40654
3 | 9:02.05 | 4:51.37 | 40655 | 62516
4 | 13:53.42 | 4:31.51 | 62517 | 82892
5 | 18:25.18 | 4:41.21 | 82893 | 103988
6 | 23:06.39 | 3:00.29 | 103989 | 117517
7 | 26:06.68 | 3:09.61 | 117518 | 131753
8 | 29:16.54 | 3:33.62 | 131754 | 147790
9 | 32:50.41 | 3:54.12 | 147791 | 165352
10 | 36:44.53 | 4:58.36 | 165353 | 187738
11 | 41:43.14 | 3:41.59 | 187739 | 204372
12 | 45:24.73 | 3:59.49 | 204373 | 222346
13 | 49:24.47 | 3:19.55 | 222347 | 237326
14 | 52:44.27 | 3:14.37 | 237327 | 251913


Track 1

Filename C:\My Documents\My FLAC\Daniel May & Carolyn Perteete - Douces nuit, Berceuses de Noël (2008) [FLAC] {Fisher-Price}\01 - Il est né le divin enfant.wav

Pre-gap length 0:00:02.00

Peak level 50.6 %
Extraction speed 2.7 X
Track quality 100.0 %
Test CRC E9E4C3C3
Copy CRC E9E4C3C3
Track not present in AccurateRip database
Copy OK

Track 2

Filename C:\My Documents\My FLAC\Daniel May & Carolyn Perteete - Douces nuit, Berceuses de Noël (2008) [FLAC] {Fisher-Price}\02 - Le premier Noël.wav

Pre-gap length 0:00:02.07

Peak level 73.3 %
Extraction speed 3.1 X
Track quality 100.0 %
Test CRC 343702E7
Copy CRC 343702E7
Track not present in AccurateRip database
Copy OK

Track 3

Filename C:\My Documents\My FLAC\Daniel May & Carolyn Perteete - Douces nuit, Berceuses de Noël (2008) [FLAC] {Fisher-Price}\03 - Douce nuit.wav

Pre-gap length 0:00:02.00

Peak level 74.6 %
Extraction speed 2.6 X
Track quality 99.9 %
Test CRC 1172FA49
Copy CRC 1172FA49
Track not present in AccurateRip database
Copy OK

Track 4

Filename C:\My Documents\My FLAC\Daniel May & Carolyn Perteete - Douces nuit, Berceuses de Noël (2008) [FLAC] {Fisher-Price}\04 - Petit papa Noël.wav

Pre-gap length 0:00:02.00

Peak level 62.6 %
Extraction speed 3.5 X
Track quality 100.0 %
Test CRC 9D35ABC7
Copy CRC 9D35ABC7
Track not present in AccurateRip database
Copy OK

Track 5

Filename C:\My Documents\My FLAC\Daniel May & Carolyn Perteete - Douces nuit, Berceuses de Noël (2008) [FLAC] {Fisher-Price}\05 - Quel est l'enfant.wav

Pre-gap length 0:00:01.00

Peak level 73.4 %
Extraction speed 3.8 X
Track quality 100.0 %
Test CRC 34FB824F
Copy CRC 34FB824F
Track not present in AccurateRip database
Copy OK

Track 6

Filename C:\My Documents\My FLAC\Daniel May & Carolyn Perteete - Douces nuit, Berceuses de Noël (2008) [FLAC] {Fisher-Price}\06 - Autour de la crèche.wav

Pre-gap length 0:00:02.00

Peak level 64.7 %
Extraction speed 3.6 X
Track quality 100.0 %
Test CRC 5BB1A19B
Copy CRC 5BB1A19B
Track not present in AccurateRip database
Copy OK

Track 7

Filename C:\My Documents\My FLAC\Daniel May & Carolyn Perteete - Douces nuit, Berceuses de Noël (2008) [FLAC] {Fisher-Price}\07 - Adeste fideles.wav

Pre-gap length 0:00:02.00

Peak level 68.3 %
Extraction speed 3.8 X
Track quality 100.0 %
Test CRC 555D5FCB
Copy CRC 555D5FCB
Track not present in AccurateRip database
Copy OK

Track 8

Filename C:\My Documents\My FLAC\Daniel May & Carolyn Perteete - Douces nuit, Berceuses de Noël (2008) [FLAC] {Fisher-Price}\08 - La marche de rois mages.wav

Pre-gap length 0:00:02.00

Peak level 54.1 %
Extraction speed 3.6 X
Track quality 100.0 %
Test CRC 21BF65E3
Copy CRC 21BF65E3
Track not present in AccurateRip database
Copy OK

Track 9

Filename C:\My Documents\My FLAC\Daniel May & Carolyn Perteete - Douces nuit, Berceuses de Noël (2008) [FLAC] {Fisher-Price}\09 - Les anges dans nos campagnes.wav

Pre-gap length 0:00:02.00

Peak level 64.6 %
Extraction speed 4.3 X
Track quality 100.0 %
Test CRC D4745308
Copy CRC D4745308
Track not present in AccurateRip database
Copy OK

Track 10

Filename C:\My Documents\My FLAC\Daniel May & Carolyn Perteete - Douces nuit, Berceuses de Noël (2008) [FLAC] {Fisher-Price}\10 - Ecouter les anges chanter.wav

Pre-gap length 0:00:02.00

Peak level 75.9 %
Extraction speed 3.8 X
Track quality 99.9 %
Test CRC 3A590D32
Copy CRC 3A590D32
Track not present in AccurateRip database
Copy OK

Track 11

Filename C:\My Documents\My FLAC\Daniel May & Carolyn Perteete - Douces nuit, Berceuses de Noël (2008) [FLAC] {Fisher-Price}\11 - Joie dans le monde.wav

Pre-gap length 0:00:02.00

Peak level 73.4 %
Extraction speed 3.9 X
Track quality 99.9 %
Test CRC 3B5387D2
Copy CRC 3B5387D2
Track not present in AccurateRip database
Copy OK

Track 12

Filename C:\My Documents\My FLAC\Daniel May & Carolyn Perteete - Douces nuit, Berceuses de Noël (2008) [FLAC] {Fisher-Price}\12 - Entre le boeuf et l'âne gris.wav

Pre-gap length 0:00:03.00

Peak level 62.0 %
Extraction speed 2.9 X
Track quality 99.9 %
Test CRC F9A7CD4D
Copy CRC F9A7CD4D
Track not present in AccurateRip database
Copy OK

Track 13

Filename C:\My Documents\My FLAC\Daniel May & Carolyn Perteete - Douces nuit, Berceuses de Noël (2008) [FLAC] {Fisher-Price}\13 - Mon beau sapin.wav

Pre-gap length 0:00:02.00

Peak level 66.6 %
Extraction speed 4.9 X
Track quality 100.0 %
Test CRC 0D71381E
Copy CRC 0D71381E
Track not present in AccurateRip database
Copy OK

Track 14

Filename C:\My Documents\My FLAC\Daniel May & Carolyn Perteete - Douces nuit, Berceuses de Noël (2008) [FLAC] {Fisher-Price}\14 - O village de Bethleem.wav

Pre-gap length 0:00:03.00

Peak level 54.8 %
Extraction speed 0.5 X
Track quality 100.0 %
Test CRC B3CE1FA1
Copy CRC B3CE1FA1
Track not present in AccurateRip database
Copy OK


None of the tracks are present in the AccurateRip database

No errors occurred

End of status report

–– CUETools DB Plugin V2.1.6

[CTDB TOCID: 6VsllhHC2miDvkdNojS.9qVDxfE-] disk not present in database
Submit result: 6VsllhHC2miDvkdNojS.9qVDxfE- has been uploaded


==== Log checksum 63F6DA36182795818C8A8FA404D8158D5CA48137F6B11F26D2447D464D673703 ====


Daniel May & Carolyn Perteete - Douces nuit: Berceuses de Noël (2008) {Fisher-Price} **[RE-UP]**