Subcategories

David Axelrod - The Edge: David Axelrod At Capitol Records 1966-1970 (2005) {Capitol Jazz}

Posted By: TestTickles
David Axelrod - The Edge: David Axelrod At Capitol Records 1966-1970 (2005) {Capitol Jazz}

David Axelrod - The Edge: David Axelrod At Capitol Records 1966-1970 (2005) {Capitol Jazz}
EAC Rip | FLAC with CUE and log | scans | 482 mb
MP3 CBR 320kbps | RAR | 189 mb
Genre: jazz, R&B, soul, orchestral pop, jazz

The Edge: David Axelrod At Capitol Records 1966-1970 is a 2005 compilation album by producer/conductor David Axelrod. Released by Capitol Jazz, The Edge looks at part of his own discography while showing his contributions when he was the A&R for Capitol's Black music division by bringing in Lou Rawls, Letta Mbulu and others. His blend of orchestral jazz soul would become a sampling tool for countless hip-hop songs in the 1990's when producers dabbled in his output.

David Axelrod - The Edge: David Axelrod At Capitol Records 1966-1970 (2005) {Capitol Jazz}

1. David McCallum - House Of Mirrors (2:22)
2. David McCallum - The Edge (2:54)
3. Letta Mbulu - Pula Yetla (3:37)
4. Lou Rawls - Lifetime Monologue (1:52)
5. Lou Rawls - You've Made Me So Very Happy (4:25)
6. David Axelrod - The Smile (3:25)
7. David Axelrod - Song Of Innocence (4:31)
8. David Axelrod - The Mental Traveler (4:02)
9. David Axelrod - A Divine Image (4:37)
10. David Axelrod - London (2:47)
11. David Axelrod - The Fly (4:48)
12. David Axelrod - Human Abstract (5:27)
13. David Axelrod - Warning Talk, Part One (2:48)
14. David Axelrod - Warning Talk, Part Three (4:39)
15. David Axelrod - The Signs, Part One (3:44)
16. Don Randi - Theme From The Fox (3:54)
17. Cannonball Adderley - Tensity (12:35)

Compilation produced, researched, and annotated by Eothan "Egon" Alapatt
Additional research and annotation by Michel Ruppli
Executive Producer: Eli Wolf
Mixed and mastered by Dave Cooley

David Axelrod - The Edge: David Axelrod At Capitol Records 1966-1970 (2005) {Capitol Jazz}


Exact Audio Copy V1.1 from 23. June 2015

EAC extraction logfile from 30. April 2017, 7:44

David Axelrod / The Edge

Used drive : TEAC DVD-ROM DV-28SW Adapter: 1 ID: 0

Read mode : Secure
Utilize accurate stream : Yes
Defeat audio cache : Yes
Make use of C2 pointers : No

Read offset correction : 6
Overread into Lead-In and Lead-Out : No
Fill up missing offset samples with silence : Yes
Delete leading and trailing silent blocks : No
Null samples used in CRC calculations : Yes
Used interface : Native Win32 interface for Win NT & 2000
Gap handling : Appended to previous track

Used output format : Internal WAV Routines
Sample format : 44.100 Hz; 16 Bit; Stereo


TOC of the extracted CD

Track | Start | Length | Start sector | End sector
––––––––––––––––––––––––––––-
1 | 0:00.00 | 2:21.69 | 0 | 10643
2 | 2:21.69 | 2:54.09 | 10644 | 23702
3 | 5:16.03 | 3:37.00 | 23703 | 39977
4 | 8:53.03 | 1:51.44 | 39978 | 48346
5 | 10:44.47 | 4:24.38 | 48347 | 68184
6 | 15:09.10 | 3:24.66 | 68185 | 83550
7 | 18:34.01 | 4:30.71 | 83551 | 103871
8 | 23:04.72 | 4:02.30 | 103872 | 122051
9 | 27:07.27 | 4:36.48 | 122052 | 142799
10 | 31:44.00 | 2:46.65 | 142800 | 155314
11 | 34:30.65 | 4:47.64 | 155315 | 176903
12 | 39:18.54 | 5:26.74 | 176904 | 201427
13 | 44:45.53 | 2:47.68 | 201428 | 214020
14 | 47:33.46 | 4:38.49 | 214021 | 234919
15 | 52:12.20 | 3:43.66 | 234920 | 251710
16 | 55:56.11 | 3:53.43 | 251711 | 269228
17 | 59:49.54 | 12:35.33 | 269229 | 325886


Track 1

Filename C:\My Documents\My FLAC\David Axelrod - The Edge (2005) [FLAC] {Capitol Jazz}\01 - David McCallum - House Of Mirrors.wav

Pre-gap length 0:00:02.00

Peak level 88.2 %
Extraction speed 2.5 X
Track quality 100.0 %
Test CRC F56C881A
Copy CRC F56C881A
Accurately ripped (confidence 10) [33285F8E] (AR v2)
Copy OK

Track 2

Filename C:\My Documents\My FLAC\David Axelrod - The Edge (2005) [FLAC] {Capitol Jazz}\02 - David McCallum - The Edge.wav

Pre-gap length 0:00:00.10

Peak level 86.9 %
Extraction speed 2.6 X
Track quality 100.0 %
Test CRC 7F9998AD
Copy CRC 7F9998AD
Accurately ripped (confidence 10) [9A06FFF1] (AR v2)
Copy OK

Track 3

Filename C:\My Documents\My FLAC\David Axelrod - The Edge (2005) [FLAC] {Capitol Jazz}\03 - Letta Mbulu - Pula Yetla.wav

Pre-gap length 0:00:00.05

Peak level 89.7 %
Extraction speed 3.1 X
Track quality 100.0 %
Test CRC 50FF398E
Copy CRC 50FF398E
Accurately ripped (confidence 10) [031CA438] (AR v2)
Copy OK

Track 4

Filename C:\My Documents\My FLAC\David Axelrod - The Edge (2005) [FLAC] {Capitol Jazz}\04 - Lou Rawls - Lifetime Monologue.wav

Pre-gap length 0:00:00.27

Peak level 91.7 %
Extraction speed 2.8 X
Track quality 100.0 %
Test CRC F453126A
Copy CRC F453126A
Accurately ripped (confidence 10) [AD35F1DA] (AR v2)
Copy OK

Track 5

Filename C:\My Documents\My FLAC\David Axelrod - The Edge (2005) [FLAC] {Capitol Jazz}\05 - Lou Rawls - You've Made Me So Very Happy.wav

Peak level 90.0 %
Extraction speed 3.5 X
Track quality 100.0 %
Test CRC 35891AAF
Copy CRC 35891AAF
Accurately ripped (confidence 10) [84BA11EC] (AR v2)
Copy OK

Track 6

Filename C:\My Documents\My FLAC\David Axelrod - The Edge (2005) [FLAC] {Capitol Jazz}\06 - David Axelrod - The Smile.wav

Pre-gap length 0:00:00.10

Peak level 90.0 %
Extraction speed 3.5 X
Track quality 100.0 %
Test CRC DA693F05
Copy CRC DA693F05
Accurately ripped (confidence 10) [24BE24A3] (AR v2)
Copy OK

Track 7

Filename C:\My Documents\My FLAC\David Axelrod - The Edge (2005) [FLAC] {Capitol Jazz}\07 - David Axelrod - Songs Of Innocence.wav

Pre-gap length 0:00:00.11

Peak level 91.3 %
Extraction speed 3.8 X
Track quality 100.0 %
Test CRC DB747567
Copy CRC DB747567
Accurately ripped (confidence 10) [6FD7B743] (AR v2)
Copy OK

Track 8

Filename C:\My Documents\My FLAC\David Axelrod - The Edge (2005) [FLAC] {Capitol Jazz}\08 - David Axelrod - The Mental Traveler.wav

Pre-gap length 0:00:00.08

Peak level 90.0 %
Extraction speed 4.0 X
Track quality 100.0 %
Test CRC A446304A
Copy CRC A446304A
Accurately ripped (confidence 10) [D532C149] (AR v2)
Copy OK

Track 9

Filename C:\My Documents\My FLAC\David Axelrod - The Edge (2005) [FLAC] {Capitol Jazz}\09 - David Axelrod - A Divine Image.wav

Pre-gap length 0:00:00.18

Peak level 87.8 %
Extraction speed 4.3 X
Track quality 100.0 %
Test CRC 1495E4CD
Copy CRC 1495E4CD
Accurately ripped (confidence 10) [F9709B94] (AR v2)
Copy OK

Track 10

Filename C:\My Documents\My FLAC\David Axelrod - The Edge (2005) [FLAC] {Capitol Jazz}\10 - David Axelrod - London.wav

Pre-gap length 0:00:00.10

Peak level 88.3 %
Extraction speed 4.1 X
Track quality 100.0 %
Test CRC A35D4F98
Copy CRC A35D4F98
Accurately ripped (confidence 10) [C1237F1F] (AR v2)
Copy OK

Track 11

Filename C:\My Documents\My FLAC\David Axelrod - The Edge (2005) [FLAC] {Capitol Jazz}\11 - David Axelrod - The Fly.wav

Pre-gap length 0:00:00.17

Peak level 90.8 %
Extraction speed 4.0 X
Track quality 99.9 %
Test CRC 1C8ED945
Copy CRC 1C8ED945
Accurately ripped (confidence 10) [1BBF5204] (AR v2)
Copy OK

Track 12

Filename C:\My Documents\My FLAC\David Axelrod - The Edge (2005) [FLAC] {Capitol Jazz}\12 - David Axelrod - Human Abstract.wav

Pre-gap length 0:00:00.02

Peak level 89.2 %
Extraction speed 4.2 X
Track quality 99.9 %
Test CRC ED6ADACC
Copy CRC ED6ADACC
Accurately ripped (confidence 10) [6096CB34] (AR v2)
Copy OK

Track 13

Filename C:\My Documents\My FLAC\David Axelrod - The Edge (2005) [FLAC] {Capitol Jazz}\13 - David Axelrod - Warning Talk (Part One).wav

Pre-gap length 0:00:00.01

Peak level 88.5 %
Extraction speed 4.5 X
Track quality 100.0 %
Test CRC 09F07EDE
Copy CRC 09F07EDE
Accurately ripped (confidence 10) [DD8D6028] (AR v2)
Copy OK

Track 14

Filename C:\My Documents\My FLAC\David Axelrod - The Edge (2005) [FLAC] {Capitol Jazz}\14 - David Axelrod - Warning Talk (Part Three).wav

Pre-gap length 0:00:00.07

Peak level 88.5 %
Extraction speed 5.1 X
Track quality 100.0 %
Test CRC D005A0C8
Copy CRC D005A0C8
Accurately ripped (confidence 10) [065DFB46] (AR v2)
Copy OK

Track 15

Filename C:\My Documents\My FLAC\David Axelrod - The Edge (2005) [FLAC] {Capitol Jazz}\15 - David Axelrod - The Signs (Part One).wav

Pre-gap length 0:00:00.02

Peak level 88.4 %
Extraction speed 4.6 X
Track quality 100.0 %
Test CRC 36DF7456
Copy CRC 36DF7456
Accurately ripped (confidence 10) [E275AABD] (AR v2)
Copy OK

Track 16

Filename C:\My Documents\My FLAC\David Axelrod - The Edge (2005) [FLAC] {Capitol Jazz}\16 - Don Randi - Theme From ''The Fox''.wav

Pre-gap length 0:00:00.01

Peak level 90.2 %
Extraction speed 0.6 X
Track quality 100.0 %
Test CRC B2A2913E
Copy CRC B2A2913E
Accurately ripped (confidence 10) [0C91A97B] (AR v2)
Copy OK

Track 17

Filename C:\My Documents\My FLAC\David Axelrod - The Edge (2005) [FLAC] {Capitol Jazz}\17 - Cannonball Adderley - Tensity.wav

Pre-gap length 0:00:00.09

Peak level 89.3 %
Extraction speed 5.1 X
Track quality 100.0 %
Test CRC A9B9F78C
Copy CRC A9B9F78C
Accurately ripped (confidence 10) [AFB09A6C] (AR v2)
Copy OK


All tracks accurately ripped

No errors occurred

End of status report

–– CUETools DB Plugin V2.1.6

[CTDB TOCID: tJXvNc5aCBCfbVqzoFwU233BOp0-] found
Submit result: tJXvNc5aCBCfbVqzoFwU233BOp0- has been confirmed
Track | CTDB Status
1 | (12/15) Accurately ripped, or (1/15) differs in 196 samples @00:58:31-00:58:32
2 | (13/15) Accurately ripped
3 | (13/15) Accurately ripped
4 | (12/15) Accurately ripped, or (1/15) differs in 24 samples @01:05:40-01:05:41
5 | (12/15) Accurately ripped, or (1/15) differs in 30 samples @00:10:59-00:10:60
6 | (12/15) Accurately ripped, or (1/15) differs in 74 samples @00:41:33-00:41:34
7 | (13/15) Accurately ripped
8 | (12/15) Accurately ripped, or (1/15) differs in 316 samples @02:58:34-02:58:35
9 | (13/15) Accurately ripped
10 | (13/15) Accurately ripped
11 | (13/15) Accurately ripped
12 | (13/15) Accurately ripped
13 | (13/15) Accurately ripped
14 | (13/15) Accurately ripped
15 | (13/15) Accurately ripped
16 | (13/15) Accurately ripped
17 | (12/15) Accurately ripped, or (1/15) differs in 169 samples @11:22:64-11:22:65


==== Log checksum DFC186A73E9C1E53BFEF7EFB4552B27201C5523098A3341F1D8B4F8F15817EF0 ====


David Axelrod - The Edge: David Axelrod At Capitol Records 1966-1970 (2005) {Capitol Jazz}