Subcategories

David Peel & The Lower East Side - Have A Marijuana (1968) {1991 Linea}

Posted By: TestTickles
David Peel & The Lower East Side - Have A Marijuana (1968) {1991 Linea}

David Peel & The Lower East Side - Have A Marijuana (1968) {1991 Linea}
EAC Rip | FLAC with CUE and log | scans | 183 mb
MP3 CBR 320kbps | RAR | 75 mb
Genre: folk rock

Have A Marijuana is a 1968 album by David Peel & The Lower East Side. Originally released on Elektra Records, this version was released by the Line Records subsidiary, Linea.

David Peel & The Lower East Side - Have A Marijuana (1968) {1991 Linea}

01. Mother Where Is My Father (3:07)
02. I Like Marijuana (5:18)
03. Here Comes A Cop (2:36)
04. I've Got Some Grass (0:38)
05. Happy Mother's Day (2:06)
06. Up Against The Wall (1:43)
07. I Do My Bawling In The Bathroom (6:57)
08. The Alphabet Song (2:03)
09. Show Me The Way To Get Stoned (2:45)
10. We Love You (3:17)

EAC extraction logfile from 9. August 2006, 9:37 for CD
David Peel & the lower east side / Have A Marijuana (Rec. live on streets of N.Y.)

Used drive : SONY DVD RW DRU-820A Adapter: 1 ID: 0
Read mode : Secure with NO C2, accurate stream, disable cache
Read offset correction : 102
Overread into Lead-In and Lead-Out : No

Used output format : C:\Program Files\Exact Audio Copy\flac.exe (User Defined Encoder)
320 kBit/s
Additional command line options : -V -8 -T "artist=%a" -T "title=%t" -T "album=%g" -T "date=%y" -T "tracknumber=%n" -T "genre=%m" %s

Other options :
Fill up missing offset samples with silence : Yes
Delete leading and trailing silent blocks : No
Installed external ASPI interface


Track 1
Filename C:\FLAC\David Peel & The Lower East Side - Have A Marijuana (1968) [FLAC] {1991 Linea}\01 - Mother Where Is My Father.wav

Pre-gap length 0:00:02.00

Peak level 79.7 %
Track quality 100.0 %
Test CRC B6BE8E8F
Copy CRC B6BE8E8F
Copy OK

Track 2
Filename C:\FLAC\David Peel & The Lower East Side - Have A Marijuana (1968) [FLAC] {1991 Linea}\02 - I Like Marijuana.wav

Peak level 96.4 %
Track quality 99.9 %
Test CRC F5635E5F
Copy CRC F5635E5F
Copy OK

Track 3
Filename C:\FLAC\David Peel & The Lower East Side - Have A Marijuana (1968) [FLAC] {1991 Linea}\03 - Here Comes A Cop.wav

Peak level 87.3 %
Track quality 99.9 %
Test CRC 8E60B9A4
Copy CRC 8E60B9A4
Copy OK

Track 4
Filename C:\FLAC\David Peel & The Lower East Side - Have A Marijuana (1968) [FLAC] {1991 Linea}\04 - I've Got Some Grass.wav

Peak level 72.8 %
Track quality 100.0 %
Test CRC DEBAAF8D
Copy CRC DEBAAF8D
Copy OK

Track 5
Filename C:\FLAC\David Peel & The Lower East Side - Have A Marijuana (1968) [FLAC] {1991 Linea}\05 - Happy Mother's Day.wav

Peak level 80.8 %
Track quality 99.9 %
Test CRC 6B368B61
Copy CRC 6B368B61
Copy OK

Track 6
Filename C:\FLAC\David Peel & The Lower East Side - Have A Marijuana (1968) [FLAC] {1991 Linea}\06 - Up Against The Wall.wav

Peak level 67.9 %
Track quality 100.0 %
Test CRC 7C7127D2
Copy CRC 7C7127D2
Copy OK

Track 7
Filename C:\FLAC\David Peel & The Lower East Side - Have A Marijuana (1968) [FLAC] {1991 Linea}\07 - I Do My Bawling In The Bathroom.wav

Peak level 97.2 %
Track quality 100.0 %
Test CRC 1BE67C05
Copy CRC 1BE67C05
Copy OK

Track 8
Filename C:\FLAC\David Peel & The Lower East Side - Have A Marijuana (1968) [FLAC] {1991 Linea}\08 - The Alphabet Song.wav

Peak level 85.9 %
Track quality 100.0 %
Test CRC 37A90521
Copy CRC 37A90521
Copy OK

Track 9
Filename C:\FLAC\David Peel & The Lower East Side - Have A Marijuana (1968) [FLAC] {1991 Linea}\09 - Show Me The Way To Get Stoned.wav

Peak level 85.3 %
Track quality 100.0 %
Test CRC 8CB06E8D
Copy CRC 8CB06E8D
Copy OK

Track 10
Filename C:\FLAC\David Peel & The Lower East Side - Have A Marijuana (1968) [FLAC] {1991 Linea}\10 - We Love You.wav

Peak level 95.5 %
Track quality 100.0 %
Test CRC A61DEF0C
Copy CRC A61DEF0C
Copy OK

No errors occured


End of status report


David Peel & The Lower East Side - Have A Marijuana (1968) {1991 Linea}


Thank you to the original uploader.