VA - Daytrippers: Songs Of The Beatles (2005) {Warner Strategic Marketing} **[RE-UP]**

Posted By: TestTickles
VA - Daytrippers: Songs Of The Beatles (2005) {Warner Strategic Marketing} **[RE-UP]**

VA - Daytrippers: Songs Of The Beatles (2005) {Warner Strategic Marketing}
EAC Rip | FLAC with CUE and log | scans | 442 mb
MP3 CBR 320kbps | RAR | 177 mb
Genre: jazz, soul, R&B

Daytrippers: Songs Of The Beatles is a 2005 British compilation compact disc featuring jazz and soul renditions of Beatles songs (and one George Harrison solo track) from the Atlantic and Warner catalogs. It features songs by Aretha Franklin, Otis Redding, Herbie Mann, Carmen McRae, and many more. This was released by Warner Strategic Marketing.

VA - Daytrippers: Songs Of The Beatles (2005) {Warner Strategic Marketing} **[RE-UP]**

01. Otis Redding - Day Tripper
02. Herbie Mann - The Nght Before
03. Ray Ellis - I Feel Fine
04. Carmen McRae - Here There And Everywhere
05. Shirley Scott - Because
06. Esther Phillips - And I Love Him
07. Don Randi Trio - Yellow Submarine
08. King Curtis - Hey Jude
09. Clarence Carter - Let It Be
10. Aretha Franklin - Eleanor Rigby
11. Arthur Conley - Ob-La-Di, Ob-La-Da
12. Johnny Harris - Give Peace A Chance
13. Marion Williams - My Sweet Lord
14. Don Randi Trio - Got To Get You Into My Life
15. Carmen McRae - Something
16. Ray Ellis - Yesterday
17. King Curtis - Michelle
18. Herbie Mann - Come Together
19. Brad Mehldau - Dear Prudence


EAC extraction logfile from 28. April 2006, 0:07 for CD
Various / Daytrippers - Songs Of The Beatles

Used drive : LITE-ON DVDRW SOHW-1633S Adapter: 0 ID: 0
Read mode : Secure with NO C2, accurate stream, disable cache
Read offset correction : 12
Overread into Lead-In and Lead-Out : No

Used output format : Internal WAV Routines
44.100 Hz; 16 Bit; Stereo

Other options :
Fill up missing offset samples with silence : Yes
Delete leading and trailing silent blocks : No
Installed external ASPI interface


Track 1
Filename D:\FLAC\VA - Daytrippers-Songs Of The Beatles (2005) [FLAC]\01 - Otis Redding - Day Tripper.wav

Pre-gap length 0:00:02.00

Peak level 97.1 %
Track quality 100.0 %
Test CRC E9F8B51B
Copy CRC E9F8B51B
Copy OK

Track 2
Filename D:\FLAC\VA - Daytrippers-Songs Of The Beatles (2005) [FLAC]\02 - Herbie Mann - The Night Before.wav

Pre-gap length 0:00:01.62

Peak level 92.6 %
Track quality 100.0 %
Test CRC DED26473
Copy CRC DED26473
Copy OK

Track 3
Filename D:\FLAC\VA - Daytrippers-Songs Of The Beatles (2005) [FLAC]\03 - Ray Ellis - I Feel Fine.wav

Pre-gap length 0:00:01.64

Peak level 77.7 %
Track quality 100.0 %
Test CRC FC878B71
Copy CRC FC878B71
Copy OK

Track 4
Filename D:\FLAC\VA - Daytrippers-Songs Of The Beatles (2005) [FLAC]\04 - Carmen McRae - Here There And Everywhere.wav

Pre-gap length 0:00:01.62

Peak level 92.6 %
Track quality 100.0 %
Test CRC B6C1A4BF
Copy CRC B6C1A4BF
Copy OK

Track 5
Filename D:\FLAC\VA - Daytrippers-Songs Of The Beatles (2005) [FLAC]\05 - Shirley Scott - Because.wav

Pre-gap length 0:00:01.64

Peak level 94.8 %
Track quality 99.9 %
Test CRC 213E5204
Copy CRC 213E5204
Copy OK

Track 6
Filename D:\FLAC\VA - Daytrippers-Songs Of The Beatles (2005) [FLAC]\06 - Esther Phillips - And I Love Him.wav

Pre-gap length 0:00:01.62

Peak level 85.4 %
Track quality 100.0 %
Test CRC 7A31560E
Copy CRC 7A31560E
Copy OK

Track 7
Filename D:\FLAC\VA - Daytrippers-Songs Of The Beatles (2005) [FLAC]\07 - Don Randi Trio - Yellow Submarine.wav

Pre-gap length 0:00:01.62

Peak level 96.8 %
Track quality 99.9 %
Test CRC 377BC960
Copy CRC 377BC960
Copy OK

Track 8
Filename D:\FLAC\VA - Daytrippers-Songs Of The Beatles (2005) [FLAC]\08 - King Curtis - Hey Jude.wav

Pre-gap length 0:00:01.64

Peak level 87.2 %
Track quality 100.0 %
Test CRC E02414B4
Copy CRC E02414B4
Copy OK

Track 9
Filename D:\FLAC\VA - Daytrippers-Songs Of The Beatles (2005) [FLAC]\09 - Clarence Carter - Let It Be.wav

Pre-gap length 0:00:01.61

Peak level 94.8 %
Track quality 100.0 %
Test CRC D4E0669C
Copy CRC D4E0669C
Copy OK

Track 10
Filename D:\FLAC\VA - Daytrippers-Songs Of The Beatles (2005) [FLAC]\10 - Aretha Franklin - Eleanor Rigby.wav

Pre-gap length 0:00:01.64

Peak level 77.7 %
Track quality 100.0 %
Test CRC ECC5D7CF
Copy CRC ECC5D7CF
Copy OK

Track 11
Filename D:\FLAC\VA - Daytrippers-Songs Of The Beatles (2005) [FLAC]\11 - Arthur Conley - Ob-La-Di, Ob-La-Da.wav

Pre-gap length 0:00:01.64

Peak level 94.8 %
Track quality 100.0 %
Test CRC AB955039
Copy CRC AB955039
Copy OK

Track 12
Filename D:\FLAC\VA - Daytrippers-Songs Of The Beatles (2005) [FLAC]\12 - Johnny Harris - Give Peace A Chance.wav

Pre-gap length 0:00:01.64

Peak level 84.0 %
Track quality 100.0 %
Test CRC 8BE11D32
Copy CRC 8BE11D32
Copy OK

Track 13
Filename D:\FLAC\VA - Daytrippers-Songs Of The Beatles (2005) [FLAC]\13 - Marion Williams - My Sweet Lord.wav

Pre-gap length 0:00:01.62

Peak level 87.2 %
Track quality 99.9 %
Test CRC 894C2917
Copy CRC 894C2917
Copy OK

Track 14
Filename D:\FLAC\VA - Daytrippers-Songs Of The Beatles (2005) [FLAC]\14 - Don Randi Trio - Got To Get You Into My Life.wav

Pre-gap length 0:00:01.62

Peak level 96.8 %
Track quality 100.0 %
Test CRC 6D29C65A
Copy CRC 6D29C65A
Copy OK

Track 15
Filename D:\FLAC\VA - Daytrippers-Songs Of The Beatles (2005) [FLAC]\15 - Carmen McRae - Something.wav

Pre-gap length 0:00:01.62

Peak level 96.8 %
Track quality 100.0 %
Test CRC 1357FA94
Copy CRC 1357FA94
Copy OK

Track 16
Filename D:\FLAC\VA - Daytrippers-Songs Of The Beatles (2005) [FLAC]\16 - Ray Ellis - Yesterday.wav

Pre-gap length 0:00:01.64

Peak level 92.6 %
Track quality 100.0 %
Test CRC A97A5CB1
Copy CRC A97A5CB1
Copy OK

Track 17
Filename D:\FLAC\VA - Daytrippers-Songs Of The Beatles (2005) [FLAC]\17 - King Curtis - Michelle.wav

Pre-gap length 0:00:01.64

Peak level 91.0 %
Track quality 99.9 %
Test CRC 7475DD67
Copy CRC 7475DD67
Copy OK

Track 18
Filename D:\FLAC\VA - Daytrippers-Songs Of The Beatles (2005) [FLAC]\18 - Herbie Mann - Come Together.wav

Pre-gap length 0:00:01.64

Peak level 94.8 %
Track quality 100.0 %
Test CRC 6F3D255D
Copy CRC 6F3D255D
Copy OK

Track 19
Filename D:\FLAC\VA - Daytrippers-Songs Of The Beatles (2005) [FLAC]\19 - Brad Mehldau - Dear Prudence.wav

Pre-gap length 0:00:01.62

Peak level 87.2 %
Track quality 99.9 %
Test CRC 3738A1CE
Copy CRC 3738A1CE
Copy OK

No errors occured


End of status report


VA - Daytrippers: Songs Of The Beatles (2005) {Warner Strategic Marketing} **[RE-UP]**