Subcategories

Deutsch Amerikanische Freundschaft (D.A.F.) - Das Beste Von DAF (The Best Of D.A.F.) (2009)

Posted By: Designol
Deutsch Amerikanische Freundschaft (D.A.F.) - Das Beste Von DAF (The Best Of D.A.F.) (2009)

Deutsch Amerikanische Freundschaft (D.A.F.) - Das Beste Von DAF (The Best Of D.A.F.) (2009)
EAC | FLAC | Image (Cue&Log) ~ 504 Mb (incl 5%) | Mp3 (CBR320) ~ 222 Mb (incl 5%) | Scans included
Genre: Electronic, EBM, Industrial, Post-Punk | Label: Mute | # DAF4CD, 5099969341021 | Time: 01:11:57

This DAF overview from Mute's Grey Area pulls from Alles Ist Gut, Gold und Liebe, and Für Immer, the three Conny Planck-produced albums Robert Görl and Gabi Delgado released on Virgin during 1981 and 1982. It's even-handed in its selections, with six tracks off Gold und Liebe and seven each from the other two. Virtually all the highlights are here, and almost all of them dish out the impossibly clenched, bruising rhythms and barked vocals DAF perfected during this phase. The slower, sleazier, and even more sinister material ("Im Dschungel der Liebe," "Prinzessin") is also well represented. Naturally, this is the best dose of early electronic body music short of Mute's fine 1998 album reissues.

Review by Andy Kellman, Allmusic.com
Deutsch Amerikanische Freundschaft (D.A.F.) - Das Beste Von DAF (The Best Of D.A.F.) (2009)



Tracklist:

01. Greif Nach Den Sternen (03:42)
02. Sex Unter Wasser (03:05)
03. Der Mussolini (03:54)
04. Ich Will (03:20)
05. Verschwende Deine Jugend (03:49)
06. Alle Gegen Alle (03:58)
07. Was Ziehst Du An Heute Nacht (03:46)
08. Rote Lippen (02:43)
09. Sato Sato (02:51)
10. Ein Bisschen Krieg (04:02)
11. Die Gotter Sind Weiss (03:02)
12. Im Dschungel Der Liebe (04:12)
13. Verlieb Dich In Mich (03:44)
14. Der Rauber Und Der Prinz (03:30)
15. Ich Und Die Wirklichkeit (03:06)
16. Verehrt Euren Haarschnitt (03:25)
17. Goldenes Spielzung (03:57)
18. Als Wars Das Letzte Mal (03:26)
19. Liebe Auf Den Ersten Blick (03:58)
20. Prinzessin (04:19)


Exact Audio Copy V1.0 beta 3 from 29. August 2011

EAC extraction logfile from 26. May 2012, 21:58

Deutsch Amerikanische Freundschaft / Das Beste Von DAF (Mute Records, DAF4CD)

Used drive : ASUS DRW-24B1ST Adapter: 3 ID: 0

Read mode : Secure
Utilize accurate stream : Yes
Defeat audio cache : Yes
Make use of C2 pointers : No

Read offset correction : 6
Overread into Lead-In and Lead-Out : No
Fill up missing offset samples with silence : Yes
Delete leading and trailing silent blocks : No
Null samples used in CRC calculations : Yes
Used interface : Native Win32 interface for Win NT & 2000

Used output format : User Defined Encoder
Selected bitrate : 1024 kBit/s
Quality : High
Add ID3 tag : No
Command line compressor : C:\Program Files\FLAC\flac.exe
Additional command line options : -8 -V %source% -o %dest%


TOC of the extracted CD

Track | Start | Length | Start sector | End sector
––––––––––––––––––––––––––––-
1 | 0:00.00 | 3:42.30 | 0 | 16679
2 | 3:42.30 | 3:05.48 | 16680 | 30602
3 | 6:48.03 | 3:54.47 | 30603 | 48199
4 | 10:42.50 | 3:20.23 | 48200 | 63222
5 | 14:02.73 | 3:49.33 | 63223 | 80430
6 | 17:52.31 | 3:58.14 | 80431 | 98294
7 | 21:50.45 | 3:46.39 | 98295 | 115283
8 | 25:37.09 | 2:43.50 | 115284 | 127558
9 | 28:20.59 | 2:51.32 | 127559 | 140415
10 | 31:12.16 | 4:02.39 | 140416 | 158604
11 | 35:14.55 | 3:02.11 | 158605 | 172265
12 | 38:16.66 | 4:12.23 | 172266 | 191188
13 | 42:29.14 | 3:44.32 | 191189 | 208020
14 | 46:13.46 | 3:30.28 | 208021 | 223798
15 | 49:43.74 | 3:06.73 | 223799 | 237821
16 | 52:50.72 | 3:25.01 | 237822 | 253197
17 | 56:15.73 | 3:57.36 | 253198 | 271008
18 | 60:13.34 | 3:26.09 | 271009 | 286467
19 | 63:39.43 | 3:58.55 | 286468 | 304372
20 | 67:38.23 | 4:19.18 | 304373 | 323815


Range status and errors

Selected range

Filename C:\Mysterons [Skull_of_Sheeps]\D.A.F. [2009] Das Beste Von DAF (Mute Records, DAF4CD)\D.A.F. - Das Beste Von DAF (Mute Records, DAF4CD).wav

Peak level 100.0 %
Extraction speed 8.9 X
Range quality 100.0 %
Test CRC 9D7F6994
Copy CRC 9D7F6994
Copy OK

No errors occurred


AccurateRip summary

Track 1 accurately ripped (confidence 2) [F02311D7] (AR v2)
Track 2 accurately ripped (confidence 2) [AF09D823] (AR v2)
Track 3 accurately ripped (confidence 2) [93BDCD41] (AR v2)
Track 4 accurately ripped (confidence 2) [0BFD8473] (AR v2)
Track 5 accurately ripped (confidence 2) [75558F56] (AR v2)
Track 6 accurately ripped (confidence 2) [6F854D3A] (AR v2)
Track 7 accurately ripped (confidence 2) [96C58429] (AR v2)
Track 8 accurately ripped (confidence 2) [6347FC15] (AR v2)
Track 9 accurately ripped (confidence 2) [71815325] (AR v2)
Track 10 accurately ripped (confidence 2) [DC7890B6] (AR v2)
Track 11 accurately ripped (confidence 2) [1F03ED6B] (AR v2)
Track 12 accurately ripped (confidence 2) [C1802ABA] (AR v2)
Track 13 accurately ripped (confidence 2) [1326B553] (AR v2)
Track 14 accurately ripped (confidence 2) [82361C2E] (AR v2)
Track 15 accurately ripped (confidence 2) [1EB5D5A2] (AR v2)
Track 16 accurately ripped (confidence 2) [A1ED20A7] (AR v2)
Track 17 accurately ripped (confidence 2) [AA3790FA] (AR v2)
Track 18 accurately ripped (confidence 2) [C0885D44] (AR v2)
Track 19 accurately ripped (confidence 2) [B23C5C47] (AR v2)
Track 20 accurately ripped (confidence 2) [CA638B86] (AR v2)

All tracks accurately ripped

End of status report

–– CUETools DB Plugin V2.1.3

[CTDB TOCID: c_Xl4AfJxPkETEpUgCYkSUztIo0-] found, Submit result: c_Xl4AfJxPkETEpUgCYkSUztIo0- has been confirmed
[f09a8e3b] (1/1) Accurately ripped


==== Log checksum 6EAD4D28E5545F13D67D02AACB63D2BD391DCF4A3486B1740D301FD78C981FC2 ====

foobar2000 1.2 / Dynamic Range Meter 1.1.1
log date: 2015-04-07 18:00:48

––––––––––––––––––––––––––––––––––––––––
Analyzed: Deutsch Amerikanische Freundschaft / Das Beste Von DAF (Mute Records, DAF4CD)
––––––––––––––––––––––––––––––––––––––––

DR Peak RMS Duration Track
––––––––––––––––––––––––––––––––––––––––
DR11 0.00 dB -11.90 dB 3:42 01-Greif Nach Den Sternen
DR10 0.00 dB -11.10 dB 3:06 02-Sex Unter Wasser
DR11 0.00 dB -12.03 dB 3:55 03-Der Mussolini
DR10 0.00 dB -10.70 dB 3:20 04-Ich Will
DR9 0.00 dB -9.31 dB 3:49 05-Verschwende Deine Jugend
DR11 0.00 dB -11.99 dB 3:58 06-Alle Gegen Alle
DR11 0.00 dB -11.99 dB 3:47 07-Was Ziehst Du An Heute Nacht
DR12 0.00 dB -13.07 dB 2:44 08-Rote Lippen
DR12 0.00 dB -13.80 dB 2:51 09-Sato Sato
DR10 0.00 dB -11.40 dB 4:03 10-Ein Bisschen Krieg
DR13 0.00 dB -13.93 dB 3:02 11-Die Gotter Sind Weiss
DR11 0.00 dB -12.18 dB 4:12 12-Im Dschungel Der Liebe
DR11 0.00 dB -12.23 dB 3:44 13-Verlieb Dich In Mich
DR13 0.00 dB -14.34 dB 3:30 14-Der Rauber Und Der Prinz
DR13 0.00 dB -14.19 dB 3:07 15-Ich Und Die Wirklichkeit
DR13 0.00 dB -13.84 dB 3:25 16-Verehrt Euren Haarschnitt
DR12 0.00 dB -12.93 dB 3:57 17-Goldenes Spielzung
DR12 0.00 dB -12.34 dB 3:26 18-Als Wars Das Letzte Mal
DR12 0.00 dB -12.66 dB 3:59 19-Liebe Auf Den Ersten Blick
DR10 0.00 dB -10.92 dB 4:19 20-Prinzessin
––––––––––––––––––––––––––––––––––––––––

Number of tracks: 20
Official DR value: DR11

Samplerate: 44100 Hz
Channels: 2
Bits per sample: 16
Bitrate: 844 kbps
Codec: FLAC
================================================================================

Deutsch Amerikanische Freundschaft (D.A.F.) - Das Beste Von DAF (The Best Of D.A.F.) (2009)

Deutsch Amerikanische Freundschaft (D.A.F.) - Das Beste Von DAF (The Best Of D.A.F.) (2009)

All thanks to original releaser - Mysterons

More interesting music in My Blog