Subcategories

Drive Like Jehu - Yank Crime (1994) {Cargo/Interscope/Atlantic}

Posted By: TestTickles
Drive Like Jehu - Yank Crime (1994) {Cargo/Interscope/Atlantic}

Drive Like Jehu - Yank Crime (1994) {Cargo/Interscope/Atlantic}
EAC Rip | FLAC with CUE and LOG | scans | 354 mb
MP3 CBR 320 kbps | RAR | 111 mb
Genre: alternative rock, punk

Yank Crime is the 1994 album by San Diego's Drive Like Jehu. It was their first album for a major label but it was also the last album they made in their lifetime. This was released by Cargo/Interscope/Atlantic.

Drive Like Jehu - Yank Crime (1994) {Cargo/Interscope/Atlantic}

1. Here Come The Rome Plows (5:43)
2. Do You Compute (7:12)
3. Golden Brown (3:14)
4. Luau (9:27)
5. Super Unison (7:24)
6. New Intro (3:32)
7. New Math (4:05)
8. Human Interest (3:24)
9. Sinews (9:07)

EAC extraction logfile from 9. February 2007, 18:40 for CD
Drive Like Jehu / Yank Crime

Used drive : AOPEN DUW1616/ARR Adapter: 3 ID: 0
Read mode : Secure with NO C2, accurate stream, disable cache
Read offset correction : 91
Overread into Lead-In and Lead-Out : No

Used output format : C:\Program Files\Exact Audio Copy\flac.exe (User Defined Encoder)
192 kBit/s
Additional command line options : -8 -A tukey(0.25) -A gauss(0.1875) -b 4096 -V -T "artist=%a" -T "title=%t" -T "album=%g" -T "date=%y" -T "tracknumber=%n" -T "genre=%m" %s –sector-align

Other options :
Fill up missing offset samples with silence : Yes
Delete leading and trailing silent blocks : No
Native Win32 interface for Win NT & 2000

Track 1
Filename C:\cuntfist\FLAC\Drive Like Jehu - Yank Crime (1994) [FLAC] {Cargo, Interscope, Atlantic}\01 - Here Come The Rome Plows.wav

Pre-gap length 0:00:02.42

Peak level 92.1 %
Track quality 100.0 %
Test CRC 4B3B4764
Copy CRC 4B3B4764
Copy OK

Track 2
Filename C:\cuntfist\FLAC\Drive Like Jehu - Yank Crime (1994) [FLAC] {Cargo, Interscope, Atlantic}\02 - Do You Compute.wav

Pre-gap length 0:00:02.40

Peak level 95.7 %
Track quality 100.0 %
Test CRC C70EAEAC
Copy CRC C70EAEAC
Copy OK

Track 3
Filename C:\cuntfist\FLAC\Drive Like Jehu - Yank Crime (1994) [FLAC] {Cargo, Interscope, Atlantic}\03 - Golden Brown.wav

Pre-gap length 0:00:03.73

Peak level 100.0 %
Track quality 100.0 %
Test CRC 0F590BD7
Copy CRC 0F590BD7
Copy OK

Track 4
Filename C:\cuntfist\FLAC\Drive Like Jehu - Yank Crime (1994) [FLAC] {Cargo, Interscope, Atlantic}\04 - Luau.wav

Pre-gap length 0:00:02.53

Peak level 93.4 %
Track quality 99.9 %
Test CRC 339261C0
Copy CRC 339261C0
Copy OK

Track 5
Filename C:\cuntfist\FLAC\Drive Like Jehu - Yank Crime (1994) [FLAC] {Cargo, Interscope, Atlantic}\05 - Super Unison.wav

Pre-gap length 0:00:05.40

Peak level 100.0 %
Track quality 99.9 %
Test CRC 74A83437
Copy CRC 74A83437
Copy OK

Track 6
Filename C:\cuntfist\FLAC\Drive Like Jehu - Yank Crime (1994) [FLAC] {Cargo, Interscope, Atlantic}\06 - New Intro.wav

Pre-gap length 0:00:02.66

Peak level 100.0 %
Track quality 99.9 %
Test CRC 568C4693
Copy CRC 568C4693
Copy OK

Track 7
Filename C:\cuntfist\FLAC\Drive Like Jehu - Yank Crime (1994) [FLAC] {Cargo, Interscope, Atlantic}\07 - New Math.wav

Peak level 100.0 %
Track quality 100.0 %
Test CRC 9BF33D42
Copy CRC 9BF33D42
Copy OK

Track 8
Filename C:\cuntfist\FLAC\Drive Like Jehu - Yank Crime (1994) [FLAC] {Cargo, Interscope, Atlantic}\08 - Human Interest.wav

Pre-gap length 0:00:02.10

Peak level 100.0 %
Track quality 99.9 %
Test CRC D60F7D38
Copy CRC D60F7D38
Copy OK

Track 9
Filename C:\cuntfist\FLAC\Drive Like Jehu - Yank Crime (1994) [FLAC] {Cargo, Interscope, Atlantic}\09 - Sinews.wav

Pre-gap length 0:00:02.70

Peak level 88.8 %
Track quality 99.9 %
Test CRC 4E0CF317
Copy CRC 4E0CF317
Copy OK

No errors occured

End of status report


Drive Like Jehu - Yank Crime (1994) {Cargo/Interscope/Atlantic}


Thank you to the original uploader